<?xml version="1.0" standalone="no"?>
<!DOCTYPE svg PUBLIC "-//W3C//DTD SVG 1.1//EN" "http://www.w3.org/Graphics/SVG/1.1/DTD/svg11.dtd" >
<svg xmlns="http://www.w3.org/2000/svg">
<metadata>
Created by FontPrep 20130207 at Mon Apr 27 13:26:25 2015
 By Martin
Copyright (c) 1987, 1991, 1993 Adobe Systems Incorporated.  All Rights Reserved.Futura is a registered trademark of Fundicion Tipografica Neufville S. A.
</metadata>
<defs>
<font id="8de9c4a7fd9b90b932104857e881150c" horiz-adv-x='1024' >
  <font-face 
    font-family="FuturaLT-Light"
    font-weight="400"
    font-stretch="normal"
    units-per-em="2048"
    panose-1="2 0 5 4 3 0 0 2 0 3"
    ascent="1638"
    descent="-410"
    x-height="946"
    cap-height="1544"
    bbox="-358 -618 2308 1989"
    underline-thickness="102"
    underline-position="-153"
    unicode-range="U+0020-2122"
  />
<missing-glyph horiz-adv-x="1024" 
d="M102 1049h820v-1049h-820v1049zM905 16v1016h-786v-1016h786z" />
    <glyph glyph-name=".notdef" horiz-adv-x="1024" 
d="M102 1049h820v-1049h-820v1049zM905 16v1016h-786v-1016h786z" />
    <glyph glyph-name=".null" horiz-adv-x="0" 
 />
    <glyph glyph-name="nonmarkingreturn" horiz-adv-x="634" 
 />
    <glyph glyph-name="space" unicode=" " horiz-adv-x="634" 
 />
    <glyph glyph-name="exclam" unicode="!" horiz-adv-x="655" 
d="M327.5 147q34.5 0 59.5 -24.5t25 -59t-25 -59t-59.5 -24.5t-59 24.5t-24.5 59t24.5 59t59 24.5zM279 1544h98v-1251h-98v1251z" />
    <glyph glyph-name="quotedbl" unicode="&#x22;" horiz-adv-x="569" 
d="M217 1544l-22 -491h-56l-20 491h98zM451 1544l-23 -491h-55l-21 491h99z" />
    <glyph glyph-name="numbersign" unicode="#" 
d="M1098 467h-258l-76 -467h-94l73 467h-276l-68 -467h-98l68 467h-248v98h262l47 332h-252v98h266l66 435h102l-65 -435h278l66 435h102l-67 -435h225v-98h-242l-53 -332h242v-98zM530 897l-49 -332h279l49 332h-279z" />
    <glyph glyph-name="dollar" unicode="$" 
d="M919.5 616q-81.5 68 -208.5 125v-659q124 28 207 129.5t83 219.5q0 117 -81.5 185zM618 1466q-108 0 -185 -87.5t-77 -200.5q0 -140 108.5 -200t153.5 -83v571zM258 1173q0 168 100.5 274t259.5 118v215h93v-219q98 -12 182 -68.5t131 -144.5l-76 -62q-39 66 -99.5 118
t-137.5 62v-614q72 -37 141.5 -72t158.5 -109.5t89 -237.5t-115 -291.5t-274 -157.5v-232h-93v228q-162 4 -277.5 92t-170.5 241l84 39q77 -197 188 -237.5t176 -36.5v708q-174 86 -234 136.5t-93 109t-33 141.5z" />
    <glyph glyph-name="percent" unicode="%" horiz-adv-x="1359" 
d="M368.5 1559q130.5 0 221 -87t90.5 -218t-90 -216.5t-221 -85.5t-221.5 86t-90.5 216q0 131 90.5 218t221 87zM369 1473q-45 0 -86 -17.5t-72 -46.5t-49.5 -70t-18.5 -86t18.5 -84t49.5 -68.5t72 -46t86 -16.5t86 16.5t71.5 46t49 68.5t18.5 84t-18.5 86t-49 70
t-71.5 46.5t-86 17.5zM1169 1544l-917 -1579l-64 37l914 1577zM1213 504q90 -88 90 -217t-90.5 -215t-221.5 -86t-221 86t-90 215q0 130 89.5 217.5t221.5 87.5t222 -88zM991 506q-45 0 -86 -17.5t-71.5 -46t-49 -69.5t-18.5 -86t18.5 -84t49 -69t71.5 -46t86 -16t86 16
t72 46t49.5 69t18.5 84t-18.5 86t-49.5 69.5t-72 46t-86 17.5z" />
    <glyph glyph-name="ampersand" unicode="&#x26;" horiz-adv-x="1314" 
d="M451 1287q0 -62 13 -99t33.5 -72t45 -67.5t45.5 -67.5q41 33 144.5 102.5t103.5 204.5q0 79 -55 136t-136 57q-82 0 -138 -66t-56 -128zM162.5 88q-117.5 119 -117.5 289q0 247 194.5 379.5t274.5 181.5l-94.5 129.5t-67.5 197.5q0 133 89.5 220.5t209.5 87.5
t201.5 -83.5t81.5 -203.5q0 -168 -117 -255t-172 -126l381 -520l197 215l75 -41l-215 -246l236 -313h-107l-194 256q-162 -135 -298 -211t-288 -76t-269.5 119zM143 391q0 -70 22.5 -129t62.5 -103t96.5 -71t150 -27t216 75t270.5 198l-390 526l-98 -65q-152 -97 -210 -156
t-89 -118.5t-31 -129.5z" />
    <glyph glyph-name="quotesingle" unicode="'" horiz-adv-x="454" 
d="M276 1544l-22 -491h-55l-21 491h98z" />
    <glyph glyph-name="parenleft" unicode="(" horiz-adv-x="491" 
d="M227 623q0 -465 129 -934l-75 -51q-107 274 -126.5 567t-19.5 401q0 249 35 526t111 465l75 -53q-129 -456 -129 -921z" />
    <glyph glyph-name="parenright" unicode=")" horiz-adv-x="491" 
d="M264 626q0 468 -129 918l76 53q73 -182 109 -456.5t36 -458.5q0 -672 -145 -1044l-76 51q129 469 129 937z" />
    <glyph glyph-name="asterisk" unicode="*" horiz-adv-x="1267" 
d="M584 1544h100l-8 -307l291 102l30 -96l-295 -88l189 -244l-82 -59l-174 254l-176 -254l-80 57l186 246l-295 88l31 96l291 -102z" />
    <glyph glyph-name="plus" unicode="+" 
d="M586 1049h98v-476h475v-98h-475v-475h-98v475h-475v98h475v476z" />
    <glyph glyph-name="comma" unicode="," horiz-adv-x="634" 
d="M406 123l-170 -463l-62 23l139 469z" />
    <glyph glyph-name="hyphenminus" unicode="-" horiz-adv-x="389" 
d="M389 700v-92h-389v92h389z" />
    <glyph glyph-name="period" unicode="." horiz-adv-x="634" 
d="M317.5 147q34.5 0 59 -24.5t24.5 -59t-24.5 -59t-59 -24.5t-59.5 24.5t-25 59t25 59t59.5 24.5z" />
    <glyph glyph-name="slash" unicode="/" horiz-adv-x="1310" 
d="M1239 1653l-1092 -1944l-75 39l1095 1942z" />
    <glyph glyph-name="zero" unicode="0" 
d="M635 1565q96 0 175 -36t141.5 -95.5t108.5 -138t75.5 -166t45 -177.5t15.5 -170t-14.5 -170t-44 -180t-74.5 -171t-107.5 -144.5t-142.5 -100t-178 -36.5t-178 36.5t-142.5 100t-107.5 144.5t-75 171t-44 180t-14 170t15 170t45 177.5t76 166t108.5 138t141.5 95.5
t175 36zM635 72q123 0 211 71.5t144.5 179t82 231.5t25.5 222t-25.5 217t-82 225.5t-144.5 180.5t-211 74t-211 -74t-144.5 -180.5t-82 -225.5t-25.5 -217t25.5 -222t82 -231.5t144.5 -179t211 -71.5z" />
    <glyph glyph-name="one" unicode="1" 
d="M729 1544v-1544h-98v1452h-244l47 92h295z" />
    <glyph glyph-name="two" unicode="2" 
d="M1094 92v-92h-953l576 633q43 49 163.5 185t120.5 294t-108.5 259.5t-260.5 101.5q-153 0 -258.5 -103.5t-101.5 -261.5h-98q4 84 22 155.5t80 142.5t161.5 115t197.5 44q193 0 329 -130t136 -324t-121 -329t-170 -190l-449 -500h734z" />
    <glyph glyph-name="three" unicode="3" 
d="M856 1383.5q-90 89.5 -220 89.5t-208 -80t-86 -213h-98q12 176 115.5 280.5t276.5 104.5t290.5 -114.5t117.5 -283.5q0 -119 -61 -215t-170 -143q116 -47 185 -149t69 -212q0 -204 -128.5 -336t-316.5 -132t-312 112.5t-124 286.5h99q12 -136 99.5 -221.5t231.5 -85.5
t248.5 107t104.5 252q0 144 -102 235.5t-249 91.5v92q142 4 235 93t93 220t-90 220.5z" />
    <glyph glyph-name="four" unicode="4" 
d="M1174 385v-92h-218v-293h-98v293h-833v12l919 1292h12v-1212h218zM858 1298h-12l-641 -901v-12h653v913z" />
    <glyph glyph-name="five" unicode="5" 
d="M581 1051q89 0 185 -41t206.5 -153t110.5 -339t-160.5 -382.5t-396.5 -155.5q-141 0 -262 67.5t-194 188.5l90 36q59 -92 158.5 -146t202.5 -54q202 0 333 129.5t131 317.5t-131 313.5t-319 125.5q-124 0 -236 -69l201 655h587v-92h-516l-129 -418q50 17 139 17z" />
    <glyph glyph-name="six" unicode="6" 
d="M647 1061q220 0 378.5 -160.5t158.5 -373.5t-153 -380t-388 -167t-396 155t-161 383q0 184 113 340l497 707l80 -60l-340 -481l4 -4q98 41 207 41zM635 72q92 0 174 34.5t143.5 96t97 143.5t35.5 174t-35.5 174t-97 142.5t-143.5 96.5t-174 36t-174 -36t-143.5 -96.5
t-97.5 -142.5t-36 -174t36 -174t97.5 -143.5t143.5 -96t174 -34.5z" />
    <glyph glyph-name="seven" unicode="7" 
d="M143 1452v92h1121l-1106 -1560l-76 59l999 1409h-938z" />
    <glyph glyph-name="eight" unicode="8" 
d="M285 413.5q0 -143.5 103 -242.5t248 -99q144 0 246.5 100.5t102.5 241t-103 241.5t-248 101q-142 0 -245.5 -99.5t-103.5 -243zM186 403q0 281 252 402q-100 49 -158.5 145.5t-58.5 195.5t32 174t87 129t131 85t207.5 31t251 -116t119.5 -292q0 -111 -58.5 -207
t-159.5 -145q252 -121 252 -402q0 -182 -131.5 -302.5t-316.5 -120.5t-317 121t-132 302zM412 1380q-93 -93 -93 -222t93 -219.5t222 -90.5t222.5 91.5t93.5 218.5q0 128 -93.5 221.5t-222.5 93.5t-222 -93z" />
    <glyph glyph-name="nine" unicode="9" 
d="M622 487q-108 0 -206.5 43t-214 161t-115.5 340t164.5 378t390.5 156q227 0 385 -158t158 -389q0 -168 -113 -330l-498 -704l-79 59l342 481l-5 4q-101 -41 -209 -41zM637 1473q-92 0 -174 -35t-144.5 -95.5t-98.5 -142.5t-36 -174t36 -173t98.5 -142.5t144.5 -96
t174 -34.5t174 34.5t142.5 96t96 142.5t35.5 173t-35.5 174t-96 142.5t-142.5 95.5t-174 35z" />
    <glyph glyph-name="colon" unicode=":" horiz-adv-x="634" 
d="M317.5 147q34.5 0 59 -24.5t24.5 -59t-24.5 -59t-59 -24.5t-59.5 24.5t-25 59t25 59t59.5 24.5zM317.5 967q34.5 0 59 -24.5t24.5 -59.5t-24.5 -59.5t-59 -24.5t-59.5 24.5t-25 59.5t25 59.5t59.5 24.5z" />
    <glyph glyph-name="semicolon" unicode=";" horiz-adv-x="634" 
d="M406 123l-170 -463l-62 23l139 469zM330 967q35 0 59.5 -24.5t24.5 -59.5t-24.5 -59.5t-59.5 -24.5t-59.5 24.5t-24.5 59.5t24.5 59.5t59.5 24.5z" />
    <glyph glyph-name="less" unicode="&#x3c;" 
d="M1159 84v-94l-1048 481v109l1048 456v-94l-942 -418z" />
    <glyph glyph-name="equal" unicode="=" 
d="M1159 649h-1048v99h1048v-99zM1159 301h-1048v98h1048v-98z" />
    <glyph glyph-name="greater" unicode="&#x3e;" 
d="M1053 524l-942 418v94l1048 -456v-109l-1048 -481v94z" />
    <glyph glyph-name="question" unicode="?" horiz-adv-x="1005" 
d="M135 1248q0 61 30 121.5t108 128t236 67.5q157 0 259 -104t102 -265q0 -234 -132 -291t-194 -73q-138 -34 -201.5 -79t-63.5 -146t64.5 -162.5t164.5 -61.5t158.5 70.5t58.5 167.5h98q4 -144 -85 -237t-230 -93t-234.5 87.5t-93.5 217.5q0 192 115 244.5t224.5 81t181 81
t71.5 180.5t-77 209t-194 81q-118 0 -193 -75t-75 -186q0 -60 11 -108h-94q-15 83 -15 144zM497.5 147q34.5 0 59.5 -24.5t25 -59t-25 -59t-59.5 -24.5t-59 24.5t-24.5 59t24.5 59t59 24.5z" />
    <glyph glyph-name="at" unicode="@" horiz-adv-x="1638" 
d="M473 639q0 -108 58 -178t159 -66q144 6 210.5 104.5t78.5 139.5l96 301q19 63 -42.5 141t-178.5 78q-68 0 -139.5 -54t-125.5 -135t-85 -175.5t-31 -155.5zM926 410q-120 -101 -256.5 -101t-209.5 83.5t-73 202.5t35 232t99.5 206t155.5 152.5t185 59.5q177 0 266 -137
l31 96h90l-211 -663q-21 -72 -14 -109t77 -37q130 0 249.5 171.5t119.5 344.5q0 127 -53 231.5t-186 220.5t-377 116q-141 0 -266 -58.5t-218.5 -157t-147.5 -228.5t-54 -271t56.5 -268t150.5 -222.5t219.5 -151.5t237.5 -56q415 0 585 278h115q-87 -165 -265 -264.5
t-409 -99.5q-164 0 -306 62t-246.5 171t-164 254t-59.5 310t61.5 308.5t167 250t244.5 168t291 61.5t280.5 -49.5t224 -137.5t150.5 -209t55 -255t-44 -242.5t-112.5 -189.5t-153 -127t-152.5 -46q-136 0 -168 101z" />
    <glyph glyph-name="A" unicode="A" horiz-adv-x="1312" 
d="M317 508l-206 -508h-101l647 1595l646 -1595h-101l-207 508h-678zM657 1346l-303 -746h604z" />
    <glyph glyph-name="B" unicode="B" horiz-adv-x="1157" 
d="M264 92h236q82 0 162.5 6t152.5 53.5t112 118t40 156.5t-41 162t-116 112t-163 44t-166 8h-217v-660zM1065 430q0 -196 -143 -319q-82 -70 -169 -90.5t-192 -20.5h-395v1544h309q88 0 169 -14t152 -76q128 -111 128 -322t-179 -313q143 -28 231.5 -135.5t88.5 -253.5z
M264 844h170q78 0 144.5 5t132 52t90 107.5t24.5 138.5q0 177 -127 256q-59 37 -127.5 43t-136.5 6h-170v-608z" />
    <glyph glyph-name="C" unicode="C" horiz-adv-x="1513" 
d="M74 771q0 163 64.5 308.5t175 253t257.5 170t299 62.5q304 0 523 -201v-135q-86 106 -230 175t-289 69t-272 -57.5t-223 -156t-151.5 -227.5t-55.5 -267q0 -277 207 -480q98 -92 228 -152.5t267 -60.5t286.5 66.5t232.5 168.5v-135q-232 -192 -514 -192q-162 0 -307.5 62
t-256 169.5t-176 252t-65.5 307.5z" />
    <glyph glyph-name="D" unicode="D" horiz-adv-x="1335" 
d="M166 1544h278q186 0 282.5 -29.5t162 -67.5t129.5 -97q246 -230 246 -580q0 -336 -243 -570q-122 -118 -263.5 -159t-313.5 -41h-278v1544zM442 92q152 0 280 39t232 143q210 208 211 496q0 147 -56 280.5t-167 233.5t-232.5 134t-267.5 34h-178v-1360h178z" />
    <glyph glyph-name="E" unicode="E" horiz-adv-x="1038" 
d="M264 1452v-561h623v-92h-623v-707h639v-92h-737v1544h737v-92h-639z" />
    <glyph glyph-name="F" unicode="F" horiz-adv-x="909" 
d="M264 1452v-561h510v-92h-510v-799h-98v1544h622v-92h-524z" />
    <glyph glyph-name="G" unicode="G" horiz-adv-x="1687" 
d="M868 -20q-162 0 -306 62t-252.5 169.5t-172 251t-63.5 306.5t63.5 308.5t173 254t256.5 171t335 62.5t355.5 -97.5t290.5 -263.5l-80 -63q-104 154 -255.5 243t-316.5 89t-292 -57.5t-223 -154t-152.5 -223.5t-56.5 -268t55.5 -268t150.5 -222.5t222 -151.5t262 -56
q256 0 465 170q100 86 142 184t47 225h-553v92h651q7 -242 -52 -350t-110 -164q-111 -121 -266.5 -185t-317.5 -64z" />
    <glyph glyph-name="H" unicode="H" horiz-adv-x="1466" 
d="M1202 889v655h98v-1544h-98v797h-938v-797h-98v1544h98v-655h938z" />
    <glyph glyph-name="I" unicode="I" horiz-adv-x="430" 
d="M264 0h-98v1544h98v-1544z" />
    <glyph glyph-name="J" unicode="J" horiz-adv-x="446" 
d="M281 1544v-1515q0 -164 -58 -258.5t-215 -94.5q-86 0 -153.5 46.5t-102.5 121.5l74 56q27 -55 78 -93t110 -38q102 0 135 71t33 189v1515h99z" />
    <glyph glyph-name="K" unicode="K" horiz-adv-x="1165" 
d="M264 0h-98v1544h98v-721l733 721h131l-755 -743l803 -801h-129l-742 737l-41 -41v-696z" />
    <glyph glyph-name="L" unicode="L" horiz-adv-x="669" 
d="M264 92h393v-92h-491v1544h98v-1452z" />
    <glyph glyph-name="M" unicode="M" horiz-adv-x="1837" 
d="M1460 1278h-4l-538 -1329l-537 1329h-4l-264 -1278h-95l332 1595l568 -1405l569 1405l332 -1595h-95z" />
    <glyph glyph-name="N" unicode="N" horiz-adv-x="1726" 
d="M264 0h-98v1565l1296 -1368v1347h99v-1595l-1297 1378v-1327z" />
    <glyph glyph-name="O" unicode="O" horiz-adv-x="1748" 
d="M873 1565q163 0 309.5 -62.5t255 -171t173 -253t64.5 -307.5t-64.5 -306t-173 -252t-255 -171t-309.5 -62t-308 62t-253.5 171t-173 252t-64.5 306t63.5 307.5t173 253t254.5 171t308 62.5zM873 1473q-144 0 -271 -56.5t-223 -152t-151.5 -222.5t-55.5 -270t55.5 -270
t151.5 -222.5t223 -151.5t271 -56t272.5 56t223.5 151.5t151.5 223.5t56.5 270t-56.5 269t-151.5 222.5t-223.5 152t-272.5 56.5z" />
    <glyph glyph-name="P" unicode="P" horiz-adv-x="966" 
d="M264 0h-98v1544h272q92 0 177 -14t157 -74q139 -117 139 -319q0 -84 -60 -244t-413 -160h-174v-733zM442 825q76 0 143.5 15.5t127.5 68.5q100 92 100 232q-1 165 -117 251q-60 44 -129 52t-141 8h-162v-627h178z" />
    <glyph glyph-name="Q" unicode="Q" horiz-adv-x="1748" 
d="M1577 760q0 145 -54.5 274t-148.5 226.5t-222 155t-273 57.5t-273.5 -56.5t-224.5 -152t-152.5 -222.5t-56.5 -271t56.5 -271t152.5 -222.5t224.5 -150.5t260.5 -55q236 0 445 161l-385 400h139l313 -340q199 216 199 467zM1380 164q-223 -184 -521 -184q-151 0 -296 61
t-253.5 168.5t-172 252t-63.5 309.5t63.5 309.5t173 252t256 170t309.5 62.5t308 -62.5t253.5 -169t173 -250t64.5 -305.5q0 -305 -225 -559l203 -219h-133z" />
    <glyph glyph-name="R" unicode="R" horiz-adv-x="999" 
d="M264 731v-731h-98v1544h192q94 0 184.5 -10t171.5 -68q152 -110 152 -320t-123.5 -314.5t-318.5 -100.5l506 -731h-113l-504 731h-49zM389 823q72 0 141.5 10.5t126.5 58.5q111 93 111 247q0 86 -40 163.5t-124 114.5q-61 29 -135 32t-141 3h-64v-629h125z" />
    <glyph glyph-name="S" unicode="S" horiz-adv-x="1114" 
d="M567 1473q-121 0 -206 -87t-85 -222t116 -194t163 -81l295 -154q176 -110 176 -303t-145 -322.5t-322 -129.5q-178 0 -298 91t-173 240l86 39q49 -123 140.5 -200.5t240.5 -77.5t261 105.5t112 261.5q0 155 -52 181l-260 130l-278 147q-160 96 -160 271t111 286t284 111
q117 0 219.5 -58.5t157.5 -158.5l-69 -58q-115 183 -314 183z" />
    <glyph glyph-name="T" unicode="T" horiz-adv-x="921" 
d="M510 0h-98v1452h-400v92h897v-92h-399v-1452z" />
    <glyph glyph-name="U" unicode="U" horiz-adv-x="1351" 
d="M1102 1544h98v-962q0 -147 -16 -239t-88 -183q-78 -90 -190.5 -135t-229.5 -45t-229.5 45t-190.5 135q-72 91 -88 183t-16 239v962h98v-934q0 -144 14 -234t67 -157q52 -66 147.5 -106.5t197 -40.5t226 53t161 164.5t38 189.5t1.5 131v934z" />
    <glyph glyph-name="V" unicode="V" horiz-adv-x="1136" 
d="M567 225h4l457 1319h98l-561 -1595l-555 1595h99z" />
    <glyph glyph-name="W" unicode="W" horiz-adv-x="2263" 
d="M557 217l578 1405l577 -1405l428 1327h98l-520 -1595l-590 1427l-587 -1427l-516 1595h98z" />
    <glyph glyph-name="X" unicode="X" horiz-adv-x="1011" 
d="M41 1544h109l354 -663l354 663h109l-404 -756l424 -788h-106l-377 698l-373 -698h-106l421 788z" />
    <glyph glyph-name="Y" unicode="Y" horiz-adv-x="1144" 
d="M621 0h-99v659l-514 885h109l454 -782l455 782h109l-514 -885v-659z" />
    <glyph glyph-name="Z" unicode="Z" horiz-adv-x="1163" 
d="M1112 92v-92h-1087l942 1452h-852v92h1024l-942 -1452h915z" />
    <glyph glyph-name="bracketleft" unicode="[" horiz-adv-x="614" 
d="M231 -311h250v-105h-348v1960h348v-104h-250v-1751z" />
    <glyph glyph-name="backslash" unicode="\" horiz-adv-x="1310" 
d="M143 1690l1096 -1651l-76 -39l-1091 1653z" />
    <glyph glyph-name="bracketright" unicode="]" horiz-adv-x="614" 
d="M383 1440h-250v104h348v-1960h-348v105h250v1751z" />
    <glyph glyph-name="asciicircum" unicode="^" 
d="M111 616l471 928h106l471 -928h-94l-430 836l-428 -836h-96z" />
    <glyph glyph-name="underscore" unicode="_" horiz-adv-x="1024" 
d="M0 -256v102h1024v-102h-1024z" />
    <glyph glyph-name="grave" unicode="`" horiz-adv-x="641" 
d="M279 1462l206 -301l-77 -35l-254 297z" />
    <glyph glyph-name="a" unicode="a" horiz-adv-x="1146" 
d="M261.5 759.5q-103.5 -121.5 -103.5 -286.5t103 -286t274 -121t269.5 122.5t98.5 296.5t-106.5 285t-268.5 111q-163 0 -266.5 -121.5zM893 170q-113 -190 -389 -190q-80 0 -166 38.5t-146.5 106.5t-93 159t-32.5 248.5t125.5 296t336.5 138.5q111 0 208.5 -47.5
t156.5 -137.5h4v164h92v-946h-92v170h-4z" />
    <glyph glyph-name="b" unicode="b" horiz-adv-x="1146" 
d="M989 476q0 166 -105.5 285.5t-270.5 119.5t-267 -114.5t-102 -287t100.5 -293t270.5 -120.5q171 0 272.5 122t101.5 288zM158 1690h92v-908h4q59 90 156.5 137.5t205.5 47.5t193.5 -37t146 -102.5t93 -154.5t32.5 -248t-127.5 -302t-339.5 -143q-174 0 -253.5 72.5
t-106.5 117.5h-4v-170h-92v1690z" />
    <glyph glyph-name="c" unicode="c" horiz-adv-x="976" 
d="M883 727q-142 154 -321 154t-291.5 -121t-112.5 -286t113 -286.5t276 -121.5q102 0 192 46t156 124v-125q-150 -131 -351 -131t-339.5 142.5t-138.5 352.5q0 209 139.5 350.5t337.5 141.5t340 -117v-123z" />
    <glyph glyph-name="d" unicode="d" horiz-adv-x="1146" 
d="M804.5 188.5q98.5 122.5 98.5 296.5t-106.5 285t-268.5 111q-163 0 -266.5 -121.5t-103.5 -286.5t103 -286t274 -121t269.5 122.5zM893 170q-113 -190 -389 -190q-80 0 -166 38.5t-146.5 106.5t-93 159t-32.5 248.5t125.5 296t336.5 138.5q111 0 208.5 -47.5
t156.5 -137.5h4v908h92v-1690h-92v170h-4z" />
    <glyph glyph-name="e" unicode="e" horiz-adv-x="1044" 
d="M543 -20q-223 0 -350 143t-127 350t129 350.5t333 143.5t327.5 -144t123.5 -358h-821q-4 -180 104 -289.5t290 -109.5q96 0 181.5 59t136.5 156l78 -45q-66 -123 -174 -189.5t-231 -66.5zM277.5 783q-107.5 -98 -119.5 -232h729q-16 134 -118 232t-243 98t-248.5 -98z
" />
    <glyph glyph-name="f" unicode="f" horiz-adv-x="491" 
d="M393 1630q-40 0 -73 -26.5t-51.5 -75.5t-18.5 -176v-406h237v-86h-237v-860h-92v860h-105v86h105v424q0 166 35 228q67 118 213 118q45 0 81 -14v-84q-54 12 -94 12z" />
    <glyph glyph-name="g" unicode="g" horiz-adv-x="1161" 
d="M276 759.5q-104 -121.5 -104 -286.5q0 -166 104 -286.5t274 -120.5t269 123t99 297q0 173 -107 284t-269 111t-266 -121.5zM911 782v164h93v-901q0 -111 -13.5 -209t-80.5 -191t-166.5 -138.5t-201.5 -45.5q-203 0 -333.5 107.5t-142.5 298.5h92q8 -147 114.5 -233.5
t251.5 -86.5q204 0 303 142q55 82 69.5 172t14.5 186v117h-4q-63 -86 -161.5 -135t-203.5 -49q-207 0 -334.5 145.5t-127.5 350.5t133.5 348t346.5 143t347 -185h4z" />
    <glyph glyph-name="h" unicode="h" horiz-adv-x="1003" 
d="M520 881q-270 0 -270 -414v-467h-92v1690h92v-891h4q41 78 114.5 123t205 45t202 -99.5t70.5 -296.5v-571h-92v571q0 154 -30 207t-75 78t-129 25z" />
    <glyph glyph-name="i" unicode="i" horiz-adv-x="479" 
d="M285 0h-92v946h92v-946zM239.5 1346q34.5 0 59.5 -25t25 -59.5t-25 -59t-59.5 -24.5t-59 24.5t-24.5 59t24.5 59.5t59 25z" />
    <glyph glyph-name="j" unicode="j" horiz-adv-x="479" 
d="M285 -553h-92v1499h92v-1499zM239.5 1346q34.5 0 59.5 -25t25 -59.5t-25 -59t-59.5 -24.5t-59 24.5t-24.5 59t24.5 59.5t59 25z" />
    <glyph glyph-name="k" unicode="k" horiz-adv-x="874" 
d="M250 0h-92v1690h92v-1145l389 401h119l-398 -409l531 -537h-121l-469 473l-51 -53v-420z" />
    <glyph glyph-name="l" unicode="l" horiz-adv-x="407" 
d="M250 0h-92v1690h92v-1690z" />
    <glyph glyph-name="m" unicode="m" horiz-adv-x="1484" 
d="M492 967q190 0 266 -172q39 86 111.5 129t202 43t192.5 -97t63 -276v-594h-92v606q0 133 -27.5 181.5t-67.5 71t-111 22.5q-130 0 -185.5 -95t-55.5 -241v-545h-92v584q0 135 -29.5 190t-70.5 81t-113 26q-130 0 -181.5 -106.5t-51.5 -254.5v-520h-92v946h92v-119h4
q33 66 97.5 103t140.5 37z" />
    <glyph glyph-name="n" unicode="n" horiz-adv-x="1003" 
d="M520 881q-270 0 -270 -414v-467h-92v946h92v-147h4q41 78 114.5 123t205 45t202 -99.5t70.5 -296.5v-571h-92v571q0 154 -30 207t-75 78t-129 25z" />
    <glyph glyph-name="o" unicode="o" horiz-adv-x="1120" 
d="M911.5 121.5q-143.5 -141.5 -351.5 -141.5t-351 146t-143 349t142.5 347.5t350.5 144.5t352 -142t144 -352t-143.5 -351.5zM270.5 760q-112.5 -121 -112.5 -288q0 -166 114 -286t284 -120q171 0 289 118t118 290t-119 289.5t-290 117.5t-283.5 -121z" />
    <glyph glyph-name="p" unicode="p" horiz-adv-x="1146" 
d="M343 755.5q-99 -125.5 -99 -299.5t104 -282t269 -108q166 0 269 117t103 283t-102 290.5t-274 124.5q-171 0 -270 -125.5zM254 776q115 191 388 191q81 0 167 -40t146.5 -107.5t93 -159t32.5 -248t-125 -294.5t-338 -138q-111 0 -208 46t-156 138h-4v-717h-92v1499h92
v-170h4z" />
    <glyph glyph-name="q" unicode="q" horiz-adv-x="1146" 
d="M257 755.5q-99 -125.5 -99 -299.5t104 -282t269 -108q166 0 269 117t103 283t-102 290.5t-274 124.5q-171 0 -270 -125.5zM989 -553h-92v717h-4q-59 -92 -157 -138t-206 -46q-213 0 -338.5 136t-125.5 350t129 357.5t337 143.5q172 0 253 -73t108 -118h4v170h92v-1499z
" />
    <glyph glyph-name="r" unicode="r" horiz-adv-x="569" 
d="M444 881q-133 0 -162.5 -104.5t-30.5 -173t-1 -120.5v-483h-92v946h92v-123h4q63 144 205 144q45 0 100 -23l-49 -82q-30 19 -66 19z" />
    <glyph glyph-name="s" unicode="s" horiz-adv-x="768" 
d="M276.5 836q-49.5 -45 -49.5 -103q0 -57 34 -89t85 -54.5t111.5 -43t145.5 -72.5t85 -191t-89 -221t-212 -82t-212 66.5t-118 182.5l90 29q27 -86 84.5 -139t149.5 -53t153.5 61t61.5 162t-75 132.5t-117 46.5q-127 46 -198 99.5t-71 157.5t75.5 173t165.5 69
q89 0 158.5 -43t100.5 -109l-80 -41q-23 49 -67 78t-103 29t-108.5 -45z" />
    <glyph glyph-name="t" unicode="t" horiz-adv-x="428" 
d="M260 0h-92v860h-105v86h105v338h92v-338h166v-86h-166v-860z" />
    <glyph glyph-name="u" unicode="u" horiz-adv-x="966" 
d="M823 946v-567q0 -72 -6 -142.5t-53 -133.5t-124 -93t-157 -30t-156.5 30.5t-123.5 92.5t-53.5 133t-6.5 143v567h93v-534q0 -168 31.5 -228.5t80.5 -89t169.5 -28.5t167 89t46.5 257v534h92z" />
    <glyph glyph-name="v" unicode="v" horiz-adv-x="886" 
d="M446 166l336 780h95l-433 -997l-434 997h94z" />
    <glyph glyph-name="w" unicode="w" horiz-adv-x="1540" 
d="M438 170l334 827l336 -827l328 776h94l-428 -997l-334 817l-332 -817l-426 997h94z" />
    <glyph glyph-name="x" unicode="x" horiz-adv-x="907" 
d="M41 946h111l301 -383l303 383h110l-352 -446l385 -500h-108l-338 434l-336 -434h-109l385 500z" />
    <glyph glyph-name="y" unicode="y" horiz-adv-x="942" 
d="M-14 946h96l403 -856l363 856h94l-635 -1499h-94l227 537z" />
    <glyph glyph-name="z" unicode="z" horiz-adv-x="983" 
d="M969 86v-86h-963l774 860h-649v86h842l-772 -860h768z" />
    <glyph glyph-name="braceleft" unicode="{" horiz-adv-x="614" 
d="M233 848v360q0 180 63 256t234 80v-94q-88 0 -143 -34t-55 -130v-381q0 -146 -35.5 -213.5t-114.5 -120.5v-10q79 -54 114.5 -122t35.5 -222v-379q0 -138 82 -151t116 -13v-90q-169 4 -233 79.5t-64 254.5v361q0 82 -36.5 136.5t-112.5 106.5v90q78 56 113.5 104
t35.5 132z" />
    <glyph glyph-name="bar" unicode="|" horiz-adv-x="655" 
d="M279 1610h98v-2048h-98v2048z" />
    <glyph glyph-name="braceright" unicode="}" horiz-adv-x="614" 
d="M283 1286q0 164 -199 164v94q173 -4 235 -80t62 -256v-360q0 -114 57.5 -162.5t91.5 -73.5v-90q-72 -51 -110.5 -103t-38.5 -140v-361q0 -179 -63.5 -254.5t-233.5 -79.5v90q85 0 142 33.5t57 130.5v379q0 156 35.5 225t113.5 119v10q-79 53 -114 119.5t-35 214.5v381z
" />
    <glyph glyph-name="asciitilde" unicode="~" 
d="M876 487q94 0 185 164l98 -47q-69 -105 -138.5 -164t-160.5 -59q-55 0 -111.5 24.5t-112.5 53.5t-113 53.5t-119 24.5t-109 -45.5t-88 -106.5l-96 47q27 33 98 122t181 89t261 -74q61 -29 115 -55.5t110 -26.5z" />
    <glyph glyph-name="Euro" 
d="M180 770v43h-164l29 92h143q33 285 202 473t431 187q262 0 430 -162l-30 -107q-84 96 -174 136t-230 41q-211 0 -355 -148t-175 -420h817l-29 -92h-796v-51q0 -49 4 -103h745l-29 -92h-702q43 -219 172 -352q143 -143 358 -143q154 0 232 33t162 110v-119
q-90 -68 -170 -92t-220 -24q-262 0 -426 164t-208 423h-181l29 92h139q-4 58 -4 111z" />
    <glyph glyph-name="Euro" unicode="&#x20ac;" 
d="M180 770v43h-164l29 92h143q33 285 202 473t431 187q262 0 430 -162l-30 -107q-84 96 -174 136t-230 41q-211 0 -355 -148t-175 -420h817l-29 -92h-796v-51q0 -49 4 -103h745l-29 -92h-702q43 -219 172 -352q143 -143 358 -143q154 0 232 33t162 110v-119
q-90 -68 -170 -92t-220 -24q-262 0 -426 164t-208 423h-181l29 92h139q-4 58 -4 111z" />
    <glyph glyph-name="Zcaron" horiz-adv-x="1163" 
d="M1112 92v-92h-1087l942 1452h-852v92h1024l-942 -1452h915zM606 1671l-282 219l77 58l205 -156l209 156l74 -58z" />
    <glyph glyph-name="Zcaron" unicode="&#x17d;" horiz-adv-x="1163" 
d="M1112 92v-92h-1087l942 1452h-852v92h1024l-942 -1452h915zM606 1671l-282 219l77 58l205 -156l209 156l74 -58z" />
    <glyph glyph-name="zcaron" horiz-adv-x="983" 
d="M969 86v-86h-963l774 860h-649v86h842l-772 -860h768zM543 1145l-283 219l78 57l205 -155l209 155l73 -57z" />
    <glyph glyph-name="zcaron" unicode="&#x17e;" horiz-adv-x="983" 
d="M969 86v-86h-963l774 860h-649v86h842l-772 -860h768zM543 1145l-283 219l78 57l205 -155l209 155l73 -57z" />
    <glyph glyph-name="nonbreakingspace" unicode="&#xa0;" horiz-adv-x="634" 
 />
    <glyph glyph-name="exclamdown" unicode="&#xa1;" horiz-adv-x="655" 
d="M327.5 967q34.5 0 59.5 -24.5t25 -59.5t-25 -59.5t-59.5 -24.5t-59 24.5t-24.5 59.5t24.5 59.5t59 24.5zM377 -594h-98v1251h98v-1251z" />
    <glyph glyph-name="cent" unicode="&#xa2;" 
d="M1049 549v-125q-148 -123 -310 -131v-262h-92v264q-182 16 -305 157.5t-123 329.5q0 189 118 333.5t310 164.5v240h92v-238q172 -8 297 -119v-123q-129 144 -297 156v-817q92 8 172 54t133 116h5zM408 517q97 -117 239 -136v811q-143 -19 -239.5 -137t-96.5 -269.5
t97 -268.5z" />
    <glyph glyph-name="sterling" unicode="&#xa3;" 
d="M276 496v92h230l-166 282q-49 78 -80 147t-31 157q0 170 122.5 280.5t289.5 110.5t282 -118.5t111 -289.5h-98q0 137 -85.5 226.5t-214.5 89.5q-130 0 -219 -91t-89 -215q0 -66 29.5 -124.5t72.5 -128.5t94 -152t88 -174h279v-92h-260l4 -68q0 -141 -117 -258l21 -6
q27 -10 67.5 -25.5t114.5 -41t132 -25.5q59 0 114 53t88 115l84 -50q-124 -210 -289 -210q-72 0 -181.5 41.5t-162 60t-108.5 18.5q-92 0 -212 -120l-55 79q49 57 124 96.5t151 37.5q131 111 131 243l-7 60h-254z" />
    <glyph glyph-name="currency" unicode="&#xa4;" 
d="M635 1126q98 0 175 -29.5t161 -88.5l86 86l73 -74l-81 -82q57 -88 82.5 -162t25.5 -162t-25.5 -161.5t-82.5 -161.5l81 -82l-73 -74l-86 86q-84 -59 -161 -89t-175 -30t-175 30t-161 89l-86 -86l-74 74l82 82q-57 88 -82.5 161.5t-25.5 161.5t25.5 162t82.5 162l-82 82
l74 74l86 -86q84 59 161 88.5t175 29.5zM930.5 323.5q124.5 122.5 128.5 292.5t-118 289t-306 123q-183 -4 -305.5 -122.5t-118.5 -288.5t128 -293t295.5 -123t296 122.5z" />
    <glyph glyph-name="yen" unicode="&#xa5;" 
d="M168 813v92h274l-370 639h118l445 -772l444 772h119l-371 -639h275v-92h-328l-90 -154h418v-92h-418v-567h-98v567h-418v92h418l-88 154h-330z" />
    <glyph glyph-name="brokenbar" unicode="&#xa6;" horiz-adv-x="655" 
d="M279 330h98v-512h-98v512zM279 1354h98v-512h-98v512z" />
    <glyph glyph-name="section" unicode="&#xa7;" 
d="M635 317q55 0 105.5 21.5t87 58.5t59 86t22.5 104.5t-22.5 105.5t-59 87t-87 59.5t-105.5 22.5t-105.5 -22.5t-88.5 -59.5t-60.5 -87t-22.5 -105.5t22.5 -104.5t60.5 -86t88.5 -58.5t105.5 -21.5zM897 1194q-4 279 -240 279q-125 0 -194.5 -66t-69.5 -185t76.5 -168
t183.5 -83.5t231 -93t124 -295.5q0 -119 -63.5 -205t-168.5 -137q219 -82 219 -318q0 -156 -102.5 -236.5t-274.5 -80.5q-173 0 -250 89t-73 263v20h98v-26q2 -125 55.5 -189.5t176.5 -64.5t197.5 61.5t74.5 176.5t-70.5 166t-123.5 70t-115 41q-162 58 -245 135t-83 235
q0 121 60.5 213t171.5 139q-197 96 -197 288q0 174 101.5 258.5t270.5 84.5t242 -91.5t86 -279.5h-98z" />
    <glyph glyph-name="dieresis" unicode="&#xa8;" horiz-adv-x="862" 
d="M239.5 1380q34.5 0 58.5 -23.5t24 -58t-24 -58t-58.5 -23.5t-58 23.5t-23.5 58t23.5 58t58 23.5zM622.5 1380q34.5 0 58.5 -23.5t24 -58t-24 -58t-58.5 -23.5t-58 23.5t-23.5 58t23.5 58t58 23.5z" />
    <glyph glyph-name="copyright" unicode="&#xa9;" horiz-adv-x="1638" 
d="M821 -20q-164 0 -309 62t-252.5 169.5t-170 253t-62.5 309.5t62.5 307.5t170 251t252.5 170t309 62.5t307.5 -62.5t251 -170t170 -251t62.5 -307.5t-62.5 -309.5t-170 -253t-251 -169.5t-307.5 -62zM820 78q144 0 271.5 54t220.5 148.5t147 221.5t54 271t-54 271
t-147 220.5t-220.5 147.5t-271.5 54t-271 -54t-221.5 -147.5t-148.5 -220t-54 -270.5t54 -271.5t148.5 -222t221.5 -148.5t271 -54zM507 488q-89 95 -89 294q0 198 117 325.5t315 127.5q143 0 246.5 -78t126.5 -221h-99q-15 90 -93 145.5t-167 55.5q-164 0 -256 -102
t-92 -251t94.5 -255.5t245.5 -106.5q97 0 176.5 57.5t91.5 151.5h99q-11 -137 -118.5 -222t-263.5 -85q-83 0 -164 34.5t-170 129.5z" />
    <glyph glyph-name="ordfeminine" unicode="&#xaa;" horiz-adv-x="688" 
d="M115 1268q0 -93 62.5 -159.5t165.5 -66.5t167.5 68.5t64.5 164.5t-69.5 158t-169.5 62q-94 0 -157.5 -67t-63.5 -160zM586 1454v98h59v-567h-59v102h-4q-35 -55 -100.5 -84.5t-134.5 -29.5t-125 23.5t-95 63.5t-60.5 95t-21.5 150.5t82 177.5t228 82t227 -111h4z" />
    <glyph glyph-name="guillemotleft" unicode="&#xab;" horiz-adv-x="813" 
d="M676 365l-60 -56l-299 346l299 346l60 -55l-248 -291zM430 365l-59 -56l-299 346l299 346l59 -55l-248 -291z" />
    <glyph glyph-name="logicalnot" unicode="&#xac;" 
d="M1061 649h-950v99h1048v-545h-98v446z" />
    <glyph glyph-name="hyphen" unicode="&#xad;" horiz-adv-x="389" 
d="M389 700v-92h-389v92h389z" />
    <glyph glyph-name="hyphen" unicode="&#x2010;" horiz-adv-x="389" 
d="M389 700v-92h-389v92h389z" />
    <glyph glyph-name="registered" unicode="&#xae;" horiz-adv-x="1638" 
d="M821 -20q-164 0 -309 62t-252.5 169.5t-170 253t-62.5 309.5t62.5 307.5t170 251t252.5 170t309 62.5t307.5 -62.5t251 -170t170 -251t62.5 -307.5t-62.5 -309.5t-170 -253t-251 -169.5t-307.5 -62zM820 78q144 0 271.5 54t220.5 148.5t147 221.5t54 271t-54 271
t-147 220.5t-220.5 147.5t-271.5 54t-271 -54t-221.5 -147.5t-148.5 -220t-54 -270.5t54 -271.5t148.5 -222t221.5 -148.5t271 -54zM1219 961q0 -229 -273 -238l262 -399h-127l-247 399h-203v-399h-99v866h379q172 0 240 -61.5t68 -167.5zM801 821q45 0 182 -2.5t137 144.5
q0 108 -97 118.5t-136 10.5h-256v-271h170z" />
    <glyph glyph-name="macron" unicode="&#xaf;" horiz-adv-x="933" 
d="M778 1380v-92h-624v92h624z" />
    <glyph glyph-name="degree" unicode="&#xb0;" horiz-adv-x="819" 
d="M717 1257.5q0 -63.5 -24.5 -120t-66.5 -97.5t-97.5 -65.5t-119 -24.5t-120 24.5t-97 65.5t-65.5 97.5t-25 120t24 119t65.5 97.5t98 66.5t120 24.5t119 -24.5t97.5 -66.5t66.5 -97.5t24.5 -119zM251.5 1413.5q-63.5 -65.5 -63.5 -158.5q0 -92 63 -155.5t157 -63.5
t158.5 64.5t64.5 156.5t-64 157t-158 65t-157.5 -65.5z" />
    <glyph glyph-name="plusminus" unicode="&#xb1;" 
d="M586 1049h98v-394h475v-98h-475v-393h-98v393h-475v98h475v394zM111 98h1048v-98h-1048v98z" />
    <glyph glyph-name="twosuperior" unicode="&#xb2;" horiz-adv-x="761" 
d="M688 696v-69h-618l372 379q181 181 181 292q0 90 -67 143.5t-168 53.5t-164.5 -54.5t-63.5 -148.5h-70q5 111 56 166q100 107 236 107t223 -78.5t87 -193.5t-74.5 -199t-105.5 -115l-279 -283h455z" />
    <glyph glyph-name="threesuperior" unicode="&#xb3;" horiz-adv-x="761" 
d="M375 1145q90 0 149.5 49t59.5 130t-56.5 126t-140.5 45t-133 -41t-53 -119h-70q10 104 76.5 167t179.5 63t189.5 -69t76.5 -155q0 -167 -151 -229q76 -27 121 -88.5t45 -127.5q0 -125 -84.5 -203.5t-205.5 -78.5t-202.5 68.5t-81.5 171.5h70q10 -80 62.5 -125t145.5 -45
t159.5 55.5t66.5 145.5t-64.5 140t-158.5 50v70z" />
    <glyph glyph-name="acute" unicode="&#xb4;" horiz-adv-x="641" 
d="M485 1423l-254 -297l-77 35l206 301z" />
    <glyph glyph-name="mu" unicode="&#xb5;" horiz-adv-x="966" 
d="M143 -553v1499h93v-467q0 -169 35.5 -251.5t85 -122t131.5 -39.5q151 0 197 89t46 257v534h92v-567q0 -72 -6 -142.5t-53 -133.5t-123.5 -93t-132.5 -30q-97 0 -169.5 46t-98.5 121h-4v-700h-93z" />
    <glyph glyph-name="paragraph" unicode="&#xb6;" 
d="M225 1147q0 397 416 397h403v-92h-81v-1817h-99v1817h-188v-1817h-98v1123q-156 0 -254.5 113.5t-98.5 275.5z" />
    <glyph glyph-name="periodcentered" unicode="&#xb7;" horiz-adv-x="634" 
d="M317.5 608q34.5 0 59 -24.5t24.5 -59.5t-24.5 -59.5t-59 -24.5t-59.5 24.5t-25 59.5t25 59.5t59.5 24.5z" />
    <glyph glyph-name="periodcentered" unicode="&#x22c5;" horiz-adv-x="634" 
d="M317.5 608q34.5 0 59 -24.5t24.5 -59.5t-24.5 -59.5t-59 -24.5t-59.5 24.5t-25 59.5t25 59.5t59.5 24.5z" />
    <glyph glyph-name="periodcentered" unicode="&#x2219;" horiz-adv-x="634" 
d="M317.5 608q34.5 0 59 -24.5t24.5 -59.5t-24.5 -59.5t-59 -24.5t-59.5 24.5t-25 59.5t25 59.5t59.5 24.5z" />
    <glyph glyph-name="cedilla" unicode="&#xb8;" horiz-adv-x="612" 
d="M231 -375l-77 39l190 295l115 -45z" />
    <glyph glyph-name="onesuperior" unicode="&#xb9;" horiz-adv-x="761" 
d="M500 1544v-917h-70v848h-156l31 69h195z" />
    <glyph glyph-name="ordmasculine" unicode="&#xba;" horiz-adv-x="671" 
d="M564.5 1059q-92.5 -86 -227.5 -86t-229 87.5t-94 210t93.5 208.5t229 86t228 -86t92.5 -210t-92.5 -210zM94 1268q0 -91 69.5 -158.5t168.5 -67.5t172.5 64.5t73.5 160.5t-71.5 162t-175.5 66q-98 0 -167.5 -68t-69.5 -159z" />
    <glyph glyph-name="guillemotright" unicode="&#xbb;" horiz-adv-x="813" 
d="M385 655l-248 291l60 55l299 -346l-299 -346l-60 56zM631 655l-248 291l59 55l299 -346l-299 -346l-59 56z" />
    <glyph glyph-name="onequarter" unicode="&#xbc;" horiz-adv-x="1904" 
d="M430 1544v-917h-70v848h-155l31 69h194zM1700 238v-70h-135v-168h-70v168h-530v8l587 782h13v-720h135zM1495 752h-10l-381 -506v-8h391v514zM1395 1544l-916 -1579l-65 37l915 1579z" />
    <glyph glyph-name="onehalf" unicode="&#xbd;" horiz-adv-x="1904" 
d="M430 1544v-917h-70v848h-155l31 69h194zM1696 70v-70h-619l373 379q180 180 180 293q0 90 -66.5 143t-167.5 53t-165 -54t-64 -148h-69q5 112 55 167q98 105 236 105q137 0 224 -78.5t87 -193.5q0 -114 -75 -198.5t-105 -115.5l-279 -282h455zM1305 1544l-916 -1579
l-65 37l915 1579z" />
    <glyph glyph-name="threequarters" unicode="&#xbe;" horiz-adv-x="1904" 
d="M1782 238v-70h-135v-168h-70v168h-530v8l587 782h13v-720h135zM1577 752h-10l-381 -506v-8h391v514zM403 1145q90 0 149.5 49t59.5 130t-56 126t-140 45t-133.5 -41t-53.5 -119h-69q10 104 76.5 167t178.5 63t189.5 -68.5t77.5 -155.5q0 -168 -152 -229q76 -27 121 -88.5
t45 -127.5q0 -125 -84.5 -203.5t-205.5 -78.5t-202 68.5t-81 171.5h70q10 -80 62 -125t145 -45t160 55.5t67 145.5t-64.5 140t-159.5 50v70zM1503 1544l-915 -1579l-66 37l916 1579z" />
    <glyph glyph-name="questiondown" unicode="&#xbf;" horiz-adv-x="1005" 
d="M870 -299q0 -130 -107 -224.5t-265 -94.5t-260.5 103.5t-102.5 264.5q0 233 130.5 290.5t194.5 73.5q138 34 202.5 78.5t64.5 146.5q0 101 -64.5 162.5t-164.5 61.5t-158.5 -69.5t-58.5 -167.5h-99q-8 139 83 234t232 95t234.5 -87.5t93.5 -217.5q0 -191 -114.5 -244
t-226.5 -82t-181.5 -82t-69.5 -180t77 -207.5t195 -80.5t192.5 74.5t74.5 185.5q0 65 -10 108h94q14 -77 14 -141zM508 967q35 0 59.5 -24.5t24.5 -59.5t-24.5 -59.5t-59.5 -24.5t-59.5 24.5t-24.5 59.5t24.5 59.5t59.5 24.5z" />
    <glyph glyph-name="Agrave" unicode="&#xc0;" horiz-adv-x="1312" 
d="M317 508l-206 -508h-101l647 1595l646 -1595h-101l-207 508h-678zM657 1346l-303 -746h604zM614 1989l207 -301l-78 -35l-254 297z" />
    <glyph glyph-name="Aacute" unicode="&#xc1;" horiz-adv-x="1312" 
d="M317 508l-206 -508h-101l647 1595l646 -1595h-101l-207 508h-678zM657 1346l-303 -746h604zM821 1950l-254 -297l-78 35l207 301z" />
    <glyph glyph-name="Acircumflex" unicode="&#xc2;" horiz-adv-x="1312" 
d="M317 508l-206 -508h-101l647 1595l646 -1595h-101l-207 508h-678zM657 1346l-303 -746h604zM657 1948l283 -217l-78 -60l-205 158l-208 -158l-74 60z" />
    <glyph glyph-name="Atilde" unicode="&#xc3;" horiz-adv-x="1312" 
d="M317 508l-206 -508h-101l647 1595l646 -1595h-101l-207 508h-678zM657 1346l-303 -746h604zM512 1810q-65 0 -90 -84l-62 46q20 49 61.5 90t88.5 41q60 0 155 -40t130 -40t60.5 25.5t35.5 58.5l59 -45q-14 -55 -61 -94t-96 -39q-49 1 -142 41q-92 40 -139 40z" />
    <glyph glyph-name="Adieresis" unicode="&#xc4;" horiz-adv-x="1312" 
d="M317 508l-206 -508h-101l647 1595l646 -1595h-101l-207 508h-678zM657 1346l-303 -746h604zM465 1907q35 0 58.5 -23.5t23.5 -58.5t-23.5 -58.5t-58.5 -23.5t-58.5 23.5t-23.5 58.5t23.5 58.5t58.5 23.5zM848 1907q35 0 58.5 -23.5t23.5 -58.5t-23.5 -58.5t-58.5 -23.5
t-58.5 23.5t-23.5 58.5t23.5 58.5t58.5 23.5z" />
    <glyph glyph-name="Aring" unicode="&#xc5;" horiz-adv-x="1312" 
d="M317 508l-206 -508h-101l647 1595l646 -1595h-101l-207 508h-678zM657 1346l-303 -746h604zM657.5 1989q73.5 0 126 -52.5t52.5 -126t-52.5 -126t-126 -52.5t-126 52.5t-52.5 126t52.5 126t126 52.5zM657 1907q-41 0 -68.5 -28t-27.5 -69t27.5 -68.5t68.5 -27.5t69 27.5
t28 68.5t-28 69t-69 28z" />
    <glyph glyph-name="AE" unicode="&#xc6;" horiz-adv-x="1929" 
d="M322 508l-201 -508h-111l623 1544h674l34 -92h-636l229 -561h620l39 -92h-620l287 -707h638l37 -92h-747l-205 508h-661zM649 1327l-289 -727h584z" />
    <glyph glyph-name="Ccedilla" unicode="&#xc7;" horiz-adv-x="1513" 
d="M74 771q0 163 64.5 308.5t175 253t257.5 170t299 62.5q304 0 523 -201v-135q-86 106 -230 175t-289 69t-272 -57.5t-223 -156t-151.5 -227.5t-55.5 -267q0 -277 207 -480q98 -92 228 -152.5t267 -60.5t286.5 66.5t232.5 168.5v-135q-232 -192 -514 -192q-162 0 -307.5 62
t-256 169.5t-176 252t-65.5 307.5zM682 -375l-78 39l191 295l114 -45z" />
    <glyph glyph-name="Egrave" unicode="&#xc8;" horiz-adv-x="1038" 
d="M264 1452v-561h623v-92h-623v-707h639v-92h-737v1544h737v-92h-639zM477 1989l207 -301l-78 -35l-254 297z" />
    <glyph glyph-name="Eacute" unicode="&#xc9;" horiz-adv-x="1038" 
d="M264 1452v-561h623v-92h-623v-707h639v-92h-737v1544h737v-92h-639zM725 1950l-254 -297l-78 35l207 301z" />
    <glyph glyph-name="Ecircumflex" unicode="&#xca;" horiz-adv-x="1038" 
d="M264 1452v-561h623v-92h-623v-707h639v-92h-737v1544h737v-92h-639zM520 1948l283 -217l-78 -60l-205 158l-209 -158l-73 60z" />
    <glyph glyph-name="Edieresis" unicode="&#xcb;" horiz-adv-x="1038" 
d="M264 1452v-561h623v-92h-623v-707h639v-92h-737v1544h737v-92h-639zM327.5 1907q34.5 0 58.5 -23.5t24 -58.5t-24 -58.5t-58.5 -23.5t-58 23.5t-23.5 58.5t23.5 58.5t58 23.5zM710.5 1907q34.5 0 58.5 -23.5t24 -58.5t-24 -58.5t-58.5 -23.5t-58 23.5t-23.5 58.5
t23.5 58.5t58 23.5z" />
    <glyph glyph-name="Igrave" unicode="&#xcc;" horiz-adv-x="430" 
d="M264 0h-98v1544h98v-1544zM174 1989l207 -301l-78 -35l-254 297z" />
    <glyph glyph-name="Iacute" unicode="&#xcd;" horiz-adv-x="430" 
d="M264 0h-98v1544h98v-1544zM381 1950l-254 -297l-78 35l207 301z" />
    <glyph glyph-name="Icircumflex" unicode="&#xce;" horiz-adv-x="430" 
d="M264 0h-98v1544h98v-1544zM215 1948l283 -217l-78 -60l-205 158l-209 -158l-74 60z" />
    <glyph glyph-name="Idieresis" unicode="&#xcf;" horiz-adv-x="430" 
d="M264 0h-98v1544h98v-1544zM24.5 1907q34.5 0 58 -23.5t23.5 -58.5t-23.5 -58.5t-58 -23.5t-58 23.5t-23.5 58.5t23.5 58.5t58 23.5zM407.5 1907q34.5 0 58 -23.5t23.5 -58.5t-23.5 -58.5t-58 -23.5t-58 23.5t-23.5 58.5t23.5 58.5t58 23.5z" />
    <glyph glyph-name="Eth" unicode="&#xd0;" horiz-adv-x="1335" 
d="M264 889h354v-92h-354v-705h178q152 0 280 39t232 143q210 208 211 496q0 147 -56 280.5t-167 233.5t-232.5 134t-267.5 34h-178v-563zM166 797h-166v92h166v655h278q186 0 282.5 -29.5t162 -67.5t129.5 -97q246 -230 246 -580q0 -336 -243 -570q-122 -118 -263.5 -159
t-313.5 -41h-278v797z" />
    <glyph glyph-name="Ntilde" unicode="&#xd1;" horiz-adv-x="1726" 
d="M264 0h-98v1565l1296 -1368v1347h99v-1595l-1297 1378v-1327zM719 1810q-65 0 -90 -84l-62 46q20 49 61.5 90t88.5 41q60 0 155 -40t129 -40q35 0 60.5 25.5t36.5 58.5l59 -45q-14 -55 -61 -94t-96 -39q-49 1 -142 41q-92 40 -139 40z" />
    <glyph glyph-name="Ograve" unicode="&#xd2;" horiz-adv-x="1748" 
d="M873 1565q163 0 309.5 -62.5t255 -171t173 -253t64.5 -307.5t-64.5 -306t-173 -252t-255 -171t-309.5 -62t-308 62t-253.5 171t-173 252t-64.5 306t63.5 307.5t173 253t254.5 171t308 62.5zM873 1473q-144 0 -271 -56.5t-223 -152t-151.5 -222.5t-55.5 -270t55.5 -270
t151.5 -222.5t223 -151.5t271 -56t272.5 56t223.5 151.5t151.5 223.5t56.5 270t-56.5 269t-151.5 222.5t-223.5 152t-272.5 56.5zM834 1989l206 -301l-77 -35l-254 297z" />
    <glyph glyph-name="Oacute" unicode="&#xd3;" horiz-adv-x="1748" 
d="M873 1565q163 0 309.5 -62.5t255 -171t173 -253t64.5 -307.5t-64.5 -306t-173 -252t-255 -171t-309.5 -62t-308 62t-253.5 171t-173 252t-64.5 306t63.5 307.5t173 253t254.5 171t308 62.5zM873 1473q-144 0 -271 -56.5t-223 -152t-151.5 -222.5t-55.5 -270t55.5 -270
t151.5 -222.5t223 -151.5t271 -56t272.5 56t223.5 151.5t151.5 223.5t56.5 270t-56.5 269t-151.5 222.5t-223.5 152t-272.5 56.5zM1040 1950l-254 -297l-77 35l206 301z" />
    <glyph glyph-name="Ocircumflex" unicode="&#xd4;" horiz-adv-x="1748" 
d="M873 1565q163 0 309.5 -62.5t255 -171t173 -253t64.5 -307.5t-64.5 -306t-173 -252t-255 -171t-309.5 -62t-308 62t-253.5 171t-173 252t-64.5 306t63.5 307.5t173 253t254.5 171t308 62.5zM873 1473q-144 0 -271 -56.5t-223 -152t-151.5 -222.5t-55.5 -270t55.5 -270
t151.5 -222.5t223 -151.5t271 -56t272.5 56t223.5 151.5t151.5 223.5t56.5 270t-56.5 269t-151.5 222.5t-223.5 152t-272.5 56.5zM874 1948l283 -217l-78 -60l-205 158l-208 -158l-74 60z" />
    <glyph glyph-name="Otilde" unicode="&#xd5;" horiz-adv-x="1748" 
d="M873 1565q163 0 309.5 -62.5t255 -171t173 -253t64.5 -307.5t-64.5 -306t-173 -252t-255 -171t-309.5 -62t-308 62t-253.5 171t-173 252t-64.5 306t63.5 307.5t173 253t254.5 171t308 62.5zM873 1473q-144 0 -271 -56.5t-223 -152t-151.5 -222.5t-55.5 -270t55.5 -270
t151.5 -222.5t223 -151.5t271 -56t272.5 56t223.5 151.5t151.5 223.5t56.5 270t-56.5 269t-151.5 222.5t-223.5 152t-272.5 56.5zM729 1903q47 0 83 -12.5t71 -27t67.5 -27.5t65.5 -13t58.5 25.5t35.5 58.5l59 -45q-14 -55 -61 -94t-96 -39q-49 1 -142 41q-92 40 -139 40
q-65 0 -90 -84l-61 46q20 49 61 90t88 41z" />
    <glyph glyph-name="Odieresis" unicode="&#xd6;" horiz-adv-x="1748" 
d="M873 1565q163 0 309.5 -62.5t255 -171t173 -253t64.5 -307.5t-64.5 -306t-173 -252t-255 -171t-309.5 -62t-308 62t-253.5 171t-173 252t-64.5 306t63.5 307.5t173 253t254.5 171t308 62.5zM873 1473q-144 0 -271 -56.5t-223 -152t-151.5 -222.5t-55.5 -270t55.5 -270
t151.5 -222.5t223 -151.5t271 -56t272.5 56t223.5 151.5t151.5 223.5t56.5 270t-56.5 269t-151.5 222.5t-223.5 152t-272.5 56.5zM684 1907q35 0 58.5 -23.5t23.5 -58.5t-23.5 -58.5t-58.5 -23.5t-58.5 23.5t-23.5 58.5t23.5 58.5t58.5 23.5zM1067 1907q35 0 58.5 -23.5
t23.5 -58.5t-23.5 -58.5t-58.5 -23.5t-58.5 23.5t-23.5 58.5t23.5 58.5t58.5 23.5z" />
    <glyph glyph-name="multiply" unicode="&#xd7;" 
d="M111 979l61 70l463 -463l463 463l61 -70l-459 -455l459 -458l-61 -66l-463 461l-461 -461l-63 66l460 458z" />
    <glyph glyph-name="Oslash" unicode="&#xd8;" horiz-adv-x="1748" 
d="M172 777q0 -273 178 -468l985 985q-196 179 -461 179q-145 0 -272 -56.5t-223 -152t-151.5 -222.5t-55.5 -265zM1577 769q0 273 -184 470l-985 -987q201 -180 466 -180q143 0 271.5 56t223.5 151.5t151.5 223.5t56.5 266zM1460 1307q215 -228 215 -540q0 -159 -64.5 -302
t-173 -252t-255 -171t-308.5 -62q-313 0 -532 206l-186 -186l-56 59l185 185q-211 228 -211 528q0 162 63.5 306.5t173 253t255 171t308.5 62.5q298 0 529 -203l186 186l60 -53z" />
    <glyph glyph-name="Ugrave" unicode="&#xd9;" horiz-adv-x="1351" 
d="M1102 1544h98v-962q0 -147 -16 -239t-88 -183q-78 -90 -190.5 -135t-229.5 -45t-229.5 45t-190.5 135q-72 91 -88 183t-16 239v962h98v-934q0 -144 14 -234t67 -157q52 -66 147.5 -106.5t197 -40.5t226 53t161 164.5t38 189.5t1.5 131v934zM604 1989l207 -301l-78 -35
l-254 297z" />
    <glyph glyph-name="Uacute" unicode="&#xda;" horiz-adv-x="1351" 
d="M1102 1544h98v-962q0 -147 -16 -239t-88 -183q-78 -90 -190.5 -135t-229.5 -45t-229.5 45t-190.5 135q-72 91 -88 183t-16 239v962h98v-934q0 -144 14 -234t67 -157q52 -66 147.5 -106.5t197 -40.5t226 53t161 164.5t38 189.5t1.5 131v934zM872 1950l-254 -297l-77 35
l207 301z" />
    <glyph glyph-name="Ucircumflex" unicode="&#xdb;" horiz-adv-x="1351" 
d="M1102 1544h98v-962q0 -147 -16 -239t-88 -183q-78 -90 -190.5 -135t-229.5 -45t-229.5 45t-190.5 135q-72 91 -88 183t-16 239v962h98v-934q0 -144 14 -234t67 -157q52 -66 147.5 -106.5t197 -40.5t226 53t161 164.5t38 189.5t1.5 131v934zM676 1948l282 -217l-77 -60
l-205 158l-209 -158l-74 60z" />
    <glyph glyph-name="Udieresis" unicode="&#xdc;" horiz-adv-x="1351" 
d="M1102 1544h98v-962q0 -147 -16 -239t-88 -183q-78 -90 -190.5 -135t-229.5 -45t-229.5 45t-190.5 135q-72 91 -88 183t-16 239v962h98v-934q0 -144 14 -234t67 -157q52 -66 147.5 -106.5t197 -40.5t226 53t161 164.5t38 189.5t1.5 131v934zM485.5 1907q34.5 0 58 -23.5
t23.5 -58.5t-23.5 -58.5t-58 -23.5t-58.5 23.5t-24 58.5t24 58.5t58.5 23.5zM868.5 1907q34.5 0 58 -23.5t23.5 -58.5t-23.5 -58.5t-58 -23.5t-58.5 23.5t-24 58.5t24 58.5t58.5 23.5z" />
    <glyph glyph-name="Yacute" unicode="&#xdd;" horiz-adv-x="1144" 
d="M621 0h-99v659l-514 885h109l454 -782l455 782h109l-514 -885v-659zM799 1950l-254 -297l-78 35l207 301z" />
    <glyph glyph-name="Thorn" unicode="&#xde;" horiz-adv-x="966" 
d="M166 1544h98v-327h174q92 0 177 -14.5t157 -74.5q139 -117 139 -319q0 -84 -60 -243.5t-413 -159.5h-174v-406h-98v1544zM442 498q76 0 143.5 15t127.5 69q100 92 100 231q-1 165 -117 251q-60 44 -129 52t-141 8h-162v-626h178z" />
    <glyph glyph-name="germandbls" unicode="&#xdf;" horiz-adv-x="1093" 
d="M158 860h-101v86h101v385q0 72 11 142.5t58 127.5t122 86t149 29q142 0 234.5 -94.5t92.5 -237.5q0 -92 -47 -168.5t-133 -109.5v-4q172 -50 277.5 -202.5t105.5 -330.5q0 -230 -163.5 -395.5t-391.5 -185.5v86q194 29 328.5 165.5t134.5 333.5q0 196 -128.5 326.5
t-334.5 153.5v86q117 2 188.5 70.5t71.5 178.5t-70.5 176t-177.5 66q-55 0 -111.5 -23.5t-84.5 -74.5q-29 -47 -34 -112.5t-5 -121.5v-1298h-92v860z" />
    <glyph glyph-name="agrave" unicode="&#xe0;" horiz-adv-x="1146" 
d="M261.5 759.5q-103.5 -121.5 -103.5 -286.5t103 -286t274 -121t269.5 122.5t98.5 296.5t-106.5 285t-268.5 111q-163 0 -266.5 -121.5zM893 170q-113 -190 -389 -190q-80 0 -166 38.5t-146.5 106.5t-93 159t-32.5 248.5t125.5 296t336.5 138.5q111 0 208.5 -47.5
t156.5 -137.5h4v164h92v-946h-92v170h-4zM502 1462l207 -301l-78 -35l-254 297z" />
    <glyph glyph-name="aacute" unicode="&#xe1;" horiz-adv-x="1146" 
d="M261.5 759.5q-103.5 -121.5 -103.5 -286.5t103 -286t274 -121t269.5 122.5t98.5 296.5t-106.5 285t-268.5 111q-163 0 -266.5 -121.5zM893 170q-113 -190 -389 -190q-80 0 -166 38.5t-146.5 106.5t-93 159t-32.5 248.5t125.5 296t336.5 138.5q111 0 208.5 -47.5
t156.5 -137.5h4v164h92v-946h-92v170h-4zM770 1423l-254 -297l-78 35l207 301z" />
    <glyph glyph-name="acircumflex" unicode="&#xe2;" horiz-adv-x="1146" 
d="M261.5 759.5q-103.5 -121.5 -103.5 -286.5t103 -286t274 -121t269.5 122.5t98.5 296.5t-106.5 285t-268.5 111q-163 0 -266.5 -121.5zM893 170q-113 -190 -389 -190q-80 0 -166 38.5t-146.5 106.5t-93 159t-32.5 248.5t125.5 296t336.5 138.5q111 0 208.5 -47.5
t156.5 -137.5h4v164h92v-946h-92v170h-4zM573 1421l283 -217l-78 -59l-205 158l-208 -158l-74 59z" />
    <glyph glyph-name="atilde" unicode="&#xe3;" horiz-adv-x="1146" 
d="M261.5 759.5q-103.5 -121.5 -103.5 -286.5t103 -286t274 -121t269.5 122.5t98.5 296.5t-106.5 285t-268.5 111q-163 0 -266.5 -121.5zM893 170q-113 -190 -389 -190q-80 0 -166 38.5t-146.5 106.5t-93 159t-32.5 248.5t125.5 296t336.5 138.5q111 0 208.5 -47.5
t156.5 -137.5h4v164h92v-946h-92v170h-4zM430 1284q-65 0 -90 -84l-61 45q20 49 61 90t88 41t83 -12t70.5 -26.5t67.5 -28t66 -13.5t58.5 26t35.5 58l59 -45q-14 -55 -61 -94t-95 -39t-142 41q-93 41 -140 41z" />
    <glyph glyph-name="adieresis" unicode="&#xe4;" horiz-adv-x="1146" 
d="M261.5 759.5q-103.5 -121.5 -103.5 -286.5t103 -286t274 -121t269.5 122.5t98.5 296.5t-106.5 285t-268.5 111q-163 0 -266.5 -121.5zM893 170q-113 -190 -389 -190q-80 0 -166 38.5t-146.5 106.5t-93 159t-32.5 248.5t125.5 296t336.5 138.5q111 0 208.5 -47.5
t156.5 -137.5h4v164h92v-946h-92v170h-4zM383 1380q35 0 58.5 -23.5t23.5 -58t-23.5 -58t-58.5 -23.5t-58.5 23.5t-23.5 58t23.5 58t58.5 23.5zM766 1380q35 0 58.5 -23.5t23.5 -58t-23.5 -58t-58.5 -23.5t-58.5 23.5t-23.5 58t23.5 58t58.5 23.5z" />
    <glyph glyph-name="aring" unicode="&#xe5;" horiz-adv-x="1146" 
d="M261.5 759.5q-103.5 -121.5 -103.5 -286.5t103 -286t274 -121t269.5 122.5t98.5 296.5t-106.5 285t-268.5 111q-163 0 -266.5 -121.5zM893 170q-113 -190 -389 -190q-80 0 -166 38.5t-146.5 106.5t-93 159t-32.5 248.5t125.5 296t336.5 138.5q111 0 208.5 -47.5
t156.5 -137.5h4v164h92v-946h-92v170h-4zM573.5 1462q73.5 0 126 -52t52.5 -126t-52.5 -126t-126 -52t-126 52t-52.5 126t52.5 126t126 52zM573 1380q-41 0 -68.5 -27.5t-27.5 -68.5t27.5 -68.5t68.5 -27.5t69 27.5t28 68.5t-28 68.5t-69 27.5z" />
    <glyph glyph-name="ae" unicode="&#xe6;" horiz-adv-x="1738" 
d="M971 780.5q-107 -100.5 -119 -231.5h729q-16 130 -121 231t-244 101q-138 0 -245 -100.5zM231.5 435.5q-96.5 -49.5 -96.5 -161.5q0 -113 91 -160.5t218 -47.5q194 0 255 76.5t61 134.5t-29 98.5t-92.5 75t-187 34.5t-220 -49.5zM407 881q-109 0 -301 -86v94
q154 78 312 78q300 0 395 -262q49 115 160 188.5t229 73.5q219 0 345 -148t126 -356h-821q4 -162 106.5 -279.5t266.5 -117.5q111 0 197.5 60t140.5 153l79 -54q-72 -111 -179 -178t-242 -67q-193 0 -278 89t-109 144h-5q-30 -117 -143.5 -175t-257.5 -58t-264.5 76.5
t-120.5 221.5q0 146 127 219.5t301 73.5t289 -100q0 285 -122 347.5t-231 62.5z" />
    <glyph glyph-name="ccedilla" unicode="&#xe7;" horiz-adv-x="976" 
d="M883 727q-142 154 -321 154t-291.5 -121t-112.5 -286t113 -286.5t276 -121.5q102 0 192 46t156 124v-125q-150 -131 -351 -131t-339.5 142.5t-138.5 352.5q0 209 139.5 350.5t337.5 141.5t340 -117v-123zM414 -375l-78 39l190 295l115 -45z" />
    <glyph glyph-name="egrave" unicode="&#xe8;" horiz-adv-x="1044" 
d="M543 -20q-223 0 -350 143t-127 350t129 350.5t333 143.5t327.5 -144t123.5 -358h-821q-4 -180 104 -289.5t290 -109.5q96 0 181.5 59t136.5 156l78 -45q-66 -123 -174 -189.5t-231 -66.5zM277.5 783q-107.5 -98 -119.5 -232h729q-16 134 -118 232t-243 98t-248.5 -98z
M451 1462l206 -301l-77 -35l-254 297z" />
    <glyph glyph-name="eacute" unicode="&#xe9;" horiz-adv-x="1044" 
d="M543 -20q-223 0 -350 143t-127 350t129 350.5t333 143.5t327.5 -144t123.5 -358h-821q-4 -180 104 -289.5t290 -109.5q96 0 181.5 59t136.5 156l78 -45q-66 -123 -174 -189.5t-231 -66.5zM277.5 783q-107.5 -98 -119.5 -232h729q-16 134 -118 232t-243 98t-248.5 -98z
M719 1423l-254 -297l-78 35l207 301z" />
    <glyph glyph-name="ecircumflex" unicode="&#xea;" horiz-adv-x="1044" 
d="M543 -20q-223 0 -350 143t-127 350t129 350.5t333 143.5t327.5 -144t123.5 -358h-821q-4 -180 104 -289.5t290 -109.5q96 0 181.5 59t136.5 156l78 -45q-66 -123 -174 -189.5t-231 -66.5zM277.5 783q-107.5 -98 -119.5 -232h729q-16 134 -118 232t-243 98t-248.5 -98z
M522 1421l283 -217l-78 -59l-205 158l-209 -158l-73 59z" />
    <glyph glyph-name="edieresis" unicode="&#xeb;" horiz-adv-x="1044" 
d="M543 -20q-223 0 -350 143t-127 350t129 350.5t333 143.5t327.5 -144t123.5 -358h-821q-4 -180 104 -289.5t290 -109.5q96 0 181.5 59t136.5 156l78 -45q-66 -123 -174 -189.5t-231 -66.5zM277.5 783q-107.5 -98 -119.5 -232h729q-16 134 -118 232t-243 98t-248.5 -98z
M332 1380q35 0 58.5 -23.5t23.5 -58t-23.5 -58t-58.5 -23.5t-58.5 23.5t-23.5 58t23.5 58t58.5 23.5zM715 1380q35 0 58.5 -23.5t23.5 -58t-23.5 -58t-58.5 -23.5t-58.5 23.5t-23.5 58t23.5 58t58.5 23.5z" />
    <glyph glyph-name="igrave" unicode="&#xec;" horiz-adv-x="479" 
d="M285 0h-92v946h92v-946zM168 1462l207 -301l-78 -35l-254 297z" />
    <glyph glyph-name="iacute" unicode="&#xed;" horiz-adv-x="479" 
d="M285 0h-92v946h92v-946zM436 1423l-254 -297l-78 35l207 301z" />
    <glyph glyph-name="icircumflex" unicode="&#xee;" horiz-adv-x="479" 
d="M285 0h-92v946h92v-946zM240 1421l282 -217l-78 -59l-204 158l-209 -158l-74 59z" />
    <glyph glyph-name="idieresis" unicode="&#xef;" horiz-adv-x="479" 
d="M285 0h-92v946h92v-946zM49 1380q35 0 58.5 -23.5t23.5 -58t-23.5 -58t-58.5 -23.5t-58.5 23.5t-23.5 58t23.5 58t58.5 23.5zM432 1380q35 0 58.5 -23.5t23.5 -58t-23.5 -58t-58.5 -23.5t-58.5 23.5t-23.5 58t23.5 58t58.5 23.5z" />
    <glyph glyph-name="eth" unicode="&#xf0;" horiz-adv-x="1120" 
d="M1055 528q0 -268 -147 -408t-353 -140t-347.5 145t-141.5 347q0 203 143 350t354 147q170 0 247 -61.5t99 -82.5q-59 167 -142.5 294.5t-248.5 277.5l-299 -168l-51 69l281 154q-100 84 -267 182l66 62q175 -106 284 -195l318 178l51 -67l-301 -168
q322 -283 388.5 -529.5t66.5 -386.5zM270.5 760q-112.5 -121 -112.5 -288q0 -166 114 -286t284 -120q171 0 289 118t118 290t-119 289.5t-290 117.5t-283.5 -121z" />
    <glyph glyph-name="ntilde" unicode="&#xf1;" horiz-adv-x="1003" 
d="M520 881q-270 0 -270 -414v-467h-92v946h92v-147h4q41 78 114.5 123t205 45t202 -99.5t70.5 -296.5v-571h-92v571q0 154 -30 207t-75 78t-129 25zM358 1284q-62 0 -90 -84l-61 45q20 49 60.5 90t88.5 41t83.5 -12t70.5 -26.5t67.5 -28t65.5 -13.5t58.5 26t35.5 58l60 -45
q-14 -55 -61.5 -94t-95.5 -39t-141 41t-141 41z" />
    <glyph glyph-name="ograve" unicode="&#xf2;" horiz-adv-x="1120" 
d="M911.5 121.5q-143.5 -141.5 -351.5 -141.5t-351 146t-143 349t142.5 347.5t350.5 144.5t352 -142t144 -352t-143.5 -351.5zM270.5 760q-112.5 -121 -112.5 -288q0 -166 114 -286t284 -120q171 0 289 118t118 290t-119 289.5t-290 117.5t-283.5 -121zM487 1462l207 -301
l-78 -35l-254 297z" />
    <glyph glyph-name="oacute" unicode="&#xf3;" horiz-adv-x="1120" 
d="M911.5 121.5q-143.5 -141.5 -351.5 -141.5t-351 146t-143 349t142.5 347.5t350.5 144.5t352 -142t144 -352t-143.5 -351.5zM270.5 760q-112.5 -121 -112.5 -288q0 -166 114 -286t284 -120q171 0 289 118t118 290t-119 289.5t-290 117.5t-283.5 -121zM756 1423l-254 -297
l-78 35l207 301z" />
    <glyph glyph-name="ocircumflex" unicode="&#xf4;" horiz-adv-x="1120" 
d="M911.5 121.5q-143.5 -141.5 -351.5 -141.5t-351 146t-143 349t142.5 347.5t350.5 144.5t352 -142t144 -352t-143.5 -351.5zM270.5 760q-112.5 -121 -112.5 -288q0 -166 114 -286t284 -120q171 0 289 118t118 290t-119 289.5t-290 117.5t-283.5 -121zM561 1421l283 -217
l-78 -59l-205 158l-209 -158l-73 59z" />
    <glyph glyph-name="otilde" unicode="&#xf5;" horiz-adv-x="1120" 
d="M911.5 121.5q-143.5 -141.5 -351.5 -141.5t-351 146t-143 349t142.5 347.5t350.5 144.5t352 -142t144 -352t-143.5 -351.5zM270.5 760q-112.5 -121 -112.5 -288q0 -166 114 -286t284 -120q171 0 289 118t118 290t-119 289.5t-290 117.5t-283.5 -121zM416 1284
q-65 0 -90 -84l-62 45q20 49 61.5 90t88.5 41t82.5 -12t70.5 -26.5t68 -28t65 -13.5t58 26t37 58l59 -45q-14 -55 -61.5 -94t-95.5 -39t-141 41t-140 41z" />
    <glyph glyph-name="odieresis" unicode="&#xf6;" horiz-adv-x="1120" 
d="M911.5 121.5q-143.5 -141.5 -351.5 -141.5t-351 146t-143 349t142.5 347.5t350.5 144.5t352 -142t144 -352t-143.5 -351.5zM270.5 760q-112.5 -121 -112.5 -288q0 -166 114 -286t284 -120q171 0 289 118t118 290t-119 289.5t-290 117.5t-283.5 -121zM368.5 1380
q34.5 0 58.5 -23.5t24 -58t-24 -58t-58.5 -23.5t-58 23.5t-23.5 58t23.5 58t58 23.5zM751.5 1380q34.5 0 58.5 -23.5t24 -58t-24 -58t-58.5 -23.5t-58 23.5t-23.5 58t23.5 58t58 23.5z" />
    <glyph glyph-name="divide" unicode="&#xf7;" 
d="M111 573h1048v-98h-1048v98zM635 168q35 0 59.5 -24.5t24.5 -59.5t-24.5 -59.5t-59.5 -24.5t-59.5 24.5t-24.5 59.5t24.5 59.5t59.5 24.5zM635 1049q35 0 59.5 -25t24.5 -59.5t-24.5 -59t-59.5 -24.5t-59.5 24.5t-24.5 59t24.5 59.5t59.5 25z" />
    <glyph glyph-name="oslash" unicode="&#xf8;" horiz-adv-x="1120" 
d="M813 791q-111 90 -270 90t-272 -121t-113 -277q0 -155 86 -262zM297 164q106 -98 268 -98t280 118t118 277t-93 270zM544 967q193 0 333 -113l129 129l57 -59l-127 -127q119 -132 119 -333t-143.5 -342.5t-342.5 -141.5t-333 122l-123 -122l-56 55l123 123
q-114 133 -114 326t142.5 338t335.5 145z" />
    <glyph glyph-name="ugrave" unicode="&#xf9;" horiz-adv-x="966" 
d="M823 946v-567q0 -72 -6 -142.5t-53 -133.5t-124 -93t-157 -30t-156.5 30.5t-123.5 92.5t-53.5 133t-6.5 143v567h93v-534q0 -168 31.5 -228.5t80.5 -89t169.5 -28.5t167 89t46.5 257v534h92zM391 1462l207 -301l-78 -35l-254 297z" />
    <glyph glyph-name="uacute" unicode="&#xfa;" horiz-adv-x="966" 
d="M823 946v-567q0 -72 -6 -142.5t-53 -133.5t-124 -93t-157 -30t-156.5 30.5t-123.5 92.5t-53.5 133t-6.5 143v567h93v-534q0 -168 31.5 -228.5t80.5 -89t169.5 -28.5t167 89t46.5 257v534h92zM700 1423l-254 -297l-77 35l206 301z" />
    <glyph glyph-name="ucircumflex" unicode="&#xfb;" horiz-adv-x="966" 
d="M823 946v-567q0 -72 -6 -142.5t-53 -133.5t-124 -93t-157 -30t-156.5 30.5t-123.5 92.5t-53.5 133t-6.5 143v567h93v-534q0 -168 31.5 -228.5t80.5 -89t169.5 -28.5t167 89t46.5 257v534h92zM483 1421l283 -217l-78 -59l-205 158l-209 -158l-73 59z" />
    <glyph glyph-name="udieresis" unicode="&#xfc;" horiz-adv-x="966" 
d="M823 946v-567q0 -72 -6 -142.5t-53 -133.5t-124 -93t-157 -30t-156.5 30.5t-123.5 92.5t-53.5 133t-6.5 143v567h93v-534q0 -168 31.5 -228.5t80.5 -89t169.5 -28.5t167 89t46.5 257v534h92zM293 1380q35 0 58.5 -23.5t23.5 -58t-23.5 -58t-58.5 -23.5t-58.5 23.5
t-23.5 58t23.5 58t58.5 23.5zM676 1380q35 0 58.5 -23.5t23.5 -58t-23.5 -58t-58.5 -23.5t-58.5 23.5t-23.5 58t23.5 58t58.5 23.5z" />
    <glyph glyph-name="yacute" unicode="&#xfd;" horiz-adv-x="942" 
d="M-14 946h96l403 -856l363 856h94l-635 -1499h-94l227 537zM698 1423l-254 -297l-77 35l206 301z" />
    <glyph glyph-name="thorn" unicode="&#xfe;" horiz-adv-x="1146" 
d="M343 755.5q-99 -125.5 -99 -299.5t104 -282t269 -108q166 0 269 117t103 283t-102 290.5t-274 124.5q-171 0 -270 -125.5zM254 776q115 191 388 191q81 0 167 -40t146.5 -107.5t93 -159t32.5 -248t-125 -294.5t-338 -138q-111 0 -208 46t-156 138h-4v-717h-92v2243h92
v-914h4z" />
    <glyph glyph-name="ydieresis" unicode="&#xff;" horiz-adv-x="942" 
d="M-14 946h96l403 -856l363 856h94l-635 -1499h-94l227 537zM291 1380q35 0 58.5 -23.5t23.5 -58t-23.5 -58t-58.5 -23.5t-58.5 23.5t-23.5 58t23.5 58t58.5 23.5zM674 1380q35 0 58.5 -23.5t23.5 -58t-23.5 -58t-58.5 -23.5t-58.5 23.5t-23.5 58t23.5 58t58.5 23.5z" />
    <glyph glyph-name="OE" unicode="&#x152;" horiz-adv-x="2443" 
d="M1571 397h-4q-92 -191 -284 -304t-411 -113q-154 0 -298 59t-259 168t-178 255t-63 311t64.5 309.5t175 252t257 169t281.5 61.5q244 0 432.5 -115.5t282.5 -306.5h4v401h737v-92h-639v-561h625v-92h-625v-707h639v-92h-737v397zM880 1473q-142 0 -271.5 -56.5
t-225.5 -152t-153.5 -222.5t-57.5 -269t55.5 -272.5t155.5 -226.5t228 -149t266 -53t270.5 57t228.5 157q193 202 193 486q0 141 -54.5 269t-147.5 223.5t-219 152t-268 56.5z" />
    <glyph glyph-name="oe" unicode="&#x153;" horiz-adv-x="1935" 
d="M1417 -20q-212 0 -299.5 107.5t-111.5 170.5q-63 -128 -181.5 -203t-242.5 -75q-123 0 -213 37.5t-158 104t-106.5 156t-38.5 246.5t146.5 300t358.5 143t309 -105.5t126 -169.5q49 131 159.5 203t235.5 72q227 0 348 -143t121 -359h-817q-8 -166 101 -282.5t271 -116.5
q232 0 334 219l78 -47q-61 -125 -171 -191.5t-249 -66.5zM1418 881q-140 0 -246.5 -97t-118.5 -233h725q-16 134 -118 232t-242 98zM275 760q-117 -121 -117 -289t118.5 -286.5t282.5 -118.5t283 119t119 285t-115 288.5t-285 122.5q-169 0 -286 -121z" />
    <glyph glyph-name="Scaron" unicode="&#x160;" horiz-adv-x="1114" 
d="M567 1473q-121 0 -206 -87t-85 -222t116 -194t163 -81l295 -154q176 -110 176 -303t-145 -322.5t-322 -129.5q-178 0 -298 91t-173 240l86 39q49 -123 140.5 -200.5t240.5 -77.5t261 105.5t112 261.5q0 155 -52 181l-260 130l-278 147q-160 96 -160 271t111 286t284 111
q117 0 219.5 -58.5t157.5 -158.5l-69 -58q-115 183 -314 183zM578 1671l-283 219l78 58l205 -156l208 156l74 -58z" />
    <glyph glyph-name="scaron" unicode="&#x161;" horiz-adv-x="768" 
d="M276.5 836q-49.5 -45 -49.5 -103q0 -57 34 -89t85 -54.5t111.5 -43t145.5 -72.5t85 -191t-89 -221t-212 -82t-212 66.5t-118 182.5l90 29q27 -86 84.5 -139t149.5 -53t153.5 61t61.5 162t-75 132.5t-117 46.5q-127 46 -198 99.5t-71 157.5t75.5 173t165.5 69
q89 0 158.5 -43t100.5 -109l-80 -41q-23 49 -67 78t-103 29t-108.5 -45zM385 1145l-283 219l78 57l205 -155l209 155l74 -57z" />
    <glyph glyph-name="Ydieresis" unicode="&#x178;" horiz-adv-x="1144" 
d="M621 0h-99v659l-514 885h109l454 -782l455 782h109l-514 -885v-659zM405.5 1907q34.5 0 58 -23.5t23.5 -58.5t-23.5 -58.5t-58 -23.5t-58 23.5t-23.5 58.5t23.5 58.5t58 23.5zM788.5 1907q34.5 0 58 -23.5t23.5 -58.5t-23.5 -58.5t-58 -23.5t-58 23.5t-23.5 58.5
t23.5 58.5t58 23.5z" />
    <glyph glyph-name="florin" unicode="&#x192;" 
d="M285 -195q51 0 82.5 9.5t55.5 47.5t37 94t23 105l162 842h-141l18 92h140l81 439q10 45 22.5 97t40.5 95t82 66.5t115 23.5t125 -30l-18 -84q-51 22 -108 22t-89 -23.5t-49.5 -60.5t-25 -83t-15.5 -91l-67 -371h237l-18 -92h-236l-147 -778q-12 -66 -44 -239t-241 -173
q-74 0 -164 35l19 86q72 -29 123 -29z" />
    <glyph glyph-name="circumflex" unicode="&#x2c6;" horiz-adv-x="872" 
d="M436 1421l283 -217l-78 -59l-205 158l-209 -158l-73 59z" />
    <glyph glyph-name="tilde" unicode="&#x2dc;" horiz-adv-x="899" 
d="M305 1284q-65 0 -90 -84l-61 45q20 49 61 90t88 41t83 -12t71 -26.5t67.5 -28t65.5 -13.5t58.5 26t35.5 58l59 -45q-14 -55 -61 -94t-95 -39t-142 41q-93 41 -140 41z" />
    <glyph glyph-name="endash" unicode="&#x2013;" horiz-adv-x="1024" 
d="M1024 700v-92h-1024v92h1024z" />
    <glyph glyph-name="emdash" unicode="&#x2014;" horiz-adv-x="2048" 
d="M1782 700v-92h-1516v92h1516z" />
    <glyph glyph-name="quoteleft" unicode="&#x2018;" horiz-adv-x="530" 
d="M150 1100l169 465l62 -23l-139 -469z" />
    <glyph glyph-name="quoteright" unicode="&#x2019;" horiz-adv-x="530" 
d="M381 1538l-170 -465l-61 23l139 469z" />
    <glyph glyph-name="quotesinglbase" unicode="&#x201a;" horiz-adv-x="530" 
d="M381 123l-170 -463l-61 23l139 469z" />
    <glyph glyph-name="quotedblleft" unicode="&#x201c;" horiz-adv-x="798" 
d="M418 1100l170 465l61 -23l-139 -469zM150 1100l169 465l62 -23l-139 -469z" />
    <glyph glyph-name="quotedblright" unicode="&#x201d;" horiz-adv-x="798" 
d="M381 1538l-170 -465l-61 23l139 469zM649 1538l-170 -465l-61 23l139 469z" />
    <glyph glyph-name="quotedblbase" unicode="&#x201e;" horiz-adv-x="798" 
d="M381 123l-170 -463l-61 23l139 469zM649 123l-170 -463l-61 23l139 469z" />
    <glyph glyph-name="dagger" unicode="&#x2020;" 
d="M684 1544v-407h371v-93h-371v-1409h-98v1409h-371v93h371v407h98z" />
    <glyph glyph-name="daggerdbl" unicode="&#x2021;" 
d="M684 1544v-407h371v-93h-371v-876h371v-92h-371v-441h-98v441h-371v92h371v876h-371v93h371v407h98z" />
    <glyph glyph-name="bullet" unicode="&#x2022;" 
d="M909.5 498q-112.5 -111 -274.5 -111t-273.5 113t-111.5 273t111 273t274 113q164 0 275.5 -111.5t111.5 -275t-112.5 -274.5z" />
    <glyph glyph-name="ellipsis" unicode="&#x2026;" horiz-adv-x="2048" 
d="M342 154q35 0 59.5 -25t24.5 -59.5t-24.5 -59t-59.5 -24.5t-59.5 24.5t-24.5 59t24.5 59.5t59.5 25zM1024 154q35 0 59.5 -25t24.5 -59.5t-24.5 -59t-59.5 -24.5t-59.5 24.5t-24.5 59t24.5 59.5t59.5 25zM1706 154q35 0 59.5 -25t24.5 -59.5t-24.5 -59t-59.5 -24.5
t-59.5 24.5t-24.5 59t24.5 59.5t59.5 25z" />
    <glyph glyph-name="perthousand" unicode="&#x2030;" horiz-adv-x="2117" 
d="M2060 287q0 -130 -90 -215.5t-221 -85.5t-221 86t-90 215q0 130 89.5 217.5t221.5 87.5t221.5 -87.5t89.5 -217.5zM1749 506q-45 0 -86 -17.5t-71.5 -46t-49 -69.5t-18.5 -86t18.5 -84t49 -69t71.5 -46t86 -16t86 16t71.5 46t49 69t18.5 84t-18.5 86t-49 69.5t-71.5 46
t-86 17.5zM368.5 1559q130.5 0 221 -87t90.5 -218t-90 -216.5t-221 -85.5t-221.5 86t-90.5 216q0 131 90.5 218t221 87zM369 1473q-45 0 -86 -17.5t-72 -46.5t-49.5 -70t-18.5 -86t18.5 -84t49.5 -68.5t72 -46t86 -16.5t86 16.5t71.5 46t49 68.5t18.5 84t-18.5 86t-49 70
t-71.5 46.5t-86 17.5zM1169 1544l-917 -1579l-64 37l914 1577zM1213 504q90 -88 90 -217t-90.5 -215t-221.5 -86t-221 86t-90 215q0 130 89.5 217.5t221.5 87.5t222 -88zM991 506q-45 0 -86 -17.5t-71.5 -46t-49 -69.5t-18.5 -86t18.5 -84t49 -69t71.5 -46t86 -16t86 16
t72 46t49.5 69t18.5 84t-18.5 86t-49.5 69.5t-72 46t-86 17.5z" />
    <glyph glyph-name="guilsinglleft" unicode="&#x2039;" horiz-adv-x="567" 
d="M430 365l-59 -56l-299 346l299 346l59 -55l-248 -291z" />
    <glyph glyph-name="guilsinglright" unicode="&#x203a;" horiz-adv-x="567" 
d="M385 655l-248 291l60 55l299 -346l-299 -346l-60 56z" />
    <glyph glyph-name="trademark" unicode="&#x2122;" horiz-adv-x="1925" 
d="M774 1458h-285v-776h-86v776h-284v86h655v-86zM1808 1544v-862h-86v776h-8l-338 -776h-4l-334 776h-8v-776h-86v862h148l280 -670h4l285 670h147z" />
    <glyph glyph-name="fraction" horiz-adv-x="264" 
d="M623 1544l-916 -1579l-65 37l915 1579z" />
    <glyph glyph-name="fi" horiz-adv-x="972" 
d="M778 0h-92v946h92v-946zM733 1346q35 0 59.5 -25t24.5 -59.5t-24.5 -59t-59.5 -24.5t-59.5 24.5t-24.5 59t24.5 59.5t59.5 25zM393 1630q-40 0 -73 -26.5t-51.5 -75.5t-18.5 -176v-406h237v-86h-237v-860h-92v860h-105v86h105v424q0 166 35 228q67 118 213 118
q45 0 81 -14v-84q-54 12 -94 12z" />
    <glyph glyph-name="fl" horiz-adv-x="899" 
d="M393 1630q-40 0 -73 -26.5t-51.5 -75.5t-18.5 -176v-406h237v-86h-237v-860h-92v860h-105v86h105v424q0 166 35 228q67 118 213 118q45 0 81 -14v-84q-54 12 -94 12zM741 0h-92v1690h92v-1690z" />
    <glyph glyph-name="breve" horiz-adv-x="888" 
d="M399 1255q113 0 168.5 29t77.5 96h88q-12 -102 -95 -159.5t-225.5 -57.5t-197.5 82t-61 135h90q42 -125 155 -125z" />
    <glyph glyph-name="dotaccent" horiz-adv-x="641" 
d="M321.5 1380q34.5 0 58 -23.5t23.5 -58t-23.5 -58t-58 -23.5t-58 23.5t-23.5 58t23.5 58t58 23.5z" />
    <glyph glyph-name="ring" horiz-adv-x="663" 
d="M332 1462q74 0 126 -52t52 -126t-52 -126t-126 -52t-126 52t-52 126t52 126t126 52zM332 1380q-41 0 -68.5 -27.5t-27.5 -68.5t27.5 -68.5t68.5 -27.5t68.5 27.5t27.5 68.5t-27.5 68.5t-68.5 27.5z" />
    <glyph glyph-name="hungarumlaut" horiz-adv-x="913" 
d="M487 1423l-254 -297l-77 35l206 301zM760 1423l-254 -297l-78 35l207 301z" />
    <glyph glyph-name="ogonek" horiz-adv-x="657" 
d="M154 -223q0 125 159 227h88v-4q-49 -34 -103 -96t-54 -121t41 -89t96 -30t121 25l-21 -90q-64 -19 -107 -19q-90 0 -155 54t-65 143z" />
    <glyph glyph-name="caron" horiz-adv-x="872" 
d="M436 1145l-282 219l77 57l205 -155l209 155l74 -57z" />
    <glyph glyph-name="Lslash" horiz-adv-x="669" 
d="M166 1544h98v-651l262 182v-100l-262 -182v-701h393v-92h-491v725l-166 -117v101l166 116v719z" />
    <glyph glyph-name="dotlessi" horiz-adv-x="479" 
d="M285 0h-92v946h92v-946z" />
    <glyph glyph-name="lslash" horiz-adv-x="468" 
d="M188 1690h93v-732l153 109v-92l-153 -109v-866h-93v801l-153 -111v92l153 111v797z" />
    <glyph glyph-name="minus" 
d="M111 573h1048v-98h-1048v98z" />
    </font>
</defs>
</svg>
