<?xml version="1.0" standalone="no"?>
<!DOCTYPE svg PUBLIC "-//W3C//DTD SVG 1.1//EN" "http://www.w3.org/Graphics/SVG/1.1/DTD/svg11.dtd" >
<svg xmlns="http://www.w3.org/2000/svg">
<metadata>
Created by FontPrep 20130207 at Mon Apr 27 13:26:20 2015
 By Martin
(c) 1989, 1995, 2002 Adobe Systems Incorporated. All rights reserved.
</metadata>
<defs>
<font id="f41fefacdf302de3efb9b2c9861fc114" horiz-adv-x='1024' >
  <font-face 
    font-family="AvenirLTStd-HeavyOblique"
    font-weight="700"
    font-style="oblique"
    font-stretch="normal"
    units-per-em="2048"
    panose-1="2 11 7 3 2 2 3 2 2 4"
    ascent="1548"
    descent="-500"
    x-height="983"
    cap-height="1450"
    bbox="-338 -565 2426.6 1923.02"
    underline-thickness="102"
    underline-position="-102"
    slope="-8"
    unicode-range="U+0020-FB02"
  />
<missing-glyph horiz-adv-x="1224" 
d="M303 1239v-1044l348 522zM365 102h696l-348 523zM774 717l348 -522v1044zM713 809l348 522h-696zM201 0v1434h1024v-1434h-1024z" />
    <glyph glyph-name="f_i" unicode="fi" horiz-adv-x="1214" 
d="M1189 1464q67 0 107 -42t31 -105q-8 -63 -60 -105t-119 -43q-67 0 -106 44q-38 45 -30 104q10 59 60 103t117 44zM860 0l137 983h246l-137 -983h-246zM815 1573q84 0 154 -14l-45 -209q-61 14 -101 14q-94 0 -134 -53t-52 -150l-27 -178h228l-29 -209h-227l-109 -774
h-246l109 774h-203l29 209h203l20 139q33 227 125 339t305 112z" />
    <glyph glyph-name="f_l" unicode="fl" horiz-adv-x="1214" 
d="M860 0l217 1548h246l-217 -1548h-246zM815 1573q84 0 154 -14l-45 -209q-61 14 -101 14q-94 0 -134 -53t-52 -150l-27 -178h228l-29 -209h-227l-109 -774h-246l109 774h-203l29 209h203l20 139q33 227 125 339t305 112z" />
    <glyph glyph-name=".notdef" horiz-adv-x="1224" 
d="M303 1239v-1044l348 522zM365 102h696l-348 523zM774 717l348 -522v1044zM713 809l348 522h-696zM201 0v1434h1024v-1434h-1024z" />
    <glyph glyph-name=".null" horiz-adv-x="0" 
 />
    <glyph glyph-name="nonmarkingreturn" horiz-adv-x="681" 
 />
    <glyph glyph-name="space" unicode=" " horiz-adv-x="606" 
 />
    <glyph glyph-name="exclam" unicode="!" horiz-adv-x="606" 
d="M346 303q68 0 109 -45t33 -111q-8 -67 -64 -113q-55 -46 -122 -46q-66 0 -108 44t-34 111q8 66 63 113t123 47zM631 1450l-142 -995h-245l141 995h246z" />
    <glyph glyph-name="quotedbl" unicode="&#x22;" horiz-adv-x="1062" 
d="M735 909l78 541h209l-78 -541h-209zM373 909l78 541h208l-77 -541h-209z" />
    <glyph glyph-name="numbersign" unicode="#" horiz-adv-x="1212" 
d="M848 850h-211l-70 -250h211zM219 0l121 428h-184l24 172h207l72 250h-185l25 172h207l123 428h180l-123 -428h211l123 428h178l-123 -428h185l-25 -172h-209l-70 -250h185l-25 -172h-205l-123 -428h-178l121 428h-213l-121 -428h-178z" />
    <glyph glyph-name="dollar" unicode="$" horiz-adv-x="1212" 
d="M735 596l-57 -399q96 18 163 71t79 140t-55 129q-46 29 -130 59zM664 874l53 375q-80 -12 -140 -62t-71 -124q2 -23 -2 -38t4 -31t10 -26q2 -8 16 -20t19 -18q19 -19 111 -56zM877 1475q109 0 212 -37t168 -105l-196 -190q-88 111 -234 110l-57 -409q265 -66 346 -164
t64 -254q-27 -196 -175 -312t-358 -137l-20 -147h-111l21 145q-299 -4 -451 183l213 190q78 -133 268 -151l62 432q-67 12 -149 49t-142 84q-118 94 -93 279q26 185 172 299t331 133l18 137h111l-19 -135h19z" />
    <glyph glyph-name="percent" unicode="%" horiz-adv-x="1857" 
d="M422 12l1063 1504l160 -78l-1063 -1504zM622 1278q-76 0 -138 -54t-72 -131t36 -130t122 -53t138 54t72 131t-36 130t-122 53zM650 1475q158 0 253 -112q96 -111 75 -269q-22 -158 -150 -270t-286 -112t-254 112t-73 270t150 270t285 111zM1439 172q77 0 139 53t71 131
q10 78 -36 131t-123 53t-138 -54q-62 -54 -72 -130t36 -130t123 -54zM1411 -25q-159 -1 -255 111t-73 270t151 270t286 112t253 -112t73 -270t-149 -270q-128 -112 -286 -111z" />
    <glyph glyph-name="ampersand" unicode="&#x26;" horiz-adv-x="1517" 
d="M638 185q108 0 271 143l-250 323q-166 -91 -206 -166q-20 -37 -27 -82q-14 -94 45 -156t167 -62zM842 1266q-70 0 -127 -41q-152 -110 41 -316q211 106 229 221q7 56 -33 96t-110 40zM584 -37q-203 0 -331 114t-99 312q18 139 121 247t249 161q-47 63 -71 102
q-25 39 -41 101t-6 130q23 170 155 264q133 93 309 93t280 -88t81 -256q-31 -227 -340 -375l196 -252l197 246h289l-350 -420l266 -342h-318l-131 166q-201 -203 -456 -203z" />
    <glyph glyph-name="quotesingle" unicode="'" horiz-adv-x="606" 
d="M326 909l77 541h209l-77 -541h-209z" />
    <glyph glyph-name="parenleft" unicode="(" horiz-adv-x="606" 
d="M608 1499l160 -106l-4 -9q-311 -360 -375 -794q-59 -436 152 -797l-189 -112q-240 412 -171 908t427 910z" />
    <glyph glyph-name="parenright" unicode=")" horiz-adv-x="606" 
d="M164 -319l-160 106l4 8q150 172 247 379t126 416q61 428 -150 794l189 115q240 -414 171 -908t-427 -910z" />
    <glyph glyph-name="asterisk" unicode="*" horiz-adv-x="948" 
d="M766 1450l-41 -291l289 90l28 -164l-290 -90l143 -239l-156 -103l-143 242l-205 -236l-123 105l209 231l-266 97l76 163l266 -96l41 291h172z" />
    <glyph glyph-name="plus" unicode="+" horiz-adv-x="1363" 
d="M229 725h451l63 451h209l-63 -451h450l-30 -209h-451l-63 -450h-209l63 450h-450z" />
    <glyph glyph-name="comma" unicode="," horiz-adv-x="606" 
d="M41 -258l219 541h250l-250 -541h-219z" />
    <glyph glyph-name="hyphen" unicode="-" horiz-adv-x="645" 
d="M662 608l-31 -209h-506l31 209h506z" />
    <glyph glyph-name="period" unicode="." horiz-adv-x="606" 
d="M346 303q68 0 109 -45t33 -111q-8 -67 -64 -113q-55 -46 -122 -46q-66 0 -108 44t-34 111q8 66 63 113t123 47z" />
    <glyph glyph-name="slash" unicode="/" horiz-adv-x="796" 
d="M999 1487l-862 -1585l-162 61l865 1589z" />
    <glyph glyph-name="zero" unicode="0" horiz-adv-x="1212" 
d="M627 209q78 0 136 38t94 91t71 144t53 209t18 194t-14 164t-66 140q-53 52 -139 52q-275 0 -350 -516q-25 -169 0 -323q14 -87 66 -140t131 -53zM184 725q27 195 88 340t128 221t151 121q163 87 298 68t183 -50q47 -31 88 -69t65 -92q71 -163 64 -310q-4 -100 -16 -229
q-27 -195 -88 -340t-128 -221t-152 -121t-166 -60t-139 -7t-117 23t-146 94q-68 63 -112 225q-21 78 -17 178t16 229z" />
    <glyph glyph-name="one" unicode="1" horiz-adv-x="1212" 
d="M549 0l164 1167l-307 -252l-121 170l491 365h223l-204 -1450h-246z" />
    <glyph glyph-name="two" unicode="2" horiz-adv-x="1212" 
d="M796 1241q-89 0 -157 -53t-92 -144l-256 21q45 197 190 303t350 106t322 -104q117 -106 88 -307q-18 -127 -89 -226t-194 -200l-507 -416h671l-30 -221h-971l37 260l639 545q51 43 82 72t63 77t39 97q12 86 -42 138t-143 52z" />
    <glyph glyph-name="three" unicode="3" horiz-adv-x="1212" 
d="M639 866q211 0 274 92q29 41 39 114t-41 127t-133 54t-146 -43t-102 -116l-249 69q68 156 203 234q136 78 320 78q184 1 302 -101q119 -102 94 -287q-16 -119 -96 -209t-199 -118v-4q131 -18 191 -116t43 -237q-29 -199 -188 -313t-355 -115q-196 0 -316 83t-141 257
l271 70q23 -188 208 -188q100 0 182 64q81 65 93 148q22 150 -78 197q-80 39 -211 39h-59l30 221h64z" />
    <glyph glyph-name="four" unicode="4" horiz-adv-x="1212" 
d="M758 516l84 586h-4l-447 -586h367zM686 0l41 295h-616l34 244l713 911h279l-133 -934h210l-30 -221h-211l-41 -295h-246z" />
    <glyph glyph-name="five" unicode="5" horiz-adv-x="1212" 
d="M735 958q215 0 331 -132t84 -355t-200 -359t-395 -137q-176 0 -286 84t-136 248l268 70q29 -168 213 -168q111 0 192 71t95 177q20 143 -65 212q-86 69 -242 69t-305 -70l125 782h825l-33 -221h-583l-45 -289q59 18 157 18z" />
    <glyph glyph-name="six" unicode="6" horiz-adv-x="1212" 
d="M642 209q108 0 196 78q88 79 104 187t-50 186t-176 77q-108 1 -198 -77t-104 -187t52 -187q68 -78 176 -77zM817 934q187 0 293 -135t76 -343t-194 -344q-165 -136 -393 -136t-352 132q-124 134 -91 361q27 182 190 397l455 584h299l-424 -537l2 -4q49 25 139 25z" />
    <glyph glyph-name="seven" unicode="7" horiz-adv-x="1212" 
d="M256 1217l35 233h985l-33 -225l-751 -1225h-289l762 1217h-709z" />
    <glyph glyph-name="eight" unicode="8" horiz-adv-x="1212" 
d="M700 670q-102 0 -182 -65t-94 -165t45 -166t165 -66t185 66q78 66 92 166t-47 165q-62 65 -164 65zM781 1266q-87 0 -149 -56t-74 -143q-12 -86 33 -143q46 -58 132 -58t153 58q66 58 78 143q12 83 -37 141t-136 58zM814 1475q192 -1 304 -103t86 -278q-16 -119 -85 -207
t-179 -119l-2 -4q104 -23 169 -122t46 -230q-29 -207 -183 -322t-368 -115q-213 0 -335 115t-93 322q18 129 110 229t203 123l2 4q-102 31 -146 119t-28 207q25 178 167 280q140 102 332 101z" />
    <glyph glyph-name="nine" unicode="9" horiz-adv-x="1212" 
d="M774 1241q-108 0 -196 -78q-88 -79 -104 -187t52 -186q66 -78 174 -77q108 -1 197 77q88 78 104 187q13 109 -53 187t-174 77zM598 516q-188 0 -293 135q-104 135 -78 328q33 223 197 359t392 136t352 -132q124 -134 92 -361q-25 -182 -191 -397l-453 -584h-299l424 537
l-4 4q-45 -25 -139 -25z" />
    <glyph glyph-name="colon" unicode=":" horiz-adv-x="606" 
d="M442 997q68 0 110 -45q42 -44 34 -110t-64 -113t-122 -47q-68 0 -110 45t-34 111q10 66 64 112t122 47zM346 303q68 0 109 -45t33 -111q-8 -67 -64 -113q-55 -46 -122 -46q-66 0 -108 44t-34 111q8 66 63 113t123 47z" />
    <glyph glyph-name="semicolon" unicode=";" horiz-adv-x="606" 
d="M442 997q68 0 110 -45q42 -44 34 -110t-64 -113t-122 -47q-68 0 -110 45t-34 111q10 66 64 112t122 47zM41 -258l219 541h250l-250 -541h-219z" />
    <glyph glyph-name="less" unicode="&#x3c;" horiz-adv-x="1363" 
d="M1212 86l-970 461l20 147l1100 461l-31 -225l-735 -309l647 -310z" />
    <glyph glyph-name="equal" unicode="=" horiz-adv-x="1363" 
d="M203 541h1110l-29 -209h-1110zM254 909h1110l-29 -209h-1110z" />
    <glyph glyph-name="greater" unicode="&#x3e;" horiz-adv-x="1363" 
d="M326 1155l972 -461l-20 -147l-1102 -461l31 225l737 310l-649 309z" />
    <glyph glyph-name="question" unicode="?" horiz-adv-x="1062" 
d="M596 303q68 0 109 -45t33 -111q-8 -67 -64 -113q-55 -46 -122 -46q-66 0 -108 44t-34 111q8 66 63 113t123 47zM739 1253q-83 0 -147 -57t-84 -143l-258 20q49 193 193 303q145 110 337 111t298 -105t83 -295q-12 -79 -53 -147q-68 -113 -223 -229q-55 -45 -73 -63
q-53 -53 -64 -142l-13 -78h-246l17 113q12 86 40 128t105 111l180 160q57 51 69 132t-34 131q-45 50 -127 50z" />
    <glyph glyph-name="at" unicode="@" horiz-adv-x="1638" 
d="M854 -37q-332 0 -532 216t-155 543q46 327 305 546t585 219q281 0 473 -173q92 -83 136 -213q44 -131 24 -271t-70 -235t-108 -146t-148 -92t-186 -43q-96 -1 -132 32t-30 78h-4q-124 -111 -266 -111q-142 1 -212 97t-44 266q24 170 156 306t306 136t215 -117h4l29 93
h193l-133 -404q-33 -104 -35 -117q-10 -76 45 -75q72 0 134 78t85 227q35 239 -94 369t-376 130t-427 -162q-180 -163 -216 -422t110 -415t394 -156t423 125h225q-129 -150 -306 -230t-368 -79zM939 934q-87 0 -156 -72t-83 -176q-27 -188 144 -188q106 0 163 72
q56 73 70 175q27 189 -138 189z" />
    <glyph glyph-name="A" unicode="A" horiz-adv-x="1478" 
d="M586 553h450l-141 590zM0 0l836 1450h223l420 -1450h-295l-88 332h-629l-178 -332h-289z" />
    <glyph glyph-name="B" unicode="B" horiz-adv-x="1327" 
d="M688 221q317 0 348 213q14 111 -52 158q-67 47 -226 47h-248l-59 -418h237zM776 860q125 0 199 49t86 138q25 182 -256 182h-213l-51 -369h235zM932 1450q184 0 301 -90t90 -275q-16 -119 -95 -201t-200 -116l-2 -4q135 -16 210 -114q74 -98 56 -223q-36 -245 -220 -339
q-170 -88 -388 -88h-522l205 1450h565z" />
    <glyph glyph-name="C" unicode="C" horiz-adv-x="1402" 
d="M1028 1253q-221 0 -381 -148q-159 -148 -191 -377q-32 -228 85 -380t338 -151q188 0 352 176l190 -152q-223 -258 -569 -258t-530 209t-136 551t291 553q245 210 569 210t488 -229l-221 -147q-115 143 -285 143z" />
    <glyph glyph-name="D" unicode="D" horiz-adv-x="1554" 
d="M645 233q262 0 442 121q179 121 215 372t-94 371t-383 120h-235l-137 -984h192zM938 1450q306 0 494 -188t141 -537q-25 -177 -116 -321t-216 -229q-257 -175 -539 -175h-540l205 1450h571z" />
    <glyph glyph-name="E" unicode="E" horiz-adv-x="1251" 
d="M162 0l205 1450h960l-35 -233h-702l-49 -357h665l-32 -233h-666l-55 -394h739l-33 -233h-997z" />
    <glyph glyph-name="F" unicode="F" horiz-adv-x="1175" 
d="M162 0l205 1450h936l-35 -233h-678l-53 -381h639l-33 -234h-639l-84 -602h-258z" />
    <glyph glyph-name="G" unicode="G" horiz-adv-x="1593" 
d="M842 -37q-336 0 -520 209t-136 551t291 553q245 211 597 211t532 -182l-220 -193q-123 141 -351 141t-388 -148q-159 -148 -191 -377q-32 -228 85 -380t331 -152t359 76l47 342h-297l33 234h555l-105 -742q-286 -143 -622 -143z" />
    <glyph glyph-name="H" unicode="H" horiz-adv-x="1517" 
d="M162 0l205 1450h258l-82 -578h678l82 578h258l-205 -1450h-258l90 639h-678l-90 -639h-258z" />
    <glyph glyph-name="I" unicode="I" horiz-adv-x="569" 
d="M156 0l204 1450h258l-204 -1450h-258z" />
    <glyph glyph-name="J" unicode="J" horiz-adv-x="1024" 
d="M430 -37q-358 0 -379 334l250 57q4 -72 43 -114t107 -43q104 1 157 71t74 209l137 973h258l-147 -1049q-27 -184 -159 -311t-341 -127z" />
    <glyph glyph-name="K" unicode="K" horiz-adv-x="1402" 
d="M162 0l205 1450h258l-88 -614h12l688 614h348l-772 -670l612 -780h-362l-528 713h-15l-100 -713h-258z" />
    <glyph glyph-name="L" unicode="L" horiz-adv-x="1062" 
d="M162 0l205 1450h258l-172 -1217h616l-33 -233h-874z" />
    <glyph glyph-name="M" unicode="M" horiz-adv-x="1896" 
d="M168 0l205 1450h393l244 -1016l534 1016h389l-204 -1450h-246l170 1204h-4l-611 -1204h-180l-270 1204h-4l-170 -1204h-246z" />
    <glyph glyph-name="N" unicode="N" horiz-adv-x="1630" 
d="M162 0l205 1450h342l551 -1077h4l151 1077h258l-205 -1450h-327l-561 1112h-5l-155 -1112h-258z" />
    <glyph glyph-name="O" unicode="O" horiz-adv-x="1705" 
d="M1028 1253q-221 0 -381 -148q-159 -149 -191 -377t85 -380t339 -152t382 152t192 380t-87 376q-118 148 -339 149zM844 -37q-338 0 -522 209t-137 551q48 342 292 553t582 211q342 6 528 -204t138 -552q-49 -342 -293 -552t-588 -216z" />
    <glyph glyph-name="P" unicode="P" horiz-adv-x="1251" 
d="M690 821q189 0 269 47q82 48 100 167t-82 160q-84 34 -201 34h-184l-57 -408h155zM854 1450q236 0 371 -98t104 -322q-36 -262 -227 -353q-161 -77 -414 -77h-184l-84 -600h-258l205 1450h487z" />
    <glyph glyph-name="Q" unicode="Q" horiz-adv-x="1744" 
d="M1020 1253q-215 0 -373 -143q-159 -143 -189 -363q-30 -221 89 -367t332 -146t373 146t190 366q31 220 -88 364q-119 143 -334 143zM874 0q-346 0 -540 205t-144 551q29 209 157 377q127 168 315 261t393 93q315 0 509 -208t150 -523q-51 -367 -381 -543l-2 -4h416
l-29 -209h-844z" />
    <glyph glyph-name="R" unicode="R" horiz-adv-x="1290" 
d="M737 836q234 0 301 90q33 43 42 107q9 63 -10 105q-41 90 -255 91h-223l-55 -393h200zM870 1450q238 0 375 -95t107 -321q-23 -158 -126 -264t-265 -129l294 -641h-311l-250 614h-188l-86 -614h-258l205 1450h503z" />
    <glyph glyph-name="S" unicode="S" horiz-adv-x="1175" 
d="M532 -37q-309 0 -446 197l221 188q37 -72 108 -112t163 -39q92 0 178 52t98 146q8 63 -24 109t-88 70q-56 26 -127 49t-139 53t-124 72q-55 44 -82 120t-12 181q29 211 203 325t393 113q258 0 395 -150l-217 -198q-66 115 -237 114q-98 0 -175 -47t-91 -147t114 -156
q57 -25 128 -47t141 -54q70 -30 123 -73q54 -43 81 -121t12 -182q-32 -223 -200 -343t-396 -120z" />
    <glyph glyph-name="T" unicode="T" horiz-adv-x="1175" 
d="M459 0l170 1217h-445l35 233h1147l-35 -233h-444l-170 -1217h-258z" />
    <glyph glyph-name="U" unicode="U" horiz-adv-x="1478" 
d="M734 -37q-254 0 -397 156q-142 156 -106 413l129 918h258l-129 -909q-18 -129 47 -231q64 -102 232 -101q168 0 261 101t112 231l129 909h258l-129 -918q-37 -258 -224 -414t-441 -155z" />
    <glyph glyph-name="V" unicode="V" horiz-adv-x="1366" 
d="M563 0l-364 1450h297l239 -1096l563 1096h279l-791 -1450h-223z" />
    <glyph glyph-name="W" unicode="W" horiz-adv-x="2009" 
d="M428 0l-223 1450h282l125 -1044h4l474 1044h253l173 -1044h4l432 1044h262l-627 -1450h-246l-180 1104h-4l-491 -1104h-238z" />
    <glyph glyph-name="X" unicode="X" horiz-adv-x="1402" 
d="M0 0l623 758l-385 692h325l266 -537l414 537h313l-573 -692l420 -758h-328l-297 612l-467 -612h-311z" />
    <glyph glyph-name="Y" unicode="Y" horiz-adv-x="1290" 
d="M516 0l88 621l-428 829h324l274 -578l443 578h307l-662 -829l-88 -621h-258z" />
    <glyph glyph-name="Z" unicode="Z" horiz-adv-x="1251" 
d="M72 0l32 233l912 984h-762l35 233h1083l-35 -233l-917 -984h792l-32 -233h-1108z" />
    <glyph glyph-name="bracketleft" unicode="[" horiz-adv-x="569" 
d="M739 1499l-22 -160h-185l-210 -1499h184l-23 -159h-393l256 1818h393z" />
    <glyph glyph-name="backslash" unicode="\" horiz-adv-x="796" 
d="M215 1487l180 65l414 -1589l-178 -61z" />
    <glyph glyph-name="bracketright" unicode="]" horiz-adv-x="569" 
d="M-4 -319l22 159h185l211 1499h-185l23 160h393l-256 -1818h-393z" />
    <glyph glyph-name="asciicircum" unicode="^" horiz-adv-x="1363" 
d="M481 702h-241l563 748h168l350 -748h-242l-231 490z" />
    <glyph glyph-name="underscore" unicode="_" horiz-adv-x="1024" 
d="M987 -256h-1024l14 102h1024z" />
    <glyph glyph-name="grave" unicode="`" 
d="M365 1450l159 -295h-192l-246 295h279z" />
    <glyph glyph-name="a" unicode="a" horiz-adv-x="1099" 
d="M750 440q-367 0 -390 -151q-8 -63 39 -96t115 -33q123 0 194 60t85 165l8 55h-51zM428 -25q-147 0 -242 78q-94 78 -73 217q12 92 63 158t117 100q160 84 485 84h62l4 27q12 88 -43 136t-156 48q-152 0 -278 -102l-111 129q178 158 431 158t332 -132q26 -44 36 -77
t10 -96t-10 -138l-80 -565h-221l18 135h-6q-121 -160 -338 -160z" />
    <glyph glyph-name="b" unicode="b" horiz-adv-x="1290" 
d="M775 786q-130 0 -221 -87q-90 -87 -108 -207t49 -208q67 -87 197 -87t222 87t110 208q16 122 -52 208t-197 86zM863 1008q212 0 325 -148t82 -369q-31 -223 -184 -369q-152 -146 -380 -146t-309 171h-4l-20 -147h-234l217 1548h246l-96 -690h6q139 150 351 150z" />
    <glyph glyph-name="c" unicode="c" horiz-adv-x="987" 
d="M735 786q-131 0 -222 -87t-108 -207t49 -208q66 -87 194 -87q126 0 208 92l139 -176q-79 -68 -187 -103t-187 -35q-227 1 -359 145t-102 372q31 228 205 371q174 145 398 145t339 -150l-195 -170q-82 98 -172 98z" />
    <glyph glyph-name="d" unicode="d" horiz-adv-x="1290" 
d="M734 786q-130 0 -221 -86t-108 -208q-17 -121 49 -208t198 -87q130 0 221 87t110 208q17 122 -51 208t-198 86zM578 -25q-228 1 -338 147t-80 368q31 222 184 370q154 148 365 148t311 -150h6l96 690h246l-217 -1548h-233l20 147h-4q-128 -172 -356 -172z" />
    <glyph glyph-name="e" unicode="e" horiz-adv-x="1175" 
d="M712 823q-110 0 -188 -62q-77 -62 -106 -171h504q14 109 -43 171t-167 62zM636 -25q-242 1 -374 145t-102 372q31 228 205 371q174 145 392 145t324 -142t70 -393l-8 -67h-750q-2 -106 63 -170t169 -64q158 0 282 133l158 -133q-187 -197 -429 -197z" />
    <glyph glyph-name="f" unicode="f" horiz-adv-x="720" 
d="M815 1573q84 0 154 -14l-45 -209q-61 14 -101 14q-94 0 -134 -53t-52 -150l-27 -178h228l-29 -209h-227l-109 -774h-246l109 774h-203l29 209h203l20 139q33 227 125 339t305 112z" />
    <glyph glyph-name="g" unicode="g" horiz-adv-x="1290" 
d="M739 786q-131 0 -223 -80t-109 -206q-17 -125 53 -208t198 -83t221 82q92 82 109 209t-50 207q-68 79 -199 79zM514 -492q-291 0 -453 162l177 201q135 -141 317 -141q313 0 358 329l11 72h-4q-129 -143 -344 -143t-331 145t-85 363t183 365q153 147 380 147t307 -172h4
l21 147h233l-125 -895q-39 -274 -199 -427t-450 -153z" />
    <glyph glyph-name="h" unicode="h" horiz-adv-x="1175" 
d="M819 1008q184 0 256 -110t49 -277l-88 -621h-245l69 498q43 289 -139 288q-115 0 -181 -70t-79 -179l-76 -537h-246l217 1548h246l-98 -702h4q43 68 124 115t187 47z" />
    <glyph glyph-name="i" unicode="i" 
d="M470 1464q67 0 107 -42q39 -42 31 -105t-60 -105t-119 -43q-67 1 -105 45t-31 103q10 59 60 103t117 44zM143 0l138 983h245l-137 -983h-246z" />
    <glyph glyph-name="j" unicode="j" 
d="M470 1464q67 0 107 -42q39 -42 31 -105t-60 -105t-119 -43q-67 1 -105 45t-31 103q10 59 60 103t117 44zM-12 -492q-76 0 -129 19l47 213q45 -10 82 -10q36 0 66 18q60 37 81 191l146 1044h245l-145 -1042q-31 -211 -115 -322t-278 -111z" />
    <glyph glyph-name="k" unicode="k" horiz-adv-x="1099" 
d="M139 0l217 1548h246l-137 -973l436 408h316l-484 -446l373 -537h-326l-321 502h-4l-70 -502h-246z" />
    <glyph glyph-name="l" unicode="l" 
d="M143 0l217 1548h246l-217 -1548h-246z" />
    <glyph glyph-name="m" unicode="m" horiz-adv-x="1781" 
d="M1335 786q-106 0 -169 -73q-62 -74 -76 -181l-76 -532h-246l82 586q27 201 -139 200q-115 0 -181 -70t-79 -179l-76 -537h-246l137 983h234l-21 -154h4q105 179 331 179t278 -183q129 182 348 183q186 0 254 -115t41 -307l-82 -586h-246l78 557q35 229 -150 229z" />
    <glyph glyph-name="n" unicode="n" horiz-adv-x="1175" 
d="M139 0l137 983h234l-21 -158h5q106 182 325 183q184 0 256 -110t49 -277l-88 -621h-245l69 498q43 289 -139 288q-115 0 -181 -70t-79 -179l-76 -537h-246z" />
    <glyph glyph-name="o" unicode="o" horiz-adv-x="1249" 
d="M734 786q-130 0 -221 -86t-108 -208q-17 -121 49 -208t198 -87q130 0 221 87t110 208q17 122 -51 208t-198 86zM160 492q31 227 205 371q174 145 401 145t360 -144q132 -144 102 -372t-205 -372t-402 -144t-360 144q-132 145 -101 372z" />
    <glyph glyph-name="p" unicode="p" horiz-adv-x="1290" 
d="M775 786q-130 0 -221 -87q-90 -87 -108 -207t49 -208q67 -87 197 -87t222 87t110 208q16 122 -52 208t-197 86zM850 1008q229 0 340 -146t80 -369q-31 -221 -186 -369q-154 -148 -366 -148t-308 149h-7l-84 -592h-245l202 1450h234l-21 -147h5q127 172 356 172z" />
    <glyph glyph-name="q" unicode="q" horiz-adv-x="1290" 
d="M734 786q-130 0 -221 -86t-108 -208q-17 -121 49 -208t198 -87q130 0 221 87t110 208q17 122 -51 208t-198 86zM562 -25q-210 -1 -322 147t-80 370q31 222 183 369q153 147 380 147t307 -172h4l21 147h233l-203 -1450h-245l84 592h-6q-146 -150 -356 -150z" />
    <glyph glyph-name="r" unicode="r" horiz-adv-x="796" 
d="M741 774q-63 0 -125 -30t-93 -76q-55 -78 -64 -142l-74 -526h-246l137 983h246l-20 -156h4q53 84 136 132t179 49q39 0 86 -15l-33 -237q-70 18 -133 18z" />
    <glyph glyph-name="s" unicode="s" horiz-adv-x="909" 
d="M586 811q-56 0 -104 -27q-48 -28 -55 -76t44 -74t127 -41t151 -40t119 -91t30 -174q-15 -108 -92 -182q-136 -131 -380 -131t-356 152l184 154q92 -121 217 -121q61 0 117 29q55 30 63 84t-43 83t-127 44q-77 15 -151 38t-120 85t-32 167q23 154 150 236t290 82
q240 0 330 -150l-184 -147q-59 100 -178 100z" />
    <glyph glyph-name="t" unicode="t" horiz-adv-x="796" 
d="M644 184q84 0 130 31l-29 -207q-74 -33 -200 -33q-186 0 -243 82q-56 82 -30 267l64 450h-203l29 209h203l41 285h245l-41 -285h271l-29 -209h-270l-60 -430q-12 -80 13 -120t109 -40z" />
    <glyph glyph-name="u" unicode="u" horiz-adv-x="1175" 
d="M610 197q98 -1 164 71t80 178l74 537h246l-138 -983h-233l22 158h-4q-111 -182 -327 -183q-184 0 -256 110t-48 277l86 621h246l-69 -498q-5 -59 -9 -123t32 -114q36 -51 134 -51z" />
    <glyph glyph-name="v" unicode="v" horiz-adv-x="1062" 
d="M408 0l-265 983h269l166 -688h4l360 688h252l-524 -983h-262z" />
    <glyph glyph-name="w" unicode="w" horiz-adv-x="1630" 
d="M348 0l-205 983h267l116 -688h4l295 688h267l116 -688h4l301 688h248l-471 -983h-243l-140 672h-4l-301 -672h-254z" />
    <glyph glyph-name="x" unicode="x" horiz-adv-x="1099" 
d="M-2 0l469 528l-277 455h299l156 -295l254 295h281l-400 -455l322 -528h-299l-207 352l-307 -352h-291z" />
    <glyph glyph-name="y" unicode="y" horiz-adv-x="1062" 
d="M147 -492q-94 0 -184 25l62 221q63 -24 135 -24t113 32q42 32 87 113l64 117l-281 991h271l180 -682h4l340 682h256l-631 -1194q-78 -147 -169 -214t-247 -67z" />
    <glyph glyph-name="z" unicode="z" horiz-adv-x="987" 
d="M707 786h-502l26 197h799l-31 -223l-612 -563h557l-26 -197h-848l32 227l605 555v4z" />
    <glyph glyph-name="braceleft" unicode="{" horiz-adv-x="569" 
d="M666 1499h186l-25 -172h-112q-78 0 -109 -41t-39 -102l-53 -385q-10 -74 -57 -122q-47 -47 -88 -63t-84 -22l-2 -4q197 -18 170 -219l-52 -373q-20 -143 107 -143h113l-25 -172h-186q-84 1 -163 73t-61 197l54 391q12 84 -47 121q-60 37 -123 37l26 180q63 0 132 34
t81 109l56 406q18 125 117 197t184 73z" />
    <glyph glyph-name="bar" unicode="|" horiz-adv-x="821" 
d="M422 1698h186v-2263h-186v2263z" />
    <glyph glyph-name="braceright" unicode="}" horiz-adv-x="569" 
d="M20 -147q78 0 109 41t39 102l53 385q9 74 57 122t89 63t84 22l2 4q-197 18 -170 219l51 373q20 143 -107 143h-112l24 172h187q84 0 162 -73t61 -197l-55 -391q-10 -84 50 -121t122 -37l-27 -180q-63 0 -133 -34t-80 -110l-55 -405q-17 -125 -117 -198t-184 -72h-187
l25 172h112z" />
    <glyph glyph-name="asciitilde" unicode="~" horiz-adv-x="1363" 
d="M950 440q-72 0 -189 70q-116 70 -220 70t-199 -140l-49 172q117 176 274 176q90 0 238 -70q147 -70 187 -69q40 0 81 26t61 46q19 20 60 67l49 -172q-49 -55 -80 -86q-31 -30 -86 -60t-127 -30z" />
    <glyph glyph-name="uni00A0" unicode="&#xa0;" horiz-adv-x="606" 
 />
    <glyph glyph-name="exclamdown" unicode="&#xa1;" horiz-adv-x="606" 
d="M401 692q-67 0 -109 45t-34 111t64 113t122 47t109 -45t33 -111t-64 -113t-121 -47zM117 -455l139 998h246l-140 -998h-245z" />
    <glyph glyph-name="cent" unicode="&#xa2;" horiz-adv-x="1212" 
d="M641 184l86 613q-113 -23 -181 -106t-83 -197q-16 -114 30 -199q46 -84 148 -111zM887 1145l-21 -137q236 -8 328 -142l-180 -159q-70 86 -176 92l-86 -615q113 0 211 95l127 -162q-143 -133 -369 -142l-21 -147h-110l20 147q-205 19 -307 163q-101 144 -73 356t169 349
q141 136 357 165l20 137h111z" />
    <glyph glyph-name="sterling" unicode="&#xa3;" horiz-adv-x="1212" 
d="M1026 1475q244 0 373 -132l-191 -178q-82 88 -198 88q-116 -1 -190 -75q-75 -74 -89 -177l-26 -184h331l-24 -172h-332l-64 -448h519l-27 -197h-973l27 197h209l63 448h-209l25 172h209l28 205q25 167 153 301q65 68 165 110t221 42z" />
    <glyph glyph-name="currency" unicode="&#xa4;" horiz-adv-x="1212" 
d="M666 416q137 0 229 85t113 226q20 141 -50 225t-206 84t-230 -84q-92 -84 -112 -225t50 -226t206 -85zM784 1257q170 0 295 -98l113 98l106 -120l-114 -101q82 -139 57 -310t-143 -308l86 -101l-142 -122l-86 100q-150 -100 -322 -100t-296 100l-115 -100l-104 122
l114 101q-82 137 -57 309t143 309l-86 101l140 120l88 -98q153 98 323 98z" />
    <glyph glyph-name="yen" unicode="&#xa5;" horiz-adv-x="1212" 
d="M483 0l52 362h-349l23 160h348l14 99l-30 69h-310l23 160h221l-246 600h277l231 -602l391 602h265l-418 -600h221l-22 -160h-310l-47 -69l-14 -99h348l-23 -160h-348l-51 -362h-246z" />
    <glyph glyph-name="brokenbar" unicode="&#xa6;" horiz-adv-x="819" 
d="M422 395h184v-788h-184v788zM422 1528h184v-793h-184v793z" />
    <glyph glyph-name="section" unicode="&#xa7;" horiz-adv-x="1214" 
d="M905 606q0 10 -14 26t-20 24q-6 9 -49 35t-52 30l-170 86q-63 -27 -97 -57t-39 -76q-5 -45 4 -73q18 -57 144 -112l185 -92q41 19 75 61t39 83q8 15 1 35t-7 30zM802 1290q-66 0 -121 -35q-53 -35 -63 -98t46 -110t143 -84q86 -37 170 -81t135 -122t39 -174
q-13 -96 -71 -168q-58 -70 -142 -107q111 -92 92 -243q-16 -117 -99 -202q-157 -161 -409 -161q-344 0 -420 252l234 106q10 -73 70 -111t139 -38q78 0 139 32q60 32 70 97t-46 111t-142 82q-86 34 -170 76q-85 42 -137 118t-38 182q27 197 240 303q-123 84 -101 239
t158 244q138 89 288 89q324 0 404 -207l-231 -121q-15 61 -63 96t-114 35z" />
    <glyph glyph-name="dieresis" unicode="&#xa8;" 
d="M681 1450q67 0 105 -42t31 -105q-8 -63 -60 -105t-119 -43q-67 0 -106 44q-38 45 -30 104q10 59 61 103t118 44zM259 1450q67 0 106 -42t31 -105t-61 -105q-52 -42 -119 -43q-68 1 -106 45t-30 103q10 59 61 103t118 44z" />
    <glyph glyph-name="copyright" unicode="&#xa9;" horiz-adv-x="1638" 
d="M838 135q238 0 426 171t223 419t-105 419t-378 171t-426 -171t-222 -419q-36 -248 104 -419t378 -171zM1028 1487q315 0 508 -223q194 -222 148 -538t-301 -540t-570 -223q-315 0 -507 223q-191 224 -146 539t299 539t569 223zM881 293q-188 0 -281 124q-92 125 -65 317
t149 310t315 117q143 0 233 -77t93 -220h-192q-6 125 -142 125q-113 -1 -177 -69t-82 -186q-17 -118 30 -194t151 -75q154 0 185 143h192q-42 -147 -156 -231t-253 -84z" />
    <glyph glyph-name="ordfeminine" unicode="&#xaa;" horiz-adv-x="714" 
d="M592 1133q-205 0 -213 -76q-5 -29 23 -46t69 -18q158 0 176 127l2 13h-57zM639 1255h35l2 17q12 67 -146 67q-78 0 -165 -65l-72 108q117 92 279 92t218 -60q58 -60 39 -185l-47 -346h-159l10 80h-4q-70 -92 -223 -93q-63 0 -135 34q-82 39 -65 154q9 62 53 106
q90 92 380 91z" />
    <glyph glyph-name="guillemotleft" unicode="&#xab;" horiz-adv-x="1062" 
d="M1104 862l-285 -354l187 -358l-170 -105l-246 463l375 459zM647 862l-285 -354l187 -358l-170 -105l-246 463l375 459z" />
    <glyph glyph-name="logicalnot" unicode="&#xac;" horiz-adv-x="1363" 
d="M1071 301l55 399h-901l29 209h1110l-84 -608h-209z" />
    <glyph glyph-name="uni00AD" unicode="&#xad;" horiz-adv-x="645" 
d="M662 608l-31 -209h-506l31 209h506z" />
    <glyph glyph-name="registered" unicode="&#xae;" horiz-adv-x="1638" 
d="M838 135q238 0 426 171t223 419t-105 419t-378 171t-426 -171t-222 -419q-36 -248 104 -419t378 -171zM1028 1487q315 0 508 -223q194 -222 148 -538t-301 -540t-570 -223q-315 0 -507 223q-191 224 -146 539t299 539t569 223zM930 801q129 0 141 86q8 55 -30 70
q-37 16 -87 16h-96l-24 -172h96zM942 1133q260 0 315 -118q23 -48 11 -133t-77 -153t-136 -78l159 -317h-215l-139 307h-47l-43 -307h-197l113 799h256z" />
    <glyph glyph-name="macron" unicode="&#xaf;" 
d="M788 1378l-22 -159h-655l22 159h655z" />
    <glyph glyph-name="degree" unicode="&#xb0;" horiz-adv-x="819" 
d="M547 979q70 0 126 49t66 119t-32 119q-43 49 -113 49t-126 -49t-66 -119q-9 -70 33 -119t112 -49zM524 819q-135 0 -218 96q-82 97 -62 232q18 135 128 231t244 96t218 -96t64 -231t-129 -231q-110 -96 -245 -97z" />
    <glyph glyph-name="plusminus" unicode="&#xb1;" horiz-adv-x="1363" 
d="M135 66l31 208h1110l-31 -208h-1110zM705 883l40 293h209l-41 -293h449l-31 -209h-448l-41 -293h-209l41 293h-453l31 209h453z" />
    <glyph glyph-name="twosuperior" unicode="&#xb2;" horiz-adv-x="788" 
d="M616 1475q142 0 220 -68t60 -198t-151 -220l-317 -221l-2 -4h405l-22 -172h-662l27 194l412 312q94 72 100 112q12 80 -104 80q-52 0 -92 -32t-50 -78l-194 12q29 141 128 212t242 71z" />
    <glyph glyph-name="threesuperior" unicode="&#xb3;" horiz-adv-x="788" 
d="M524 1130q143 0 156 93q8 67 -97 67t-141 -90l-204 41q88 233 368 234q133 -1 217 -61t68 -173q-11 -74 -61 -125t-128 -65v-4q80 -11 120 -69t30 -136q-18 -127 -124 -195t-253 -67q-285 0 -305 241l217 45q6 -102 113 -102q131 0 145 98q12 68 -45 84q-44 12 -119 12
h-47l25 172h65z" />
    <glyph glyph-name="acute" unicode="&#xb4;" 
d="M332 1155l246 295h278l-332 -295h-192z" />
    <glyph glyph-name="mu" unicode="&#xb5;" horiz-adv-x="1175" 
d="M610 197q98 -1 164 71t80 178l74 537h246l-138 -983h-233l22 158h-4q-111 -182 -327 -183q-66 0 -111 15l-64 -457h-245l202 1450h246l-69 -498q-5 -59 -9 -123t32 -114q36 -51 134 -51z" />
    <glyph glyph-name="paragraph" unicode="&#xb6;" horiz-adv-x="1228" 
d="M745 1450h551l-241 -1708h-185l220 1561h-220l-219 -1561h-184l135 950q-199 0 -305 104t-84 269q55 385 532 385z" />
    <glyph glyph-name="periodcentered" unicode="&#xb7;" horiz-adv-x="606" 
d="M410 756q68 0 108 -45t33 -111t-63 -113t-122 -47t-109 45q-42 45 -34 111q7 66 63 113t124 47z" />
    <glyph glyph-name="cedilla" unicode="&#xb8;" 
d="M244 -381q141 0 153 86q4 37 -25 55q-58 35 -147 4l-49 52l154 184h119l-103 -123q185 0 216 -77q15 -36 7 -93q-14 -102 -108 -150q-94 -49 -206 -49t-208 58l59 94q72 -41 138 -41z" />
    <glyph glyph-name="onesuperior" unicode="&#xb9;" horiz-adv-x="788" 
d="M451 592l90 649l-193 -154l-94 136l340 239h186l-121 -870h-208z" />
    <glyph glyph-name="ordmasculine" unicode="&#xba;" horiz-adv-x="813" 
d="M547 1018q80 0 134 48t61 106t-32 107q-40 48 -120 48t-133 -48q-53 -47 -61 -107t32 -107q39 -47 119 -47zM527 870q-146 0 -233 85t-67 217t129 218t255 85q147 0 235 -85q88 -86 68 -218t-130 -217q-111 -85 -257 -85z" />
    <glyph glyph-name="guillemotright" unicode="&#xbb;" horiz-adv-x="1062" 
d="M100 150l287 354l-188 358l170 105l247 -463l-376 -459zM557 150l287 354l-189 358l170 105l248 -463l-377 -459z" />
    <glyph glyph-name="onequarter" unicode="&#xbc;" horiz-adv-x="1820" 
d="M379 12l1063 1504l160 -78l-1063 -1504zM428 592l90 649l-192 -154l-95 136l340 239h187l-121 -870h-209zM1493 346l39 275l-2 4l-234 -279h197zM1444 0l24 174h-405l22 160l461 536h230l-74 -524h108l-24 -172h-109l-24 -174h-209z" />
    <glyph glyph-name="onehalf" unicode="&#xbd;" horiz-adv-x="1820" 
d="M383 12l1063 1504l160 -78l-1063 -1504zM1564 883q144 0 221 -68q77 -67 57 -197t-150 -221l-318 -221v-4h406l-25 -172h-659l26 195l412 311q14 14 24 20t19 14q10 8 14 13q4 4 13 12q8 7 11 13t10 16t7 24q12 80 -104 80q-51 0 -91 -32t-51 -78l-194 12q29 141 129 212
q99 71 243 71zM434 592l90 649l-192 -154l-94 136l340 239h186l-121 -870h-209z" />
    <glyph glyph-name="threequarters" unicode="&#xbe;" horiz-adv-x="1820" 
d="M434 12l1063 1504l160 -78l-1063 -1504zM516 1130q143 0 156 93q8 67 -97 67q-106 0 -141 -90l-205 41q88 233 369 234q133 -1 217 -61t68 -173q-11 -74 -61 -125t-128 -65v-4q80 -11 120 -69t30 -136q-18 -127 -124 -195t-253 -67q-285 0 -305 241l217 45
q6 -102 113 -102q131 0 145 98q12 68 -45 84q-43 12 -119 12h-47l25 172h65zM1458 0l25 174h-406l23 160l461 536h229l-74 -524h107l-25 -172h-106l-25 -174h-209zM1264 322h245l52 364h-5l-292 -360v-4z" />
    <glyph glyph-name="questiondown" unicode="&#xbf;" horiz-adv-x="1062" 
d="M608 692q-68 0 -110 45t-33 111q8 66 63 113t122 47t110 -45t33 -111q-9 -66 -63 -113t-122 -47zM463 -258q83 0 147 57t84 144l260 -21q-51 -194 -195 -304q-145 -110 -337 -110t-298 106t-81 294q21 153 160 278q29 27 91 78t89 77q58 56 74 148l10 78h246l-17 -112
q-12 -86 -39 -128t-104 -112l-180 -160q-59 -51 -71 -132t34 -131q45 -50 127 -50z" />
    <glyph glyph-name="Agrave" unicode="&#xc0;" horiz-adv-x="1478" 
d="M891 1843l162 -295h-193l-248 295h279zM586 553h450l-141 590zM0 0l836 1450h223l420 -1450h-295l-88 332h-629l-178 -332h-289z" />
    <glyph glyph-name="Aacute" unicode="&#xc1;" horiz-adv-x="1478" 
d="M860 1548l244 295h278l-329 -295h-193zM586 553h450l-141 590zM0 0l836 1450h223l420 -1450h-295l-88 332h-629l-178 -332h-289z" />
    <glyph glyph-name="Acircumflex" unicode="&#xc2;" horiz-adv-x="1478" 
d="M1329 1548h-233l-115 185l-168 -185h-229l276 295h277zM586 553h450l-141 590zM0 0l836 1450h223l420 -1450h-295l-88 332h-629l-178 -332h-289z" />
    <glyph glyph-name="Atilde" unicode="&#xc3;" horiz-adv-x="1478" 
d="M1130 1741q68 0 107 86h135q-82 -260 -264 -260q-62 0 -160 39t-125 39q-65 -1 -106 -89h-135q82 260 266 261q60 0 158 -38t124 -38zM586 553h450l-141 590zM0 0l836 1450h223l420 -1450h-295l-88 332h-629l-178 -332h-289z" />
    <glyph glyph-name="Adieresis" unicode="&#xc4;" horiz-adv-x="1478" 
d="M1208 1843q66 0 106 -42t32 -105q-8 -64 -60 -106t-120 -42t-106 44t-30 104q10 59 60 103q52 44 118 44zM786 1843q66 0 106 -42t32 -105q-8 -64 -60 -106t-120 -42t-106 44t-30 104q10 59 60 103q52 44 118 44zM586 553h450l-141 590zM0 0l836 1450h223l420 -1450h-295
l-88 332h-629l-178 -332h-289z" />
    <glyph glyph-name="Aring" unicode="&#xc5;" horiz-adv-x="1478" 
d="M995 1825q-47 0 -86 -32t-46 -79t24 -79q31 -31 78 -31t86 32t47 78q6 47 -25 79t-78 32zM1010 1923q92 1 145 -59t40 -150t-84 -149t-161 -59t-144 58q-54 60 -41 149t83 149t162 61zM586 553h450l-141 590zM0 0l836 1450h223l420 -1450h-295l-88 332h-629l-178 -332
h-289z" />
    <glyph glyph-name="AE" unicode="&#xc6;" horiz-adv-x="2048" 
d="M754 602h413l86 615h-30zM1083 0l54 381h-549l-287 -381h-313l1132 1450h1016l-35 -233h-590l-49 -357h553l-33 -233h-552l-56 -394h615l-33 -233h-873z" />
    <glyph glyph-name="Ccedilla" unicode="&#xc7;" horiz-adv-x="1402" 
d="M1028 1253q-221 0 -381 -148q-159 -148 -191 -377q-32 -228 85 -380t338 -151q188 0 352 176l190 -152q-219 -254 -569 -258l-70 -86q185 0 216 -77q15 -36 8 -93q-14 -102 -108 -150q-94 -49 -207 -49q-112 0 -208 58l60 94q73 -41 139 -41q139 0 152 86q4 37 -26 55
q-59 35 -146 4l-50 52l127 153q-291 35 -445 238t-107 531q46 328 290 538q245 210 569 210t488 -229l-221 -147q-115 143 -285 143z" />
    <glyph glyph-name="Egrave" unicode="&#xc8;" horiz-adv-x="1251" 
d="M778 1843l162 -295h-192l-248 295h278zM162 0l205 1450h960l-35 -233h-702l-49 -357h665l-32 -233h-666l-55 -394h739l-33 -233h-997z" />
    <glyph glyph-name="Eacute" unicode="&#xc9;" horiz-adv-x="1251" 
d="M748 1548l243 295h279l-330 -295h-192zM162 0l205 1450h960l-35 -233h-702l-49 -357h665l-32 -233h-666l-55 -394h739l-33 -233h-997z" />
    <glyph glyph-name="Ecircumflex" unicode="&#xca;" horiz-adv-x="1251" 
d="M1217 1548h-234l-115 185l-168 -185h-229l277 295h276zM162 0l205 1450h960l-35 -233h-702l-49 -357h665l-32 -233h-666l-55 -394h739l-33 -233h-997z" />
    <glyph glyph-name="Edieresis" unicode="&#xcb;" horiz-adv-x="1251" 
d="M1095 1843q67 0 107 -42t31 -105q-9 -64 -61 -106t-118 -42t-106 44q-38 45 -30 104q10 59 60 103t117 44zM673 1843q67 0 107 -42t31 -105q-8 -64 -60 -106t-119 -42t-106 44q-38 45 -30 104q10 59 60 103t117 44zM162 0l205 1450h960l-35 -233h-702l-49 -357h665
l-32 -233h-666l-55 -394h739l-33 -233h-997z" />
    <glyph glyph-name="Igrave" unicode="&#xcc;" horiz-adv-x="569" 
d="M436 1843l162 -295h-192l-248 295h278zM156 0l204 1450h258l-204 -1450h-258z" />
    <glyph glyph-name="Iacute" unicode="&#xcd;" horiz-adv-x="569" 
d="M406 1548l243 295h279l-330 -295h-192zM156 0l204 1450h258l-204 -1450h-258z" />
    <glyph glyph-name="Icircumflex" unicode="&#xce;" horiz-adv-x="569" 
d="M874 1548h-233l-115 185l-168 -185h-229l277 295h276zM156 0l204 1450h258l-204 -1450h-258z" />
    <glyph glyph-name="Idieresis" unicode="&#xcf;" horiz-adv-x="569" 
d="M753 1843q67 0 107 -42t31 -105q-9 -64 -61 -106t-118 -42t-106 44q-39 44 -31 104q11 59 61 103t117 44zM331 1843q67 0 107 -42t31 -105q-8 -64 -60 -106t-119 -42t-106 44q-38 45 -30 104q10 59 60 103t117 44zM156 0l204 1450h258l-204 -1450h-258z" />
    <glyph glyph-name="Eth" unicode="&#xd0;" horiz-adv-x="1554" 
d="M645 233q262 0 442 121q179 121 215 372t-94 371t-383 120h-235l-53 -381h442l-23 -172h-442l-61 -431h192zM938 1450q306 0 494 -188t141 -537q-25 -177 -116 -321t-216 -229q-257 -175 -539 -175h-540l94 664h-135l22 172h136l88 614h571z" />
    <glyph glyph-name="Ntilde" unicode="&#xd1;" horiz-adv-x="1630" 
d="M1206 1741q68 0 107 86h135q-82 -260 -264 -260q-62 0 -160 39t-125 39q-65 -1 -106 -89h-136q82 260 267 261q61 0 158 -38t124 -38zM162 0l205 1450h342l551 -1077h4l151 1077h258l-205 -1450h-327l-561 1112h-5l-155 -1112h-258z" />
    <glyph glyph-name="Ograve" unicode="&#xd2;" horiz-adv-x="1705" 
d="M1006 1843l161 -295h-192l-248 295h279zM1028 1253q-221 0 -381 -148q-159 -149 -191 -377t85 -380t339 -152t382 152t192 380t-87 376q-118 148 -339 149zM844 -37q-338 0 -522 209t-137 551q48 342 292 553t582 211q342 6 528 -204t138 -552q-49 -342 -293 -552
t-588 -216z" />
    <glyph glyph-name="Oacute" unicode="&#xd3;" horiz-adv-x="1705" 
d="M975 1548l244 295h278l-330 -295h-192zM1028 1253q-221 0 -381 -148q-159 -149 -191 -377t85 -380t339 -152t382 152t192 380t-87 376q-118 148 -339 149zM844 -37q-338 0 -522 209t-137 551q48 342 292 553t582 211q342 6 528 -204t138 -552q-49 -342 -293 -552
t-588 -216z" />
    <glyph glyph-name="Ocircumflex" unicode="&#xd4;" horiz-adv-x="1705" 
d="M1444 1548h-234l-114 185l-168 -185h-230l277 295h276zM1028 1253q-221 0 -381 -148q-159 -149 -191 -377t85 -380t339 -152t382 152t192 380t-87 376q-118 148 -339 149zM844 -37q-338 0 -522 209t-137 551q48 342 292 553t582 211q342 6 528 -204t138 -552
q-49 -342 -293 -552t-588 -216z" />
    <glyph glyph-name="Otilde" unicode="&#xd5;" horiz-adv-x="1705" 
d="M1245 1741q68 0 107 86h135q-82 -260 -264 -260q-61 0 -159 39t-126 39q-66 -1 -107 -89h-135q82 260 267 261q61 0 158 -38t124 -38zM1028 1253q-221 0 -381 -148q-159 -149 -191 -377t85 -380t339 -152t382 152t192 380t-87 376q-118 148 -339 149zM844 -37
q-338 0 -522 209t-137 551q48 342 292 553t582 211q342 6 528 -204t138 -552q-49 -342 -293 -552t-588 -216z" />
    <glyph glyph-name="Odieresis" unicode="&#xd6;" horiz-adv-x="1705" 
d="M1322 1843q66 0 106 -42t32 -105q-8 -64 -60 -106t-119 -42t-105 44t-31 104q10 59 60 103t117 44zM900 1843q67 0 107 -42q39 -42 31 -105q-8 -64 -60 -106t-119 -42t-105 44t-31 104q10 59 60 103t117 44zM1028 1253q-221 0 -381 -148q-159 -149 -191 -377t85 -380
t339 -152t382 152t192 380t-87 376q-118 148 -339 149zM844 -37q-338 0 -522 209t-137 551q48 342 292 553t582 211q342 6 528 -204t138 -552q-49 -342 -293 -552t-588 -216z" />
    <glyph glyph-name="multiply" unicode="&#xd7;" horiz-adv-x="1363" 
d="M467 1141l324 -375l423 373l123 -144l-422 -370l326 -381l-174 -152l-322 371l-423 -371l-129 150l430 372l-324 381z" />
    <glyph glyph-name="Oslash" unicode="&#xd8;" horiz-adv-x="1705" 
d="M1716 1546l88 -88l-202 -192q168 -207 122 -542t-292 -545q-244 -210 -588 -216q-283 0 -461 152l-201 -189l-90 88l205 193q-156 207 -113 512q49 346 293 557t582 211q268 6 452 -133zM879 197q223 -1 383 151t192 387q29 199 -63 332l-807 -764q117 -106 295 -106z
M1028 1253q-221 0 -381 -148q-159 -149 -187 -355t46 -347l803 758q-115 92 -281 92z" />
    <glyph glyph-name="Ugrave" unicode="&#xd9;" horiz-adv-x="1478" 
d="M891 1843l162 -295h-193l-248 295h279zM734 -37q-254 0 -397 156q-142 156 -106 413l129 918h258l-129 -909q-18 -129 47 -231q64 -102 232 -101q168 0 261 101t112 231l129 909h258l-129 -918q-37 -258 -224 -414t-441 -155z" />
    <glyph glyph-name="Uacute" unicode="&#xda;" horiz-adv-x="1478" 
d="M860 1548l244 295h278l-329 -295h-193zM734 -37q-254 0 -397 156q-142 156 -106 413l129 918h258l-129 -909q-18 -129 47 -231q64 -102 232 -101q168 0 261 101t112 231l129 909h258l-129 -918q-37 -258 -224 -414t-441 -155z" />
    <glyph glyph-name="Ucircumflex" unicode="&#xdb;" horiz-adv-x="1478" 
d="M1329 1548h-233l-115 185l-168 -185h-229l276 295h277zM734 -37q-254 0 -397 156q-142 156 -106 413l129 918h258l-129 -909q-18 -129 47 -231q64 -102 232 -101q168 0 261 101t112 231l129 909h258l-129 -918q-37 -258 -224 -414t-441 -155z" />
    <glyph glyph-name="Udieresis" unicode="&#xdc;" horiz-adv-x="1478" 
d="M1208 1843q66 0 106 -42t32 -105q-8 -64 -60 -106t-120 -42t-106 44t-30 104q10 59 60 103q52 44 118 44zM786 1843q66 0 106 -42t32 -105q-8 -64 -60 -106t-120 -42t-106 44t-30 104q10 59 60 103q52 44 118 44zM734 -37q-254 0 -397 156q-142 156 -106 413l129 918h258
l-129 -909q-18 -129 47 -231q64 -102 232 -101q168 0 261 101t112 231l129 909h258l-129 -918q-37 -258 -224 -414t-441 -155z" />
    <glyph glyph-name="Yacute" unicode="&#xdd;" horiz-adv-x="1290" 
d="M766 1548l244 295h278l-330 -295h-192zM516 0l88 621l-428 829h324l274 -578l443 578h307l-662 -829l-88 -621h-258z" />
    <glyph glyph-name="Thorn" unicode="&#xde;" horiz-adv-x="1251" 
d="M651 541q194 0 273 48t92 144q14 95 -31 143t-104 60t-144 12h-184l-57 -407h155zM813 1169q224 0 359 -89q150 -97 116 -330q-40 -299 -297 -384q-131 -45 -342 -47h-184l-45 -319h-258l205 1450h258l-41 -281h229z" />
    <glyph glyph-name="germandbls" unicode="&#xdf;" horiz-adv-x="1251" 
d="M827 1573q188 0 302 -99t90 -280q-33 -233 -263 -324l-2 -4q156 -20 225 -136t46 -284q-31 -209 -185 -340t-364 -131q-92 0 -168 23l29 207q43 -20 110 -21q131 0 223 77t112 212t-55 211t-216 76h-29l29 209h16q92 0 160 52t80 138t-40 139q-52 54 -155 54
q-102 0 -172 -69t-84 -179l-156 -1104h-245l147 1047q39 274 177 400t388 126z" />
    <glyph glyph-name="agrave" unicode="&#xe0;" horiz-adv-x="1099" 
d="M649 1450l160 -295h-193l-245 295h278zM750 440q-367 0 -390 -151q-8 -63 39 -96t115 -33q123 0 194 60t85 165l8 55h-51zM428 -25q-147 0 -242 78q-94 78 -73 217q12 92 63 158t117 100q160 84 485 84h62l4 27q12 88 -43 136t-156 48q-152 0 -278 -102l-111 129
q178 158 431 158t332 -132q26 -44 36 -77t10 -96t-10 -138l-80 -565h-221l18 135h-6q-121 -160 -338 -160z" />
    <glyph glyph-name="aacute" unicode="&#xe1;" horiz-adv-x="1099" 
d="M616 1155l246 295h279l-332 -295h-193zM750 440q-367 0 -390 -151q-8 -63 39 -96t115 -33q123 0 194 60t85 165l8 55h-51zM428 -25q-147 0 -242 78q-94 78 -73 217q12 92 63 158t117 100q160 84 485 84h62l4 27q12 88 -43 136t-156 48q-152 0 -278 -102l-111 129
q178 158 431 158t332 -132q26 -44 36 -77t10 -96t-10 -138l-80 -565h-221l18 135h-6q-121 -160 -338 -160z" />
    <glyph glyph-name="acircumflex" unicode="&#xe2;" horiz-adv-x="1099" 
d="M1085 1155h-233l-115 184l-168 -184h-229l278 295h277zM750 440q-367 0 -390 -151q-8 -63 39 -96t115 -33q123 0 194 60t85 165l8 55h-51zM428 -25q-147 0 -242 78q-94 78 -73 217q12 92 63 158t117 100q160 84 485 84h62l4 27q12 88 -43 136t-156 48q-152 0 -278 -102
l-111 129q178 158 431 158t332 -132q26 -44 36 -77t10 -96t-10 -138l-80 -565h-221l18 135h-6q-121 -160 -338 -160z" />
    <glyph glyph-name="atilde" unicode="&#xe3;" horiz-adv-x="1099" 
d="M604 1423q60 0 158 -38t125 -37q68 0 106 86h135q-82 -260 -264 -260q-61 0 -159 38t-125 39q-66 0 -107 -88h-135q82 260 266 260zM750 440q-367 0 -390 -151q-8 -63 39 -96t115 -33q123 0 194 60t85 165l8 55h-51zM428 -25q-147 0 -242 78q-94 78 -73 217q12 92 63 158
t117 100q160 84 485 84h62l4 27q12 88 -43 136t-156 48q-152 0 -278 -102l-111 129q178 158 431 158t332 -132q26 -44 36 -77t10 -96t-10 -138l-80 -565h-221l18 135h-6q-121 -160 -338 -160z" />
    <glyph glyph-name="adieresis" unicode="&#xe4;" horiz-adv-x="1099" 
d="M966 1450q68 0 106 -42t30 -105t-60 -105t-120 -43q-66 1 -105 45t-31 103q10 59 62 103t118 44zM544 1450q68 0 106 -42t30 -105t-60 -105t-119 -43q-67 0 -106 44q-38 45 -30 104q10 59 61 103t118 44zM750 440q-367 0 -390 -151q-8 -63 39 -96t115 -33q123 0 194 60
t85 165l8 55h-51zM428 -25q-147 0 -242 78q-94 78 -73 217q12 92 63 158t117 100q160 84 485 84h62l4 27q12 88 -43 136t-156 48q-152 0 -278 -102l-111 129q178 158 431 158t332 -132q26 -44 36 -77t10 -96t-10 -138l-80 -565h-221l18 135h-6q-121 -160 -338 -160z" />
    <glyph glyph-name="aring" unicode="&#xe5;" horiz-adv-x="1099" 
d="M756 1452q-47 0 -87 -32t-46 -79q-7 -47 23 -79t77 -31q47 -1 87 31t46 79t-23 79q-30 32 -77 32zM712 1133q-90 0 -146 59q-54 59 -42 148q12 90 82 150t162 60t145 -60t41 -149q-12 -90 -82 -149t-160 -59zM750 440q-367 0 -390 -151q-8 -63 39 -96t115 -33
q123 0 194 60t85 165l8 55h-51zM428 -25q-147 0 -242 78q-94 78 -73 217q12 92 63 158t117 100q160 84 485 84h62l4 27q12 88 -43 136t-156 48q-152 0 -278 -102l-111 129q178 158 431 158t332 -132q26 -44 36 -77t10 -96t-10 -138l-80 -565h-221l18 135h-6
q-121 -160 -338 -160z" />
    <glyph glyph-name="ae" unicode="&#xe6;" horiz-adv-x="1744" 
d="M1316 823q-104 1 -178 -65q-75 -66 -98 -168h476q10 106 -43 170t-157 63zM512 162q119 0 200 70t93 161l4 25h-123q-309 0 -326 -129q-10 -63 40 -95t112 -32zM1190 -25q-119 -1 -208 49t-134 128q-137 -174 -420 -175q-145 0 -241 76q-95 77 -72 233t151 230
q129 74 365 74h200q16 111 -31 173q-48 62 -155 62q-154 0 -276 -102l-113 129q178 158 440 158q92 4 175 -34t130 -112q154 145 338 144q229 0 331 -147t69 -376l-8 -67h-717q-20 -113 48 -186t155 -72q156 0 280 133l154 -121q-182 -197 -461 -197z" />
    <glyph glyph-name="ccedilla" unicode="&#xe7;" horiz-adv-x="987" 
d="M735 786q-131 0 -222 -87t-108 -207t49 -208q66 -87 194 -87q126 0 208 92l139 -176q-77 -68 -185 -103t-185 -35l-82 -98q185 0 216 -77q15 -36 7 -93q-14 -102 -108 -150q-94 -49 -206 -49t-208 58l59 94q73 -41 139 -41q141 0 152 86q4 37 -26 55q-58 35 -146 4
l-49 52l141 170q-182 33 -283 170q-100 137 -71 336q31 227 205 371q174 145 398 145t339 -150l-195 -170q-82 98 -172 98z" />
    <glyph glyph-name="egrave" unicode="&#xe8;" horiz-adv-x="1175" 
d="M686 1450l160 -295h-193l-245 295h278zM712 823q-110 0 -188 -62q-77 -62 -106 -171h504q14 109 -43 171t-167 62zM636 -25q-242 1 -374 145t-102 372q31 228 205 371q174 145 392 145t324 -142t70 -393l-8 -67h-750q-2 -106 63 -170t169 -64q158 0 282 133l158 -133
q-187 -197 -429 -197z" />
    <glyph glyph-name="eacute" unicode="&#xe9;" horiz-adv-x="1175" 
d="M653 1155l246 295h279l-332 -295h-193zM712 823q-110 0 -188 -62q-77 -62 -106 -171h504q14 109 -43 171t-167 62zM636 -25q-242 1 -374 145t-102 372q31 228 205 371q174 145 392 145t324 -142t70 -393l-8 -67h-750q-2 -106 63 -170t169 -64q158 0 282 133l158 -133
q-187 -197 -429 -197z" />
    <glyph glyph-name="ecircumflex" unicode="&#xea;" horiz-adv-x="1175" 
d="M1122 1155h-233l-115 184l-168 -184h-229l278 295h277zM712 823q-110 0 -188 -62q-77 -62 -106 -171h504q14 109 -43 171t-167 62zM636 -25q-242 1 -374 145t-102 372q31 228 205 371q174 145 392 145t324 -142t70 -393l-8 -67h-750q-2 -106 63 -170t169 -64
q158 0 282 133l158 -133q-187 -197 -429 -197z" />
    <glyph glyph-name="edieresis" unicode="&#xeb;" horiz-adv-x="1175" 
d="M1002 1450q66 0 106 -42q39 -42 31 -105q-9 -63 -61 -105t-119 -43q-67 1 -105 45t-31 103q9 59 61 103t118 44zM581 1450q67 0 105 -42t31 -105q-9 -63 -61 -105t-118 -43q-66 1 -106 45q-39 44 -31 103q9 59 61 103t119 44zM712 823q-110 0 -188 -62q-77 -62 -106 -171
h504q14 109 -43 171t-167 62zM636 -25q-242 1 -374 145t-102 372q31 228 205 371q174 145 392 145t324 -142t70 -393l-8 -67h-750q-2 -106 63 -170t169 -64q158 0 282 133l158 -133q-187 -197 -429 -197z" />
    <glyph glyph-name="igrave" unicode="&#xec;" 
d="M389 1450l160 -295h-193l-245 295h278zM143 0l138 983h245l-137 -983h-246z" />
    <glyph glyph-name="iacute" unicode="&#xed;" 
d="M307 1155l246 295h278l-331 -295h-193zM143 0l138 983h245l-137 -983h-246z" />
    <glyph glyph-name="icircumflex" unicode="&#xee;" 
d="M801 1155h-234l-114 184l-168 -184h-230l279 295h276zM143 0l138 983h245l-137 -983h-246z" />
    <glyph glyph-name="idieresis" unicode="&#xef;" 
d="M681 1450q67 0 105 -42t31 -105q-8 -63 -60 -105t-119 -43q-67 0 -106 44q-38 45 -30 104q10 59 61 103t118 44zM259 1450q67 0 106 -42t31 -105t-61 -105q-52 -42 -119 -43q-68 1 -106 45t-30 103q10 59 61 103t118 44zM143 0l138 983h245l-137 -983h-246z" />
    <glyph glyph-name="eth" unicode="&#xf0;" horiz-adv-x="1249" 
d="M651 197q131 0 222 87t110 208q17 122 -51 208t-198 86t-221 -87t-108 -207t49 -208q66 -87 197 -87zM635 -25q-241 1 -373 145t-102 372q31 228 201 371q171 144 384 145q154 0 224 -78l4 4q-63 133 -215 311l-4 6l-232 -100l-106 117l233 102q-37 43 -83 83t-56 50
l221 119q59 -51 154 -154l241 105l115 -115l-256 -110q307 -395 254 -781q-39 -266 -201 -429t-403 -163z" />
    <glyph glyph-name="ntilde" unicode="&#xf1;" horiz-adv-x="1175" 
d="M641 1423q61 0 159 -38t124 -37q68 0 106 86h135q-82 -260 -264 -260q-61 0 -159 38t-126 39q-65 0 -106 -88h-135q82 260 266 260zM139 0l137 983h234l-21 -158h5q106 182 325 183q184 0 256 -110t49 -277l-88 -621h-245l69 498q43 289 -139 288q-115 0 -181 -70
t-79 -179l-76 -537h-246z" />
    <glyph glyph-name="ograve" unicode="&#xf2;" horiz-adv-x="1249" 
d="M723 1450l160 -295h-193l-246 295h279zM734 786q-130 0 -221 -86t-108 -208q-17 -121 49 -208t198 -87q130 0 221 87t110 208q17 122 -51 208t-198 86zM160 492q31 227 205 371q174 145 401 145t360 -144q132 -144 102 -372t-205 -372t-402 -144t-360 144
q-132 145 -101 372z" />
    <glyph glyph-name="oacute" unicode="&#xf3;" horiz-adv-x="1249" 
d="M690 1155l246 295h278l-331 -295h-193zM734 786q-130 0 -221 -86t-108 -208q-17 -121 49 -208t198 -87q130 0 221 87t110 208q17 122 -51 208t-198 86zM160 492q31 227 205 371q174 145 401 145t360 -144q132 -144 102 -372t-205 -372t-402 -144t-360 144
q-132 145 -101 372z" />
    <glyph glyph-name="ocircumflex" unicode="&#xf4;" horiz-adv-x="1249" 
d="M1159 1155h-233l-115 184l-168 -184h-229l278 295h277zM734 786q-130 0 -221 -86t-108 -208q-17 -121 49 -208t198 -87q130 0 221 87t110 208q17 122 -51 208t-198 86zM160 492q31 227 205 371q174 145 401 145t360 -144q132 -144 102 -372t-205 -372t-402 -144t-360 144
q-132 145 -101 372z" />
    <glyph glyph-name="otilde" unicode="&#xf5;" horiz-adv-x="1249" 
d="M678 1423q60 0 158 -38t125 -37q68 0 106 86h135q-82 -260 -264 -260q-62 0 -160 38t-125 39q-65 0 -106 -88h-135q82 260 266 260zM734 786q-130 0 -221 -86t-108 -208q-17 -121 49 -208t198 -87q130 0 221 87t110 208q17 122 -51 208t-198 86zM160 492q31 227 205 371
q174 145 401 145t360 -144q132 -144 102 -372t-205 -372t-402 -144t-360 144q-132 145 -101 372z" />
    <glyph glyph-name="odieresis" unicode="&#xf6;" horiz-adv-x="1249" 
d="M1040 1450q66 0 105 -42t31 -105t-60 -105t-120 -43q-68 1 -106 45t-30 103q10 59 62 103t118 44zM618 1450q66 0 105 -42t31 -105t-60 -105t-120 -43q-68 1 -106 45t-30 103q10 59 62 103t118 44zM734 786q-130 0 -221 -86t-108 -208q-17 -121 49 -208t198 -87
q130 0 221 87t110 208q17 122 -51 208t-198 86zM160 492q31 227 205 371q174 145 401 145t360 -144q132 -144 102 -372t-205 -372t-402 -144t-360 144q-132 145 -101 372z" />
    <glyph glyph-name="divide" unicode="&#xf7;" horiz-adv-x="1363" 
d="M696 98q-64 0 -102 46q-39 46 -31 108q9 63 61 108q52 46 115 46t103 -46t30 -108t-61 -108t-115 -46zM842 1143q64 0 102 -45q39 -44 31 -108q-9 -64 -61 -109t-115 -45t-103 45q-38 45 -28 108t60 109t114 45zM229 725h1110l-30 -209h-1110z" />
    <glyph glyph-name="oslash" unicode="&#xf8;" horiz-adv-x="1249" 
d="M1247 1053l76 -82l-164 -146q95 -139 67 -349t-203 -356q-175 -144 -402 -145q-184 0 -312 101l-164 -146l-69 84l157 140q-104 137 -73 338q31 227 205 371q175 145 383 145t333 -103zM651 197q131 0 222 87t110 208q13 83 -20 159l-463 -407q59 -47 151 -47zM735 786
q-131 0 -222 -87t-105 -192t20 -179l463 409q-61 49 -156 49z" />
    <glyph glyph-name="ugrave" unicode="&#xf9;" horiz-adv-x="1175" 
d="M686 1450l160 -295h-193l-245 295h278zM610 197q98 -1 164 71t80 178l74 537h246l-138 -983h-233l22 158h-4q-111 -182 -327 -183q-184 0 -256 110t-48 277l86 621h246l-69 -498q-5 -59 -9 -123t32 -114q36 -51 134 -51z" />
    <glyph glyph-name="uacute" unicode="&#xfa;" horiz-adv-x="1175" 
d="M653 1155l246 295h279l-332 -295h-193zM610 197q98 -1 164 71t80 178l74 537h246l-138 -983h-233l22 158h-4q-111 -182 -327 -183q-184 0 -256 110t-48 277l86 621h246l-69 -498q-5 -59 -9 -123t32 -114q36 -51 134 -51z" />
    <glyph glyph-name="ucircumflex" unicode="&#xfb;" horiz-adv-x="1175" 
d="M1122 1155h-233l-115 184l-168 -184h-229l278 295h277zM610 197q98 -1 164 71t80 178l74 537h246l-138 -983h-233l22 158h-4q-111 -182 -327 -183q-184 0 -256 110t-48 277l86 621h246l-69 -498q-5 -59 -9 -123t32 -114q36 -51 134 -51z" />
    <glyph glyph-name="udieresis" unicode="&#xfc;" horiz-adv-x="1175" 
d="M1002 1450q66 0 106 -42q39 -42 31 -105q-9 -63 -61 -105t-119 -43q-67 1 -105 45t-31 103q9 59 61 103t118 44zM581 1450q67 0 105 -42t31 -105q-9 -63 -61 -105t-118 -43q-66 1 -106 45q-39 44 -31 103q9 59 61 103t119 44zM610 197q98 -1 164 71t80 178l74 537h246
l-138 -983h-233l22 158h-4q-111 -182 -327 -183q-184 0 -256 110t-48 277l86 621h246l-69 -498q-5 -59 -9 -123t32 -114q36 -51 134 -51z" />
    <glyph glyph-name="yacute" unicode="&#xfd;" horiz-adv-x="1062" 
d="M598 1155l246 295h278l-331 -295h-193zM147 -492q-94 0 -184 25l62 221q63 -24 135 -24t113 32q42 32 87 113l64 117l-281 991h271l180 -682h4l340 682h256l-631 -1194q-78 -147 -169 -214t-247 -67z" />
    <glyph glyph-name="thorn" unicode="&#xfe;" horiz-adv-x="1290" 
d="M775 786q-130 0 -221 -87q-90 -87 -108 -207t49 -208q67 -87 197 -87t222 87t110 208q16 122 -52 208t-197 86zM856 1008q223 0 334 -146t80 -369q-31 -221 -186 -369q-154 -148 -366 -148t-308 149h-7l-84 -592h-245l282 2015h246l-96 -692h4q53 72 146 112t200 40z" />
    <glyph glyph-name="ydieresis" unicode="&#xff;" horiz-adv-x="1062" 
d="M947 1450q67 0 106 -42t31 -105t-61 -105q-52 -42 -119 -43q-68 1 -106 45t-30 103q10 59 61 103t118 44zM526 1450q66 0 105 -42t31 -105t-60 -105t-120 -43q-68 1 -106 45t-30 103q10 59 62 103t118 44zM147 -492q-94 0 -184 25l62 221q63 -24 135 -24t113 32
q42 32 87 113l64 117l-281 991h271l180 -682h4l340 682h256l-631 -1194q-78 -147 -169 -214t-247 -67z" />
    <glyph glyph-name="dotlessi" unicode="&#x131;" 
d="M143 0l138 983h245l-137 -983h-246z" />
    <glyph glyph-name="Lslash" unicode="&#x141;" horiz-adv-x="1062" 
d="M162 0l53 383l-160 -127l31 225l162 127l119 842h258l-88 -614l475 370l-33 -223l-473 -373l-53 -377h616l-33 -233h-874z" />
    <glyph glyph-name="lslash" unicode="&#x142;" 
d="M143 0l78 559l-160 -141l31 223l162 141l106 766h246l-74 -522l162 141l-30 -219l-160 -139l-115 -809h-246z" />
    <glyph glyph-name="OE" unicode="&#x152;" horiz-adv-x="2048" 
d="M1104 1217q-169 0 -355 -96q-97 -50 -169 -153q-72 -104 -90 -230t8 -216q27 -90 79 -142t147 -98t243 -49h129l137 984h-129zM928 0q-381 0 -575 205q-195 205 -149 521t296 520t633 204h983l-35 -233h-590l-49 -357h553l-33 -233h-553l-55 -394h624l-32 -233h-1018z
" />
    <glyph glyph-name="oe" unicode="&#x153;" horiz-adv-x="1896" 
d="M636 184q132 0 224 89t110 219t-48 218q-68 89 -200 89t-224 -89t-109 -218q-18 -129 48 -219q67 -89 199 -89zM1468 823q-98 0 -184 -62t-104 -171h479q14 106 -40 170q-53 64 -151 63zM1370 172q156 0 281 133l153 -121q-180 -209 -463 -209q-246 0 -342 158
q-164 -158 -393 -158q-229 1 -361 145q-131 144 -101 372t204 371q174 145 404 145t352 -160q154 160 385 160t333 -146t68 -377l-8 -67h-717q-17 -104 51 -175t154 -71z" />
    <glyph glyph-name="Scaron" unicode="&#x160;" horiz-adv-x="1175" 
d="M475 1843h234l116 -184l166 184h226l-277 -295h-272zM532 -37q-309 0 -446 197l221 188q37 -72 108 -112t163 -39q92 0 178 52t98 146q8 63 -24 109t-88 70q-56 26 -127 49t-139 53t-124 72q-55 44 -82 120t-12 181q29 211 203 325t393 113q258 0 395 -150l-217 -198
q-66 115 -237 114q-98 0 -175 -47t-91 -147t114 -156q57 -25 128 -47t141 -54q70 -30 123 -73q54 -43 81 -121t12 -182q-32 -223 -200 -343t-396 -120z" />
    <glyph glyph-name="scaron" unicode="&#x161;" horiz-adv-x="909" 
d="M289 1450h233l115 -184l168 184h225l-278 -295h-273zM586 811q-56 0 -104 -27q-48 -28 -55 -76t44 -74t127 -41t151 -40t119 -91t30 -174q-15 -108 -92 -182q-136 -131 -380 -131t-356 152l184 154q92 -121 217 -121q61 0 117 29q55 30 63 84t-43 83t-127 44
q-77 15 -151 38t-120 85t-32 167q23 154 150 236t290 82q240 0 330 -150l-184 -147q-59 100 -178 100z" />
    <glyph glyph-name="Ydieresis" unicode="&#x178;" horiz-adv-x="1290" 
d="M1113 1843q67 0 107 -42t32 -105q-8 -64 -61 -106q-52 -42 -119 -42q-68 0 -106 44t-30 104q10 59 60 103t117 44zM691 1843q67 0 107 -42t32 -105q-8 -64 -61 -106q-52 -42 -119 -42q-68 0 -106 44t-30 104q10 59 60 103t117 44zM516 0l88 621l-428 829h324l274 -578
l443 578h307l-662 -829l-88 -621h-258z" />
    <glyph glyph-name="Zcaron" unicode="&#x17d;" horiz-adv-x="1251" 
d="M514 1843h234l116 -184l166 184h225l-276 -295h-272zM72 0l32 233l912 984h-762l35 233h1083l-35 -233l-917 -984h792l-32 -233h-1108z" />
    <glyph glyph-name="zcaron" unicode="&#x17e;" horiz-adv-x="987" 
d="M328 1450h233l115 -184l168 184h225l-278 -295h-273zM707 786h-502l26 197h799l-31 -223l-612 -563h557l-26 -197h-848l32 227l605 555v4z" />
    <glyph glyph-name="florin" unicode="&#x192;" horiz-adv-x="1212" 
d="M180 -76q64 0 106 53t76 160l187 551h-232l27 184h268l76 228q60 176 158 275t264 100q123 0 231 -64l-120 -190q-53 33 -103 33q-95 -1 -137 -71q-34 -53 -63 -139l-62 -172h250l-27 -184h-282l-199 -590q-66 -198 -172 -290t-266 -93q-111 0 -201 49l119 189
q38 -29 102 -29z" />
    <glyph glyph-name="circumflex" unicode="&#x2c6;" 
d="M801 1155h-234l-114 184l-168 -184h-230l279 295h276z" />
    <glyph glyph-name="caron" unicode="&#x2c7;" 
d="M100 1450h234l115 -184l167 184h226l-279 -295h-272z" />
    <glyph glyph-name="uni02C9" unicode="&#x2c9;" 
d="M788 1378l-22 -159h-655l22 159h655z" />
    <glyph glyph-name="breve" unicode="&#x2d8;" 
d="M451 1315q96 1 148 27t85 108h135q-37 -147 -140 -221t-254 -74t-234 74q-82 74 -68 221h137q2 -135 191 -135z" />
    <glyph glyph-name="dotaccent" unicode="&#x2d9;" 
d="M470 1450q68 0 106 -42t30 -105t-60 -105t-119 -43q-67 1 -105 45t-31 103q10 59 61 103t118 44z" />
    <glyph glyph-name="ring" unicode="&#x2da;" 
d="M471 1452q-47 0 -87 -32t-46 -79t24 -79t76 -31q47 -1 87 31t46 79t-23 79q-30 32 -77 32zM427 1133q-91 0 -145 59t-42 148q12 90 82 150t162 60t145 -59q53 -60 41 -150t-82 -149t-161 -59z" />
    <glyph glyph-name="ogonek" unicode="&#x2db;" 
d="M150 -479q-95 0 -150 49t-44 131t86 166t163 145h125q-70 -53 -134 -128q-113 -132 -56 -200q24 -28 75 -28t104 43l37 -100q-111 -78 -206 -78z" />
    <glyph glyph-name="tilde" unicode="&#x2dc;" 
d="M319 1423q61 0 159 -38t124 -37q68 0 107 86h135q-82 -260 -264 -260q-62 0 -160 38t-125 39q-66 0 -107 -88h-135q82 260 266 260z" />
    <glyph glyph-name="hungarumlaut" unicode="&#x2dd;" 
d="M541 1155l245 295h279l-332 -295h-192zM121 1155l246 295h278l-332 -295h-192z" />
    <glyph glyph-name="uni03A9" unicode="&#x3a9;" horiz-adv-x="1554" 
d="M426 182v6q-106 102 -164 256q-57 154 -31 347q41 287 256 481t502 194q195 0 332 -98t191 -249t28 -333t-128 -341q-103 -159 -238 -257v-6h311l-27 -182h-555l19 135q137 80 242 236q106 156 138 376q32 221 -58 377t-281 156t-331 -152t-172 -374t30 -384
q62 -163 178 -235l-19 -135h-557l27 182h307z" />
    <glyph glyph-name="uni03BC" unicode="&#x3bc;" horiz-adv-x="1175" 
d="M610 197q98 -1 164 71t80 178l74 537h246l-138 -983h-233l22 158h-4q-111 -182 -327 -183q-66 0 -111 15l-64 -457h-245l202 1450h246l-69 -498q-5 -59 -9 -123t32 -114q36 -51 134 -51z" />
    <glyph glyph-name="pi" unicode="&#x3c0;" horiz-adv-x="1275" 
d="M1348 889h-162l-80 -576q-31 -205 -16 -313h-224q-29 59 6 299l82 590h-336q-36 -205 -116 -477t-154 -412h-225q78 166 157 431t111 458q-160 0 -229 -23l-6 150q96 66 344 65h893z" />
    <glyph glyph-name="uni2010" unicode="&#x2010;" horiz-adv-x="645" 
d="M662 608l-31 -209h-506l31 209h506z" />
    <glyph glyph-name="endash" unicode="&#x2013;" horiz-adv-x="1024" 
d="M1108 602l-27 -196h-1024l27 196h1024z" />
    <glyph glyph-name="emdash" unicode="&#x2014;" horiz-adv-x="2048" 
d="M2132 602l-27 -196h-2048l27 196h2048z" />
    <glyph glyph-name="quoteleft" unicode="&#x2018;" horiz-adv-x="606" 
d="M705 1450l-222 -541h-250l252 541h220z" />
    <glyph glyph-name="quoteright" unicode="&#x2019;" horiz-adv-x="606" 
d="M233 909l222 541h250l-252 -541h-220z" />
    <glyph glyph-name="quotesinglbase" unicode="&#x201a;" horiz-adv-x="606" 
d="M70 -258l219 541h250l-250 -541h-219z" />
    <glyph glyph-name="quotedblleft" unicode="&#x201c;" horiz-adv-x="1062" 
d="M1149 1450l-221 -541h-250l252 541h219zM717 1450l-221 -541h-250l252 541h219z" />
    <glyph glyph-name="quotedblright" unicode="&#x201d;" horiz-adv-x="1062" 
d="M246 909l221 541h250l-252 -541h-219zM678 909l221 541h250l-252 -541h-219z" />
    <glyph glyph-name="quotedblbase" unicode="&#x201e;" horiz-adv-x="1062" 
d="M84 -258l219 541h250l-250 -541h-219zM512 -258l219 541h250l-250 -541h-219z" />
    <glyph glyph-name="dagger" unicode="&#x2020;" horiz-adv-x="1214" 
d="M928 1450l-60 -416h408l-29 -196h-407l-154 -1096h-233l153 1096h-405l28 196h406l59 416h234z" />
    <glyph glyph-name="daggerdbl" unicode="&#x2021;" horiz-adv-x="1214" 
d="M928 1450l-54 -379h396l-29 -197h-395l-78 -555h395l-28 -196h-396l-53 -381h-233l53 381h-393l28 196h394l77 555h-393l29 197h393l53 379h234z" />
    <glyph glyph-name="bullet" unicode="&#x2022;" horiz-adv-x="1024" 
d="M667 1087q151 0 241 -106t68 -257t-142 -256q-120 -106 -272 -106q-150 0 -240 106t-68 258q22 151 141 256q121 105 272 105z" />
    <glyph glyph-name="ellipsis" unicode="&#x2026;" horiz-adv-x="2048" 
d="M1749 303q68 0 109 -45q40 -45 32 -111q-8 -67 -63 -113t-122 -46t-109 44t-33 111q8 66 63 113t123 47zM1067 303q68 0 109 -45q40 -45 32 -111q-8 -67 -63 -113t-122 -46t-109 44t-33 111q8 66 63 113t123 47zM385 303q68 0 109 -45q40 -45 32 -111q-8 -67 -63 -113
t-122 -46t-109 44t-33 111q8 66 63 113t123 47z" />
    <glyph glyph-name="perthousand" unicode="&#x2030;" horiz-adv-x="2390" 
d="M276 12l1063 1504l160 -78l-1063 -1504zM506 936q76 0 134 50t68 127t-31 127q-42 50 -120 50q-77 0 -135 -50t-68 -127t33 -127t119 -50zM481 752q-151 0 -241 106t-70 256q23 150 142 255q120 105 270 105t240 -104q90 -106 71 -256q-20 -150 -141 -256t-271 -106z
M2036 160q76 0 134 50t68 127t-32 127q-43 50 -120 50q-76 0 -134 -49t-68 -127t33 -128t119 -50zM2112 698q150 0 240 -105q91 -105 71 -255q-21 -150 -143 -256t-272 -106t-238 106q-90 106 -70 256q23 150 142 255q120 105 270 105zM1225 160q76 0 134 50t68 127t-32 127
q-43 50 -120 50t-135 -49t-67 -127q-10 -78 33 -128t119 -50zM1300 698q150 0 241 -105t71 -255t-142 -256t-272 -106t-240 106t-69 256q23 150 142 255t269 105z" />
    <glyph glyph-name="guilsinglleft" unicode="&#x2039;" horiz-adv-x="606" 
d="M647 862l-285 -354l187 -358l-170 -105l-246 463l375 459z" />
    <glyph glyph-name="guilsinglright" unicode="&#x203a;" horiz-adv-x="606" 
d="M100 150l287 354l-188 358l170 105l247 -463l-376 -459z" />
    <glyph glyph-name="fraction" unicode="&#x2044;" horiz-adv-x="342" 
d="M-338 12l1063 1504l160 -78l-1063 -1504z" />
    <glyph glyph-name="Euro" unicode="&#x20ac;" horiz-adv-x="1212" 
d="M1000 1475q204 0 307 -68l-107 -211q-82 59 -219 59q-238 0 -363 -245h508l-86 -191h-487q-31 -136 -31 -188h443l-84 -185h-357q31 -254 248 -253q156 0 264 112l131 -153q-63 -76 -181 -126t-257 -51q-444 0 -473 471h-162l82 185h82q4 50 29 188h-135l90 191h106
q96 223 272 344t380 121z" />
    <glyph glyph-name="afii61289" unicode="&#x2113;" horiz-adv-x="1089" 
d="M803 1430q-61 0 -118 -82q-56 -83 -83 -263l-53 -380q328 311 360 532q27 193 -106 193zM811 1591q151 0 211 -100t36 -269q-44 -319 -538 -726l-10 -74q-14 -125 35 -191t139 -65q159 -1 313 196l84 -94q-193 -285 -475 -284q-174 0 -252 98t-73 254l4 24
q-125 -88 -129 -90l-45 123q27 21 93 69t101 75l74 532q37 266 159 394t273 128z" />
    <glyph glyph-name="trademark" unicode="&#x2122;" horiz-adv-x="2048" 
d="M1069 606l119 844h291l123 -549l278 549h291l-119 -844h-209l76 549h-4l-283 -549h-143l-131 549h-4l-76 -549h-209zM418 606l92 660h-250l27 184h708l-26 -184h-250l-92 -660h-209z" />
    <glyph glyph-name="Omega" unicode="&#x2126;" horiz-adv-x="1554" 
d="M426 182v6q-106 102 -164 256q-57 154 -31 347q41 287 256 481t502 194q195 0 332 -98t191 -249t28 -333t-128 -341q-103 -159 -238 -257v-6h311l-27 -182h-555l19 135q137 80 242 236q106 156 138 376q32 221 -58 377t-281 156t-331 -152t-172 -374t30 -384
q62 -163 178 -235l-19 -135h-557l27 182h307z" />
    <glyph glyph-name="estimated" unicode="&#x212e;" horiz-adv-x="2015" 
d="M1636 758v409q0 29 -18 50q-217 213 -508 213t-506 -220q-20 -20 -20 -51v-401q0 -14 10 -15h1034q8 1 8 15zM1944 705h-1350q-10 0 -10 -11v-407q0 -25 18 -47q215 -221 510 -222q158 0 297 67t240 181h118q-113 -133 -285 -211t-372 -78q-344 -1 -588 219t-243 529
q0 309 243 529q244 220 589 220t589 -218q244 -220 244 -531v-20z" />
    <glyph glyph-name="partialdiff" unicode="&#x2202;" horiz-adv-x="1216" 
d="M567 170h2q125 0 231 136q105 136 150 319q-14 69 -79 135t-174 66t-205 -106q-96 -104 -114 -242t33 -223q52 -85 156 -85zM772 1626q236 0 373 -208t85 -584t-242 -613q-190 -238 -470 -237q-106 0 -187 45t-123 117q-84 143 -61 325q35 238 190 386t349 149
q125 0 206 -62t107 -125h2q15 45 15 78q33 231 -54 388t-250 157t-304 -101l-48 166q176 119 412 119z" />
    <glyph glyph-name="uni2206" unicode="&#x2206;" horiz-adv-x="1415" 
d="M324 182h806l-174 684q-8 46 -38 186t-37 189h-9q-14 -37 -77 -163t-88 -179zM59 0l19 137l704 1342h273l319 -1340l-20 -139h-1295z" />
    <glyph glyph-name="product" unicode="&#x220f;" horiz-adv-x="1740" 
d="M1688 1239h-228v-1438h-227v1438h-522v-1438h-228v1438h-227v205h1432v-205z" />
    <glyph glyph-name="summation" unicode="&#x2211;" horiz-adv-x="1402" 
d="M1364 -199h-1112v144l543 676l-521 665v158h1055v-195h-741v-8l469 -586l-512 -639v-6h819v-209z" />
    <glyph glyph-name="minus" unicode="&#x2212;" horiz-adv-x="1363" 
d="M229 725h1110l-30 -209h-1110z" />
    <glyph glyph-name="uni2215" unicode="&#x2215;" horiz-adv-x="342" 
d="M-338 12l1063 1504l160 -78l-1063 -1504z" />
    <glyph glyph-name="uni2219" unicode="&#x2219;" horiz-adv-x="606" 
d="M410 756q68 0 108 -45t33 -111t-63 -113t-122 -47t-109 45q-42 45 -34 111q7 66 63 113t124 47z" />
    <glyph glyph-name="radical" unicode="&#x221a;" horiz-adv-x="1462" 
d="M1481 1724l-484 -2023h-190l-332 926l-158 -62l-41 127l338 135l246 -708q6 -27 20 -83t21 -81l2 -2q4 27 17 90l16 84l381 1597h164z" />
    <glyph glyph-name="infinity" unicode="&#x221e;" horiz-adv-x="1779" 
d="M1343 813h-2q-78 0 -143 -53t-112 -106q-48 -54 -52 -60q106 -125 172 -174t149 -49q83 -1 136 67t53 159t-56 154q-57 62 -145 62zM582 371h2q115 0 236 135q17 18 69 76q-63 82 -94 118t-93 74q-62 39 -143 39q-80 -1 -134 -65t-54 -158t60 -157q61 -62 151 -62z
M1677 598v-2q0 -160 -99 -257t-235 -97q-98 0 -188 56t-194 189q-97 -119 -189 -182t-217 -63t-222 98t-97 250t99 251t247 99q110 0 200 -62t185 -180q115 127 168 166q104 76 233 75t219 -95t90 -246z" />
    <glyph glyph-name="integral" unicode="&#x222b;" horiz-adv-x="1011" 
d="M731 201q0 -274 -84 -414q-76 -135 -250 -135q-92 0 -157 35l32 159q131 -55 193 21q65 86 65 302t-16 555t-16 511t28 278q29 106 95 177q86 88 231 88q76 0 125 -27l-27 -154q-38 19 -94 19t-92 -51q-63 -76 -64 -355q0 -162 16 -494t15 -515z" />
    <glyph glyph-name="approxequal" unicode="&#x2248;" horiz-adv-x="1323" 
d="M946 256q-94 0 -230 79t-202 79q-68 0 -113 -39t-98 -117l-86 78q51 94 133 152t162 58t129 -20q50 -21 81 -39q30 -18 37 -22t55 -34q66 -42 131 -42q64 0 109 37q44 37 95 117l84 -78q-113 -209 -287 -209zM948 639q-98 0 -232 78t-202 78t-113 -39t-98 -115l-86 78
q51 94 132 151q81 58 161 58t127 -20q48 -20 82 -40q35 -20 51 -28t28 -16q80 -52 152 -52q105 0 199 154l84 -78q-111 -209 -285 -209z" />
    <glyph glyph-name="notequal" unicode="&#x2260;" horiz-adv-x="1349" 
d="M1245 870v-135h-364l-133 -297h497v-135h-553l-110 -246l-109 47l92 199h-303v135h359l131 297h-490v135h543l108 242l109 -47l-88 -195h311z" />
    <glyph glyph-name="lessequal" unicode="&#x2264;" horiz-adv-x="1376" 
d="M1272 -16h-983v137h983v-137zM1266 203l-967 471v145l965 471v-157l-826 -383v-5l828 -385v-157z" />
    <glyph glyph-name="greaterequal" unicode="&#x2265;" horiz-adv-x="1374" 
d="M1268 -16h-977v137h977v-137zM301 1290l967 -471v-145l-967 -471v157l825 383v7l-825 383v157z" />
    <glyph glyph-name="lozenge" unicode="&#x25ca;" horiz-adv-x="1464" 
d="M1151 715l-272 532q-25 61 -39 113h-6q-18 -61 -41 -113l-273 -522l275 -537q27 -66 36 -108h9q23 74 39 106zM1356 721l-432 -823h-183l-424 823l431 823h184z" />
    <glyph glyph-name="fi" unicode="&#xfb01;" horiz-adv-x="1214" 
d="M1189 1464q67 0 107 -42t31 -105q-8 -63 -60 -105t-119 -43q-67 0 -106 44q-38 45 -30 104q10 59 60 103t117 44zM860 0l137 983h246l-137 -983h-246zM815 1573q84 0 154 -14l-45 -209q-61 14 -101 14q-94 0 -134 -53t-52 -150l-27 -178h228l-29 -209h-227l-109 -774
h-246l109 774h-203l29 209h203l20 139q33 227 125 339t305 112z" />
    <glyph glyph-name="fl" unicode="&#xfb02;" horiz-adv-x="1214" 
d="M860 0l217 1548h246l-217 -1548h-246zM815 1573q84 0 154 -14l-45 -209q-61 14 -101 14q-94 0 -134 -53t-52 -150l-27 -178h228l-29 -209h-227l-109 -774h-246l109 774h-203l29 209h203l20 139q33 227 125 339t305 112z" />
    <glyph glyph-name="a.superior" horiz-adv-x="714" 
d="M592 1133q-205 0 -213 -76q-5 -29 23 -46t69 -18q158 0 176 127l2 13h-57zM639 1255h35l2 17q12 67 -146 67q-78 0 -165 -65l-72 108q117 92 279 92t218 -60q58 -60 39 -185l-47 -346h-159l10 80h-4q-70 -92 -223 -93q-63 0 -135 34q-82 39 -65 154q9 62 53 106
q90 92 380 91z" />
    <glyph glyph-name="o.superior" horiz-adv-x="813" 
d="M547 1018q80 0 134 48t61 106t-32 107q-40 48 -120 48t-133 -48q-53 -47 -61 -107t32 -107q39 -47 119 -47zM527 870q-146 0 -233 85t-67 217t129 218t255 85q147 0 235 -85q88 -86 68 -218t-130 -217q-111 -85 -257 -85z" />
    <glyph glyph-name="one.superior" horiz-adv-x="788" 
d="M451 592l90 649l-193 -154l-94 136l340 239h186l-121 -870h-208z" />
    <glyph glyph-name="two.superior" horiz-adv-x="788" 
d="M616 1475q142 0 220 -68t60 -198t-151 -220l-317 -221l-2 -4h405l-22 -172h-662l27 194l412 312q94 72 100 112q12 80 -104 80q-52 0 -92 -32t-50 -78l-194 12q29 141 128 212t242 71z" />
    <glyph glyph-name="three.superior" horiz-adv-x="788" 
d="M524 1130q143 0 156 93q8 67 -97 67t-141 -90l-204 41q88 233 368 234q133 -1 217 -61t68 -173q-11 -74 -61 -125t-128 -65v-4q80 -11 120 -69t30 -136q-18 -127 -124 -195t-253 -67q-285 0 -305 241l217 45q6 -102 113 -102q131 0 145 98q12 68 -45 84q-44 12 -119 12
h-47l25 172h65z" />
    </font>
</defs>
</svg>
