<?xml version="1.0" encoding="UTF-8"?>
<svg xmlns="http://www.w3.org/2000/svg" xmlns:xlink="http://www.w3.org/1999/xlink" version="1.2" >
<font id="BauerBodoni BT Italic">
<font-face  font-family="BauerBodoni BT" units-per-em="2048" ascent="1556" descent="-492" font-style="italic" font-weight="400" font-stretch="normal" slope="-15.5" cap-height="1536" x-height="1024" underline-position="-246" underline-thickness="115" />
<missing-glyph  horiz-adv-x="1229" d="M102 -362 L102 1444 L1126 1444 L1126 -362 L102 -362 Z M217 -248 L1012 -248 L1012 1329 L217 1329 L217 -248 Z " />
<glyph glyph-name="space" unicode="&#x20;" horiz-adv-x="494" d="" />
<glyph glyph-name="exclam" unicode="&#x21;" horiz-adv-x="674" d="M254 324 L223 332 Q298 587 330 747.5 Q362 908 362 1020 Q362 1037 361 1062.5 Q360 1088 357 1129 Q422 1169 470 1230 Q518 1291 557 1384 Q557 1377 556 1361 Q553 1293 553 1264 Q553 1215 564.5 1180.5 Q576 1146 600 1120 Q502 996 415.5 796 Q329 596 254 324 Z M43 61 Q43 100 70 127 Q97 154 135 154 Q173 154 199 127 Q225 100 225 61 Q225 23 199.5 -3 Q174 -29 135 -29 Q97 -29 70 -2.5 Q43 24 43 61 Z " />
<glyph glyph-name="quotedbl" unicode="&#x22;" horiz-adv-x="678" d="M518 864 L487 864 L422 1321 Q422 1323 421 1327 Q418 1349 418 1360 Q418 1409 440.5 1435.5 Q463 1462 504 1462 Q544 1462 566 1436 Q588 1410 588 1362 Q588 1348 587.5 1339 Q587 1330 586 1321 L518 864 Z M190 864 L158 864 L94 1321 Q92 1338 91 1347 Q90 1356 90 1362 Q90 1410 112 1436 Q134 1462 174 1462 Q215 1462 237.5 1436 Q260 1410 260 1362 Q260 1353 257 1328 Q256 1323 256 1321 L190 864 Z " />
<glyph glyph-name="numbersign" unicode="&#x23;" horiz-adv-x="1575" d="M700 868 L600 582 L889 582 L991 868 L700 868 Z M778 1456 L911 1456 L743 985 L1030 985 L1198 1456 L1329 1456 L1163 985 L1470 985 L1430 868 L1120 868 L1020 582 L1352 582 L1309 467 L979 467 L813 -2 L680 -2 L846 467 L559 467 L393 -2 L262 -2 L428 467 L104 467 L147 582 L469 582 L569 868 L221 868 L264 985 L612 985 L778 1456 Z " />
<glyph glyph-name="dollar" unicode="&#x24;" horiz-adv-x="985" d="M485 870 Q532 847 560.5 834 Q589 821 604 815 L756 1337 Q732 1346 705 1351 Q678 1356 651 1356 Q647 1356 638 1355 Q629 1354 625 1354 L485 870 Z M457 889 L588 1352 Q463 1337 387 1266 Q311 1195 311 1096 Q311 1031 348.5 978 Q386 925 457 889 Z M408 6 Q564 18 652.5 109 Q741 200 741 348 Q741 427 699 483.5 Q657 540 571 578 L408 6 Z M246 37 Q276 25 308.5 18.5 Q341 12 375 12 L543 596 Q523 606 483 626.5 Q443 647 424 657 L246 37 Z M150 -301 L117 -293 L207 23 Q160 44 89.5 91.5 Q19 139 -10 139 Q-29 139 -48.5 119.5 Q-68 100 -96 51 L-127 61 Q-121 76 -107 108 Q-4 344 55 524 L84 518 Q64 460 54.5 407 Q45 354 45 307 Q45 225 86.5 164.5 Q128 104 217 55 L395 676 Q314 733 273.5 810 Q233 887 233 985 Q233 1152 333 1262.5 Q433 1373 598 1386 L657 1593 L690 1583 L633 1389 L649 1389 Q671 1389 698 1385.5 Q725 1382 766 1374 L827 1591 L860 1583 L797 1362 Q820 1350 859 1328 Q955 1276 975 1276 Q996 1276 1013.5 1292 Q1031 1308 1045 1339 L1071 1333 L944 936 L918 944 Q925 976 928.5 1005 Q932 1034 932 1059 Q932 1154 895 1220 Q858 1286 784 1323 L633 795 Q764 732 822.5 651.5 Q881 571 881 453 Q881 249 744.5 113 Q608 -23 399 -25 L319 -299 L289 -287 L364 -25 Q332 -22 300.5 -14 Q269 -6 238 6 L150 -301 Z " />
<glyph glyph-name="percent" unicode="&#x25;" horiz-adv-x="1421" d="M1159 713 Q1110 713 1064 657 Q1018 601 979 494 Q940 388 918.5 284.5 Q897 181 897 109 Q897 59 917 31.5 Q937 4 973 4 Q1016 4 1054 42.5 Q1092 81 1130 164 Q1178 267 1208.5 394.5 Q1239 522 1239 608 Q1239 659 1218 686 Q1197 713 1159 713 Z M1167 741 Q1258 741 1306 677 Q1354 613 1354 494 Q1354 413 1330.5 333 Q1307 253 1264 184 Q1204 90 1126.5 37 Q1049 -16 971 -16 Q882 -16 833 48 Q784 112 784 229 Q784 307 808 386.5 Q832 466 877 539 Q936 635 1012.5 688 Q1089 741 1167 741 Z M446 1331 Q398 1331 351.5 1274.5 Q305 1218 266 1110 Q228 1004 206 901.5 Q184 799 184 727 Q184 677 204 650 Q224 623 260 623 Q304 623 342 661 Q380 699 418 780 Q465 883 495.5 1011.5 Q526 1140 526 1227 Q526 1277 505.5 1304 Q485 1331 446 1331 Z M451 1354 Q541 1354 589 1290 Q637 1226 637 1106 Q637 1026 614 947 Q591 868 547 799 Q487 703 409.5 649.5 Q332 596 254 596 Q165 596 116.5 660.5 Q68 725 68 842 Q68 919 91.5 998.5 Q115 1078 160 1151 Q219 1247 295.5 1300.5 Q372 1354 451 1354 Z M317 -25 L250 -25 L1104 1360 L1169 1360 L317 -25 Z " />
<glyph glyph-name="ampersand" unicode="&#x26;" horiz-adv-x="1366" d="M410 733 Q385 810 376 859.5 Q367 909 367 954 Q367 1083 454 1179.5 Q541 1276 655 1276 Q746 1276 801 1223.5 Q856 1171 856 1083 Q856 988 778.5 906 Q701 824 567 778 Q607 674 655.5 574.5 Q704 475 762 377 Q864 502 936 553 Q1008 604 1077 604 Q1135 604 1173.5 569.5 Q1212 535 1212 483 Q1212 437 1182.5 406 Q1153 375 1108 375 Q1065 375 1034.5 405 Q1004 435 1004 477 Q1004 484 1007 499 Q1010 514 1010 522 Q1010 535 1007 541 Q1004 547 997 547 Q966 547 909 497.5 Q852 448 776 354 Q844 222 910.5 153 Q977 84 1036 84 Q1080 84 1117.5 118.5 Q1155 153 1192 229 L1206 223 Q1174 107 1104 40 Q1034 -27 946 -27 Q871 -27 803 29 Q735 85 662 209 Q554 85 466.5 29 Q379 -27 295 -27 Q171 -27 82.5 69.5 Q-6 166 -6 301 Q-6 436 95 541.5 Q196 647 410 733 Z M647 229 Q588 332 532 449 Q476 566 420 702 Q280 645 217 580 Q154 515 154 428 Q154 370 178.5 305.5 Q203 241 250 176 Q287 126 330 101 Q373 76 420 76 Q472 76 527 113 Q582 150 647 229 Z M559 799 Q693 849 762 920 Q831 991 831 1077 Q831 1154 789.5 1198.5 Q748 1243 676 1243 Q601 1243 553.5 1186 Q506 1129 506 1038 Q506 983 519.5 922 Q533 861 559 799 Z " />
<glyph glyph-name="quotesingle" unicode="&#x27;" horiz-adv-x="348" d="M190 864 L158 864 L92 1321 Q91 1329 90.5 1337 Q90 1345 90 1360 Q90 1410 111.5 1436 Q133 1462 174 1462 Q215 1462 237.5 1436 Q260 1410 260 1362 Q260 1353 257 1328 Q256 1323 256 1321 L190 864 Z " />
<glyph glyph-name="parenleft" unicode="&#x28;" horiz-adv-x="664" d="M836 1362 Q549 1170 396.5 847 Q244 524 244 111 Q244 -33 278.5 -164 Q313 -295 385 -426 L373 -440 Q256 -284 190.5 -84 Q125 116 125 313 Q125 634 301 905.5 Q477 1177 819 1384 L836 1362 Z " />
<glyph glyph-name="parenright" unicode="&#x29;" horiz-adv-x="664" d="M-262 -418 Q23 -227 175.5 96 Q328 419 328 834 Q328 977 293.5 1108 Q259 1239 186 1370 L199 1384 Q315 1228 380.5 1028 Q446 828 446 631 Q446 310 270.5 38.5 Q95 -233 -248 -440 L-262 -418 Z " />
<glyph glyph-name="asterisk" unicode="&#x2a;" horiz-adv-x="1024" d="M573 979 Q559 1140 482 1269 Q471 1287 471 1290 Q471 1296 475 1299.5 Q479 1303 487 1303 L496 1303 L541 1296 L553 1352 Q557 1371 561.5 1377.5 Q566 1384 575 1384 Q586 1384 591 1378.5 Q596 1373 602 1352 L616 1298 L657 1309 Q658 1309 660.5 1310 Q663 1311 664 1311 Q670 1311 675 1305.5 Q680 1300 680 1292 Q680 1290 671 1272 Q604 1143 602 981 Q738 1050 848 1152 Q873 1175 879 1176 Q884 1175 886 1172.5 Q888 1170 889 1163 L895 1110 L954 1116 L961 1116 Q970 1116 974.5 1112 Q979 1108 979 1100 Q979 1091 978 1088 Q977 1085 974 1083 L920 1042 L936 1006 Q938 1001 942 993.5 Q946 986 946 985 Q946 980 942.5 976.5 Q939 973 934 973 Q932 973 925 975 Q883 987 838 987 Q730 987 685.5 979.5 Q641 972 608 954 Q691 868 782.5 808.5 Q874 749 874 745 Q874 738 859 732 L858 731 L825 719 L850 666 Q852 661 854 654.5 Q856 648 856 645 Q856 635 851 629 Q846 623 838 623 Q835 623 832.5 623.5 Q830 624 825 627 L762 668 L727 633 Q724 630 721.5 628.5 Q719 627 717 627 Q706 627 696 676 Q695 681 694 684 Q678 770 652 831.5 Q626 893 588 936 Q536 833 512.5 725.5 Q489 618 487 618 Q486 619 485 619.5 Q484 620 481 623 L444 659 L395 614 Q389 608 383 605 Q377 602 371 602 Q362 603 357.5 608 Q353 613 352 623 Q352 624 353 628 Q354 632 356 638 L375 696 L331 713 Q324 716 321 719.5 Q318 723 317 729 Q317 730 409 794.5 Q501 859 567 956 Q542 964 513 967.5 Q484 971 449 971 Q386 971 322 963.5 Q258 956 256 956 Q240 957 232 961 Q224 965 223 973 Q223 975 225 977 L256 1016 L192 1055 Q184 1060 181 1064.5 Q178 1069 178 1075 Q178 1081 185.5 1086 Q193 1091 205 1092 Q208 1092 215 1091 Q222 1090 225 1090 L274 1085 L274 1137 Q275 1149 280 1155 Q285 1161 293 1161 Q297 1161 316 1142 Q427 1032 573 979 Z " />
<glyph glyph-name="plus" unicode="&#x2b;" horiz-adv-x="1706" d="M795 1221 L913 1221 L913 670 L1452 670 L1452 553 L913 553 L913 0 L795 0 L795 553 L254 553 L254 670 L795 670 L795 1221 Z " />
<glyph glyph-name="comma" unicode="&#x2c;" horiz-adv-x="494" d="M-45 -354 L-57 -326 Q70 -274 149.5 -199.5 Q229 -125 229 -63 Q229 -27 170 -24 Q144 -22 132 -21 Q78 -11 49 16 Q20 43 20 84 Q20 128 51.5 158 Q83 188 129 188 Q197 188 242 137.5 Q287 87 287 8 Q287 -104 199.5 -200 Q112 -296 -45 -354 Z " />
<glyph glyph-name="hyphen" unicode="&#x2d;" horiz-adv-x="786" d="M72 344 L109 475 L557 475 L518 344 L72 344 Z " />
<glyph glyph-name="period" unicode="&#x2e;" horiz-adv-x="494" d="M43 76 Q43 114 69.5 140 Q96 166 135 166 Q174 166 199.5 140 Q225 114 225 76 Q225 37 199.5 11.5 Q174 -14 135 -14 Q97 -14 70 12.5 Q43 39 43 76 Z " />
<glyph glyph-name="slash" unicode="&#x2f;" horiz-adv-x="569" d="M608 1384 L664 1384 L-141 -190 L-195 -190 L608 1384 Z " />
<glyph glyph-name="zero" unicode="0" horiz-adv-x="985" d="M670 1337 Q589 1337 516 1263.5 Q443 1190 373 1036 Q337 958 302 853 Q267 748 238 629 Q206 503 189 389 Q172 275 172 197 Q172 103 208.5 52.5 Q245 2 313 2 Q394 2 466.5 74.5 Q539 147 608 299 Q643 376 678.5 482.5 Q714 589 745 715 Q777 841 794 952.5 Q811 1064 811 1141 Q811 1235 774 1286 Q737 1337 670 1337 Z M647 1360 Q790 1360 866 1243.5 Q942 1127 942 907 Q942 762 905.5 618 Q869 474 799 344 Q704 169 581 71 Q458 -27 334 -27 Q192 -27 115.5 90.5 Q39 208 39 426 Q39 574 75.5 719 Q112 864 182 991 Q276 1164 400 1262 Q524 1360 647 1360 Z " />
<glyph glyph-name="one" unicode="1" horiz-adv-x="985" d="M55 0 L64 33 Q75 32 87.5 31.5 Q100 31 123 31 Q201 31 234 56.5 Q267 82 297 182 L602 1223 Q521 1167 421 1115 Q321 1063 188 1008 L178 1034 Q298 1083 449.5 1168 Q601 1253 844 1409 L463 123 Q459 109 457 98.5 Q455 88 455 80 Q455 37 580 34 Q614 33 633 33 L627 0 L55 0 Z " />
<glyph glyph-name="two" unicode="2" horiz-adv-x="985" d="M-47 0 Q-26 78 17.5 147 Q61 216 133 285 Q171 321 284.5 401.5 Q398 482 455 524 Q594 628 674 774 Q754 920 754 1069 Q754 1187 683 1259 Q612 1331 498 1331 Q388 1331 303.5 1266 Q219 1201 219 1122 Q219 1098 228 1079.5 Q237 1061 266 1034 Q274 1027 289 1012 Q352 951 352 913 Q352 882 330 861 Q308 840 274 840 Q230 840 198 897 Q166 954 166 1038 Q166 1182 270 1272 Q374 1362 543 1362 Q718 1362 828 1271.5 Q938 1181 938 1040 Q938 906 862 798 Q786 690 590 557 Q539 523 437 462 Q164 297 68 164 L612 164 Q689 164 719 185 Q749 206 791 270 L813 260 Q773 190 739.5 125.5 Q706 61 678 0 L-47 0 Z " />
<glyph glyph-name="three" unicode="3" horiz-adv-x="985" d="M254 735 L262 762 Q288 761 320.5 759.5 Q353 758 358 758 Q555 758 651.5 852.5 Q748 947 748 1141 Q748 1231 698.5 1281 Q649 1331 561 1331 Q473 1331 400.5 1286.5 Q328 1242 328 1194 Q328 1182 337.5 1174.5 Q347 1167 375 1159 Q411 1150 427.5 1131.5 Q444 1113 444 1083 Q444 1048 417 1022.5 Q390 997 352 997 Q310 997 283 1027.5 Q256 1058 256 1106 Q256 1213 350.5 1286.5 Q445 1360 592 1360 Q737 1360 826 1282.5 Q915 1205 915 1081 Q915 946 809.5 858 Q704 770 506 741 Q657 714 739 633.5 Q821 553 821 434 Q821 243 675 109 Q529 -25 319 -25 Q187 -25 99.5 42 Q12 109 12 209 Q12 283 55.5 334 Q99 385 162 385 Q207 385 234.5 359.5 Q262 334 262 293 Q262 249 233 222 Q204 195 156 195 Q152 195 138.5 196 Q125 197 115 197 Q87 197 75 188 Q63 179 63 158 Q63 103 136 53.5 Q209 4 301 4 Q372 4 429.5 35.5 Q487 67 532 131 Q573 189 602 296.5 Q631 404 631 504 Q631 634 555.5 684.5 Q480 735 272 735 L254 735 Z " />
<glyph glyph-name="four" unicode="4" horiz-adv-x="985" d="M221 0 L233 39 L399 39 L502 408 L-41 408 L831 1395 L852 1378 L94 512 L530 512 L655 963 L854 1077 L698 512 L928 512 L897 408 L668 408 L567 39 L727 39 L715 0 L221 0 Z " />
<glyph glyph-name="five" unicode="5" horiz-adv-x="985" d="M178 608 L160 614 L375 1356 Q516 1307 576.5 1292.5 Q637 1278 680 1278 Q751 1278 810.5 1301.5 Q870 1325 921 1374 Q912 1256 823 1187 Q734 1118 590 1118 Q541 1118 482.5 1128.5 Q424 1139 356 1159 L238 758 Q291 816 360 845 Q429 874 512 874 Q655 874 743 787 Q831 700 831 559 Q831 444 776 335 Q721 226 616 135 Q527 58 431 16.5 Q335 -25 246 -25 Q125 -25 45 38 Q-35 101 -35 193 Q-35 253 -2 294.5 Q31 336 78 336 Q118 336 146 308.5 Q174 281 174 242 Q174 218 162.5 195 Q151 172 129 154 Q121 147 105 135 Q68 108 68 82 Q68 51 117 29.5 Q166 8 244 8 Q325 8 390 47 Q455 86 500 162 Q564 274 602.5 396.5 Q641 519 641 608 Q641 703 587 761 Q533 819 446 819 Q362 819 292.5 765 Q223 711 178 608 Z " />
<glyph glyph-name="six" unicode="6" horiz-adv-x="985" d="M547 795 Q395 795 291.5 642 Q188 489 188 254 Q188 129 240.5 67.5 Q293 6 399 6 Q464 6 514 39.5 Q564 73 596 137 Q654 253 686.5 374.5 Q719 496 719 598 Q719 690 673 742.5 Q627 795 547 795 Z M924 1360 L924 1333 Q665 1327 513.5 1176.5 Q362 1026 281 690 Q331 756 409 791.5 Q487 827 580 827 Q717 827 807 732.5 Q897 638 897 492 Q897 405 863.5 319 Q830 233 768 160 Q696 76 596.5 25.5 Q497 -25 406 -25 Q242 -25 140.5 102 Q39 229 39 436 Q39 614 104 780.5 Q169 947 291 1079 Q423 1222 578 1291 Q733 1360 924 1360 Z " />
<glyph glyph-name="seven" unicode="7" horiz-adv-x="985" d="M180 1026 L154 1036 Q191 1117 223 1205.5 Q255 1294 285 1399 L309 1395 L301 1356 Q366 1323 455 1306.5 Q544 1290 662 1290 Q805 1290 908 1314 Q1011 1338 1087 1389 L1102 1366 Q794 978 606 665 Q418 352 418 244 Q418 219 427 205.5 Q436 192 467 178 Q524 153 539.5 131.5 Q555 110 555 76 Q555 32 530.5 3.5 Q506 -25 467 -25 Q415 -25 381.5 16 Q348 57 348 121 Q348 269 493 537 Q638 805 918 1174 Q835 1143 743 1127.5 Q651 1112 547 1112 Q436 1112 361 1120 Q286 1128 233 1145 L180 1026 Z " />
<glyph glyph-name="eight" unicode="8" horiz-adv-x="985" d="M596 768 Q746 851 817.5 935 Q889 1019 889 1112 Q889 1212 824 1272.5 Q759 1333 651 1333 Q539 1333 461 1264.5 Q383 1196 383 1100 Q383 1046 437 962 Q491 878 596 768 Z M412 676 Q246 598 154.5 492 Q63 386 63 272 Q63 158 148.5 82 Q234 6 362 6 Q491 6 579.5 80 Q668 154 668 262 Q668 347 608 444.5 Q548 542 412 676 Z M387 702 Q326 776 295 843.5 Q264 911 264 971 Q264 1132 379.5 1247 Q495 1362 659 1362 Q775 1362 847.5 1296 Q920 1230 920 1124 Q920 1017 845 924 Q770 831 614 748 Q711 647 757 552 Q803 457 803 356 Q803 198 679 87.5 Q555 -23 373 -23 Q220 -23 126.5 60 Q33 143 33 274 Q33 392 122.5 500 Q212 608 387 702 Z " />
<glyph glyph-name="nine" unicode="9" horiz-adv-x="985" d="M424 541 Q576 541 679 693.5 Q782 846 782 1081 Q782 1207 730 1268 Q678 1329 571 1329 Q507 1329 458 1296 Q409 1263 377 1198 Q318 1081 285 959.5 Q252 838 252 737 Q252 646 298 593.5 Q344 541 424 541 Z M47 -25 L47 2 Q306 8 457.5 158.5 Q609 309 690 645 Q640 579 562 543.5 Q484 508 391 508 Q254 508 164 602.5 Q74 697 74 844 Q74 931 107.5 1017 Q141 1103 203 1176 Q275 1259 374.5 1309.5 Q474 1360 565 1360 Q729 1360 830.5 1234 Q932 1108 932 901 Q932 723 866.5 555.5 Q801 388 680 256 Q548 113 392.5 44 Q237 -25 47 -25 Z " />
<glyph glyph-name="colon" unicode="&#x3a;" horiz-adv-x="674" d="M256 748 Q256 786 282 813 Q308 840 346 840 Q385 840 411.5 813 Q438 786 438 748 Q438 709 411.5 683 Q385 657 346 657 Q308 657 282 683.5 Q256 710 256 748 Z M72 76 Q72 114 97.5 140 Q123 166 162 166 Q201 166 227.5 140 Q254 114 254 76 Q254 38 227.5 12 Q201 -14 162 -14 Q124 -14 98 12 Q72 38 72 76 Z " />
<glyph glyph-name="semicolon" unicode="&#x3b;" horiz-adv-x="674" d="M-12 -354 L-23 -326 Q105 -274 183.5 -199.5 Q262 -125 262 -63 Q262 -27 205 -24 Q179 -22 165 -20 Q113 -11 84 16 Q55 43 55 84 Q55 128 86 158 Q117 188 164 188 Q232 188 277 137.5 Q322 87 322 8 Q322 -104 233.5 -200 Q145 -296 -12 -354 Z M256 748 Q256 786 282 813 Q308 840 346 840 Q385 840 411.5 813 Q438 786 438 748 Q438 709 411.5 683 Q385 657 346 657 Q308 657 282 683.5 Q256 710 256 748 Z " />
<glyph glyph-name="less" unicode="&#x3c;" horiz-adv-x="1706" d="M1442 1145 L1442 1018 L442 610 L1442 205 L1442 76 L264 559 L264 662 L1442 1145 Z " />
<glyph glyph-name="equal" unicode="&#x3d;" horiz-adv-x="1706" d="M254 477 L1452 477 L1452 360 L254 360 L254 477 Z M254 860 L1452 860 L1452 743 L254 743 L254 860 Z " />
<glyph glyph-name="greater" unicode="&#x3e;" horiz-adv-x="1706" d="M264 1145 L1442 662 L1442 559 L264 76 L264 205 L1264 610 L264 1018 L264 1145 Z " />
<glyph glyph-name="question" unicode="&#x3f;" horiz-adv-x="920" d="M82 61 Q82 100 108 127 Q134 154 172 154 Q210 154 236 127 Q262 100 262 61 Q262 23 236 -3 Q210 -29 172 -29 Q134 -29 108 -2.5 Q82 24 82 61 Z M281 373 L250 383 L332 631 Q351 691 370.5 735 Q390 779 410 805 Q448 855 525 882 Q538 886 545 889 Q699 948 772.5 1015.5 Q846 1083 846 1165 Q846 1245 780 1299.5 Q714 1354 614 1354 Q531 1354 469.5 1317.5 Q408 1281 408 1235 Q408 1208 441 1195 Q455 1190 463 1186 Q487 1173 497.5 1155.5 Q508 1138 508 1112 Q508 1078 487.5 1057 Q467 1036 432 1036 Q389 1036 363.5 1066.5 Q338 1097 338 1149 Q338 1249 415 1316.5 Q492 1384 606 1384 Q742 1384 820.5 1303.5 Q899 1223 899 1085 Q899 972 824 880 Q749 788 600 719 Q583 711 544 696 Q433 652 383 604 Q347 570 322 497 Q319 488 318 484 L281 373 Z " />
<glyph glyph-name="at" unicode="&#x40;" horiz-adv-x="2019" d="M1190 336 Q1128 230 1051 177.5 Q974 125 881 125 Q756 125 680 217 Q604 309 604 461 Q604 569 653 677 Q702 785 791 870 Q856 934 935 970 Q1014 1006 1090 1006 Q1177 1006 1233 956.5 Q1289 907 1311 811 L1364 991 L1507 991 L1337 381 Q1337 379 1336 376 Q1319 317 1319 272 Q1319 225 1344.5 197.5 Q1370 170 1413 170 Q1447 170 1492 187.5 Q1537 205 1577 236 Q1699 326 1764 467 Q1829 608 1829 782 Q1829 922 1779 1034 Q1729 1146 1626 1237 Q1536 1316 1410 1359.5 Q1284 1403 1143 1403 Q956 1403 801.5 1344.5 Q647 1286 526 1169 Q396 1043 329 875.5 Q262 708 262 506 Q262 331 319 201.5 Q376 72 500 -33 Q614 -130 761 -179.5 Q908 -229 1081 -229 Q1244 -229 1398.5 -177 Q1553 -125 1694 -23 L1724 -59 Q1576 -169 1411 -225 Q1246 -281 1069 -281 Q882 -281 727 -234.5 Q572 -188 453 -96 Q302 17 223.5 178.5 Q145 340 145 537 Q145 741 231 918 Q317 1095 481 1231 Q612 1341 772 1396.5 Q932 1452 1116 1452 Q1463 1452 1669.5 1265 Q1876 1078 1876 766 Q1876 609 1818 469 Q1760 329 1655 233 Q1598 181 1531.5 153 Q1465 125 1397 125 Q1300 125 1248 177.5 Q1196 230 1190 336 Z M1098 965 Q1044 965 999 934 Q954 903 907 834 Q835 726 792.5 600 Q750 474 750 375 Q750 282 790.5 228 Q831 174 899 174 Q965 174 1025 218.5 Q1085 263 1141 352 Q1198 446 1232 554.5 Q1266 663 1266 752 Q1266 845 1218.5 905 Q1171 965 1098 965 Z " />
<glyph glyph-name="A" unicode="A" horiz-adv-x="971" d="M215 516 L565 516 L565 1077 L215 516 Z M-240 0 L-240 29 Q-177 29 -138.5 52.5 Q-100 76 -45 164 L719 1384 L750 1384 L750 29 L874 29 L874 0 L403 0 L403 29 L565 29 L565 487 L199 487 L-20 143 Q-37 117 -43 101.5 Q-49 86 -49 74 Q-49 52 -21.5 42 Q6 32 82 28 L82 0 L-240 0 Z " />
<glyph glyph-name="B" unicode="B" horiz-adv-x="1214" d="M385 684 L203 29 L408 29 Q523 29 590.5 50 Q658 71 711 121 Q768 177 806 274.5 Q844 372 844 467 Q844 575 778 629.5 Q712 684 582 684 L385 684 Z M563 1327 L393 713 L535 713 Q672 713 739 737.5 Q806 762 854 823 Q902 885 930 973 Q958 1061 958 1149 Q958 1246 893 1288.5 Q828 1331 676 1331 Q644 1331 575 1328 Q567 1327 563 1327 Z M-147 0 L-141 29 L12 29 L373 1327 L219 1327 L227 1356 L791 1356 Q958 1356 1057.5 1281.5 Q1157 1207 1157 1083 Q1157 944 1038 838 Q919 732 721 698 Q875 685 959.5 610.5 Q1044 536 1044 414 Q1044 240 880 120 Q716 0 473 0 L-147 0 Z " />
<glyph glyph-name="C" unicode="C" horiz-adv-x="1270" d="M1104 332 Q1003 152 866 62.5 Q729 -27 557 -27 Q341 -27 198 135.5 Q55 298 55 547 Q55 716 119 866.5 Q183 1017 309 1147 Q424 1265 550.5 1325.5 Q677 1386 807 1386 Q867 1386 918 1375.5 Q969 1365 1012 1343 Q1037 1331 1089.5 1296.5 Q1142 1262 1169 1262 Q1200 1262 1213.5 1274.5 Q1227 1287 1237 1325 L1268 1325 L1169 858 L1139 858 Q1149 903 1154 937.5 Q1159 972 1159 1001 Q1159 1157 1065 1254.5 Q971 1352 823 1352 Q696 1352 601 1275 Q506 1198 418 1024 Q338 868 294 695.5 Q250 523 250 369 Q250 204 341 106 Q432 8 586 8 Q724 8 855 99.5 Q986 191 1071 348 L1104 332 Z " />
<glyph glyph-name="D" unicode="D" horiz-adv-x="1337" d="M209 29 L430 29 Q596 29 714.5 97.5 Q833 166 909 307 Q989 453 1037 638.5 Q1085 824 1085 987 Q1085 1165 997 1246 Q909 1327 717 1327 L563 1327 L209 29 Z M-147 0 L-141 29 L12 29 L373 1327 L219 1327 L227 1356 L741 1356 Q884 1356 976 1322 Q1068 1288 1137 1212 Q1206 1135 1242 1035 Q1278 935 1278 819 Q1278 664 1219.5 516 Q1161 368 1051 246 Q933 117 796.5 58.5 Q660 0 473 0 L-147 0 Z " />
<glyph glyph-name="E" unicode="E" horiz-adv-x="1165" d="M-145 0 L-137 29 L16 29 L377 1327 L223 1327 L231 1356 L1182 1356 L1114 987 L1083 987 Q1084 989 1084 993 Q1087 1035 1087 1057 Q1087 1190 1025 1258.5 Q963 1327 842 1327 L567 1327 L406 752 L522 752 Q637 752 678.5 790 Q720 828 754 958 L784 958 L645 449 L616 449 Q634 519 642.5 560 Q651 601 651 618 Q651 667 615 695 Q579 723 516 723 L395 723 L207 29 L537 29 Q697 29 811.5 133 Q926 237 963 416 L991 416 L907 0 L-145 0 Z " />
<glyph glyph-name="F" unicode="F" horiz-adv-x="1075" d="M-145 0 L-137 29 L16 29 L377 1327 L223 1327 L231 1356 L1161 1356 L1114 987 L1083 987 Q1084 989 1084 993 Q1087 1035 1087 1057 Q1087 1190 1025 1258.5 Q963 1327 842 1327 L567 1327 L406 752 L522 752 Q637 752 678.5 790 Q720 828 754 958 L784 958 L645 449 L616 449 Q634 519 642.5 560 Q651 601 651 618 Q651 667 615 695 Q579 723 516 723 L395 723 L207 29 L373 29 L365 0 L-145 0 Z " />
<glyph glyph-name="G" unicode="G" horiz-adv-x="1309" d="M1126 465 L1059 215 Q1052 189 996.5 136 Q941 83 870 45 Q805 9 729 -10 Q653 -29 575 -29 Q361 -29 210 135 Q59 299 59 530 Q59 685 118 831.5 Q177 978 289 1104 Q410 1239 552.5 1311.5 Q695 1384 838 1384 Q919 1384 985 1363.5 Q1051 1343 1119 1296 Q1135 1285 1165 1261 Q1225 1212 1260 1212 Q1277 1212 1291 1226.5 Q1305 1241 1317 1272 L1343 1268 L1212 793 L1186 801 Q1193 839 1196.5 880.5 Q1200 922 1200 973 Q1200 1154 1109 1255 Q1018 1356 854 1356 Q717 1356 623 1284 Q529 1212 438 1034 Q341 842 286 661 Q231 480 231 360 Q231 185 320.5 94.5 Q410 4 582 4 Q690 4 760.5 60 Q831 116 862 227 L926 465 L784 465 L793 494 L1274 494 L1274 465 L1126 465 Z " />
<glyph glyph-name="H" unicode="H" horiz-adv-x="1460" d="M-147 0 L-141 29 L12 29 L373 1327 L219 1327 L227 1356 L739 1356 L731 1327 L563 1327 L395 721 L1087 721 L1255 1327 L1085 1327 L1094 1356 L1606 1356 L1597 1327 L1448 1327 L1087 29 L1237 29 L1231 0 L719 0 L725 29 L895 29 L1079 692 L389 692 L205 29 L371 29 L365 0 L-147 0 Z " />
<glyph glyph-name="I" unicode="I" horiz-adv-x="578" d="M-147 0 L-141 29 L12 29 L373 1327 L219 1327 L227 1356 L739 1356 L731 1327 L563 1327 L205 29 L371 29 L365 0 L-147 0 Z " />
<glyph glyph-name="J" unicode="J" horiz-adv-x="750" d="M436 330 Q371 94 257 -23.5 Q143 -141 -23 -141 Q-103 -141 -153 -91.5 Q-203 -42 -203 39 Q-203 106 -164.5 150.5 Q-126 195 -68 195 Q-18 195 14.5 161.5 Q47 128 47 78 Q47 29 17 -2 Q-13 -33 -59 -33 Q-72 -33 -89 -31 Q-106 -29 -109 -29 Q-117 -29 -123 -35 Q-129 -41 -129 -49 Q-129 -71 -92 -87.5 Q-55 -104 -2 -104 Q66 -104 107 -59.5 Q148 -15 186 121 L522 1327 L369 1327 L377 1356 L889 1356 L881 1327 L713 1327 L436 330 Z " />
<glyph glyph-name="K" unicode="K" horiz-adv-x="1151" d="M-147 0 L-141 29 L12 29 L373 1327 L219 1327 L227 1356 L739 1356 L731 1327 L565 1327 L387 686 L1071 1251 Q1087 1264 1093.5 1271.5 Q1100 1279 1100 1286 Q1100 1305 1067 1316 Q1034 1327 975 1327 L948 1327 L956 1356 L1372 1356 L1363 1327 Q1283 1325 1200.5 1287 Q1118 1249 1024 1171 L526 760 L999 29 L1112 29 L1104 0 L606 0 L614 29 L774 29 L379 655 L205 29 L371 29 L365 0 L-147 0 Z " />
<glyph glyph-name="L" unicode="L" horiz-adv-x="1165" d="M-166 0 L-160 29 L-6 29 L354 1327 L201 1327 L209 1356 L721 1356 L713 1327 L547 1327 L186 29 L483 29 Q679 29 825 155 Q971 281 1032 504 L1063 504 L909 0 L-166 0 Z " />
<glyph glyph-name="M" unicode="M" horiz-adv-x="1485" d="M-178 0 L-169 29 Q-83 30 -46.5 57.5 Q-10 85 20 193 L338 1327 L160 1327 L166 1356 L535 1356 L592 279 L1313 1356 L1645 1356 L1636 1327 L1485 1327 L1124 29 L1290 29 L1290 0 L766 0 L774 29 L934 29 L1278 1249 L451 0 L422 0 L360 1274 L47 160 Q43 145 41 131 Q39 117 39 104 Q39 65 72 47.5 Q105 30 184 28 L174 0 L-178 0 Z " />
<glyph glyph-name="N" unicode="N" horiz-adv-x="1251" d="M-178 0 L-178 29 Q-86 29 -48 56 Q-10 83 20 193 L338 1327 L162 1327 L170 1356 L535 1356 L940 236 L1212 1202 Q1213 1204 1214 1208 Q1221 1239 1221 1255 Q1221 1293 1190.5 1309.5 Q1160 1326 1078 1331 L1083 1356 L1432 1356 L1423 1333 Q1341 1327 1306 1304.5 Q1271 1282 1245 1192 L915 16 L836 -16 L360 1274 L47 160 Q43 145 41 131 Q39 117 39 104 Q39 66 69.5 49 Q100 32 174 28 L174 0 L-178 0 Z " />
<glyph glyph-name="O" unicode="O" horiz-adv-x="1346" d="M795 1360 Q691 1360 605.5 1303.5 Q520 1247 461 1139 Q415 1059 376.5 958 Q338 857 305 733 Q273 614 256.5 512.5 Q240 411 240 332 Q240 170 321 83 Q402 -4 553 -4 Q657 -4 741 51.5 Q825 107 887 217 Q930 292 968.5 393.5 Q1007 495 1042 623 Q1075 741 1091.5 842.5 Q1108 944 1108 1022 Q1108 1185 1027 1272.5 Q946 1360 795 1360 Z M549 -29 Q330 -29 192.5 125 Q55 279 55 526 Q55 671 108 816.5 Q161 962 258 1083 Q376 1232 512.5 1308 Q649 1384 797 1384 Q1015 1384 1152.5 1230.5 Q1290 1077 1290 831 Q1290 684 1238 539.5 Q1186 395 1087 272 Q970 124 833 47.5 Q696 -29 549 -29 Z " />
<glyph glyph-name="P" unicode="P" horiz-adv-x="1090" d="M-156 0 L-147 29 L6 29 L365 1327 L213 1327 L219 1356 L711 1356 Q903 1356 1008.5 1274 Q1114 1192 1114 1042 Q1114 970 1082 899 Q1050 828 993 774 Q916 699 819 668 Q722 637 526 637 L367 637 L197 29 L365 29 L356 0 L-156 0 Z M557 1327 L375 666 L522 666 Q634 666 689.5 690 Q745 714 793 774 Q844 838 874.5 933.5 Q905 1029 905 1126 Q905 1236 842.5 1282.5 Q780 1329 631 1329 Q600 1329 585 1328.5 Q570 1328 557 1327 Z " />
<glyph glyph-name="Q" unicode="Q" horiz-adv-x="1346" d="M438 -16 Q257 31 157 172.5 Q57 314 57 524 Q57 674 109 818 Q161 962 258 1083 Q376 1231 513 1307.5 Q650 1384 797 1384 Q1015 1384 1152.5 1230.5 Q1290 1077 1290 831 Q1290 688 1240.5 546.5 Q1191 405 1098 283 Q1001 157 887.5 82 Q774 7 637 -20 Q613 -91 601.5 -146 Q590 -201 590 -240 Q590 -322 646 -354.5 Q702 -387 852 -387 L891 -387 L891 -416 Q887 -416 880 -416 Q822 -420 795 -420 Q614 -420 507.5 -360.5 Q401 -301 401 -203 Q401 -185 408 -149.5 Q415 -114 438 -16 Z M795 1360 Q691 1360 605.5 1303.5 Q520 1247 461 1139 Q415 1059 376.5 958 Q338 857 305 733 Q273 614 256.5 512.5 Q240 411 240 332 Q240 170 321 83 Q402 -4 553 -4 Q657 -4 741 51.5 Q825 107 887 217 Q930 292 968.5 393.5 Q1007 495 1042 623 Q1075 741 1091.5 842.5 Q1108 944 1108 1022 Q1108 1185 1027 1272.5 Q946 1360 795 1360 Z " />
<glyph glyph-name="R" unicode="R" horiz-adv-x="1067" d="M-193 0 L-184 29 L-33 29 L328 1327 L176 1327 L182 1356 L739 1356 Q881 1356 967 1281.5 Q1053 1207 1053 1085 Q1053 944 934 839 Q815 734 618 705 Q725 677 778 613.5 Q831 550 831 451 Q831 373 800.5 255 Q770 137 770 96 Q770 65 784.5 48 Q799 31 825 31 Q853 31 886 54.5 Q919 78 950 121 L977 102 Q929 41 886.5 15.5 Q844 -10 793 -10 Q706 -10 656 43 Q606 96 606 188 Q606 264 636 395 Q666 526 666 578 Q666 636 628 665 Q590 694 514 694 L344 694 L160 29 L328 29 L319 0 L-193 0 Z M520 1327 L352 723 L518 723 Q606 723 672.5 759.5 Q739 796 782 866 Q820 928 845 1015.5 Q870 1103 870 1169 Q870 1255 810.5 1293 Q751 1331 616 1331 Q588 1331 532 1328 Q524 1327 520 1327 Z " />
<glyph glyph-name="S" unicode="S" horiz-adv-x="1006" d="M98 483 Q89 443 84.5 407 Q80 371 80 338 Q80 192 175.5 99 Q271 6 418 6 Q556 6 653 104.5 Q750 203 750 344 Q750 497 506 617 L485 627 Q338 700 280.5 776.5 Q223 853 223 969 Q223 1143 334.5 1263.5 Q446 1384 606 1384 Q667 1384 716.5 1373 Q766 1362 807 1339 Q818 1333 836 1322 Q895 1286 918 1286 Q937 1286 949.5 1297 Q962 1308 981 1346 L1010 1339 L897 938 L870 946 Q879 985 883 1015.5 Q887 1046 887 1071 Q887 1201 813 1277.5 Q739 1354 614 1354 Q485 1354 398 1273 Q311 1192 311 1073 Q311 943 585 814 Q626 795 647 784 Q766 727 821.5 647 Q877 567 877 453 Q877 253 740 112 Q603 -29 408 -29 Q302 -29 182 28.5 Q62 86 45 86 Q18 86 -2.5 63 Q-23 40 -35 -4 L-63 4 L70 487 L98 483 Z " />
<glyph glyph-name="T" unicode="T" horiz-adv-x="1331" d="M221 0 L229 29 L383 29 L741 1327 L590 1327 Q441 1327 333 1222 Q225 1117 162 909 L133 909 L256 1356 L1427 1356 L1305 909 L1270 909 Q1287 975 1295 1025 Q1303 1075 1303 1114 Q1303 1225 1239.5 1276 Q1176 1327 1036 1327 L934 1327 L573 29 L741 29 L733 0 L221 0 Z " />
<glyph glyph-name="U" unicode="U" horiz-adv-x="1262" d="M305 1327 L154 1327 L160 1356 L672 1356 L666 1327 L498 1327 L248 428 Q232 372 224.5 325 Q217 278 217 236 Q217 130 294 68 Q371 6 502 6 Q711 6 828 97.5 Q945 189 1004 399 L1227 1206 Q1233 1226 1236 1240 Q1239 1254 1239 1262 Q1239 1300 1214.5 1313.5 Q1190 1327 1110 1327 L1071 1327 L1081 1356 L1454 1356 L1446 1327 Q1357 1327 1321.5 1304.5 Q1286 1282 1262 1194 L1055 449 Q981 178 855 74.5 Q729 -29 487 -29 Q286 -29 160.5 59 Q35 147 35 285 Q35 314 42.5 358.5 Q50 403 66 461 L305 1327 Z " />
<glyph glyph-name="V" unicode="V" horiz-adv-x="930" d="M104 -14 L315 1327 L174 1327 L182 1356 L672 1356 L664 1327 L500 1327 L344 336 L952 1200 Q974 1230 983.5 1251.5 Q993 1273 993 1290 Q993 1309 971 1319 Q949 1329 907 1329 Q902 1329 890.5 1328 Q879 1327 872 1327 L881 1356 L1155 1356 L1146 1327 Q1077 1325 1030 1257 Q1022 1245 1018 1239 L129 -14 L104 -14 Z " />
<glyph glyph-name="W" unicode="W" horiz-adv-x="1489" d="M111 -14 L319 1327 L176 1327 L184 1356 L674 1356 L666 1327 L502 1327 L348 338 L821 1006 L870 1327 L741 1327 L750 1356 L1227 1356 L1219 1327 L1053 1327 L899 338 L1507 1200 Q1529 1230 1538.5 1251.5 Q1548 1273 1548 1290 Q1548 1309 1525.5 1319 Q1503 1329 1460 1329 Q1455 1329 1444.5 1328 Q1434 1327 1427 1327 L1436 1356 L1708 1356 L1699 1327 Q1630 1325 1578 1251 Q1573 1244 1571 1241 L690 -14 L662 -14 L811 944 L139 -14 L111 -14 Z " />
<glyph glyph-name="X" unicode="X" horiz-adv-x="1042" d="M479 625 L123 158 Q105 135 97.5 118 Q90 101 90 86 Q90 59 115 45.5 Q140 32 198 29 L199 0 L-160 0 L-160 29 Q-15 31 93 172 L103 185 L471 664 L285 1327 L106 1327 L106 1356 L618 1356 L618 1327 L477 1327 L608 844 L868 1180 Q893 1211 905.5 1234 Q918 1257 918 1274 Q918 1300 890 1314.5 Q862 1329 811 1329 Q806 1329 795.5 1328 Q785 1327 778 1327 L778 1356 L1118 1356 L1118 1327 Q1068 1326 1032.5 1307.5 Q997 1289 958 1239 L621 805 L838 29 L991 29 L991 0 L479 0 L479 29 L645 29 L479 625 Z " />
<glyph glyph-name="Y" unicode="Y" horiz-adv-x="883" d="M-47 0 L-39 29 L117 29 L268 571 L207 1327 L72 1327 L72 1356 L553 1356 L553 1327 L389 1327 L449 614 L877 1206 Q898 1237 909 1257 Q920 1277 920 1286 Q920 1309 900.5 1319 Q881 1329 834 1329 Q827 1329 810.5 1328 Q794 1327 784 1327 L793 1356 L1081 1356 L1075 1327 Q1002 1327 950 1255 Q945 1247 942 1243 L449 557 L313 29 L481 29 L475 0 L-47 0 Z " />
<glyph glyph-name="Z" unicode="Z" horiz-adv-x="1133" d="M-121 0 L934 1327 L639 1327 Q440 1327 332.5 1249.5 Q225 1172 139 973 L111 973 L215 1356 L1182 1356 L135 29 L516 29 Q703 29 810 113.5 Q917 198 1004 414 L1032 414 L918 0 L-121 0 Z " />
<glyph glyph-name="bracketleft" unicode="&#x5b;" horiz-adv-x="664" d="M344 -436 L-100 -436 L397 1356 L840 1356 L831 1325 L526 1325 L47 -406 L352 -406 L344 -436 Z " />
<glyph glyph-name="backslash" unicode="&#x5c;" horiz-adv-x="569" d="M352 -190 L305 -190 L221 1384 L268 1384 L352 -190 Z " />
<glyph glyph-name="bracketright" unicode="&#x5d;" horiz-adv-x="664" d="M199 1356 L643 1356 L145 -436 L-297 -436 L-289 -406 L16 -406 L496 1325 L190 1325 L199 1356 Z " />
<glyph glyph-name="asciicircum" unicode="&#x5e;" horiz-adv-x="2048" d="M934 1462 L1112 1462 L1632 897 L1540 897 L1022 1333 L502 897 L412 897 L934 1462 Z " />
<glyph glyph-name="underscore" unicode="&#x5f;" horiz-adv-x="1024" d="M0 -365 L1024 -365 L1024 -483 L0 -483 L0 -365 Z " />
<glyph glyph-name="grave" unicode="&#x60;" horiz-adv-x="1024" d="M727 952 L659 952 L416 1155 Q384 1181 372 1200 Q360 1219 360 1241 Q360 1269 380.5 1290 Q401 1311 428 1311 Q449 1311 472 1295.5 Q495 1280 514 1253 L727 952 Z " />
<glyph glyph-name="a" unicode="a" horiz-adv-x="963" d="M622 546 Q628 567 630.5 586.5 Q633 606 633 623 Q633 702 589 753.5 Q545 805 477 805 Q400 805 336.5 755.5 Q273 706 221 606 Q175 518 147 408.5 Q119 299 119 209 Q119 114 156 62 Q193 10 262 10 Q352 10 431 84 Q510 158 545 279 L622 546 Z M676 182 Q665 146 659 118.5 Q653 91 653 78 Q653 54 666 37 Q679 20 696 20 Q727 20 776 68 Q825 116 879 199 L903 182 Q825 64 767.5 19.5 Q710 -25 641 -25 Q586 -25 551.5 8.5 Q517 42 502 111 Q442 45 380 12.5 Q318 -20 252 -20 Q127 -20 49 71 Q-29 162 -29 311 Q-29 402 -3 484.5 Q23 567 72 633 Q142 729 241.5 784.5 Q341 840 442 840 Q533 840 587.5 796 Q642 752 655 668 L700 815 L856 815 L676 182 Z " />
<glyph glyph-name="b" unicode="b" horiz-adv-x="924" d="M532 805 Q453 805 381 743.5 Q309 682 240 555 Q189 461 160 360.5 Q131 260 131 182 Q131 106 181 58 Q231 10 307 10 Q372 10 435.5 57 Q499 104 539 182 Q604 311 642 438.5 Q680 566 680 645 Q680 726 643.5 765.5 Q607 805 532 805 Z M270 1327 L147 1327 L156 1356 L205 1356 Q275 1356 336.5 1368.5 Q398 1381 455 1407 L238 623 Q310 732 387.5 783 Q465 834 557 834 Q674 834 746.5 753.5 Q819 673 819 543 Q819 436 782 343.5 Q745 251 668 164 Q588 75 496.5 30.5 Q405 -14 303 -14 Q164 -14 76 61 Q-12 136 -12 252 Q-12 279 -8.5 306.5 Q-5 334 2 363 L270 1327 Z " />
<glyph glyph-name="c" unicode="c" horiz-adv-x="735" d="M625 287 Q562 139 469 58 Q376 -23 270 -23 Q155 -23 74.5 68 Q-6 159 -6 291 Q-6 395 35 496 Q76 597 154 682 Q227 761 305.5 800.5 Q384 840 471 840 Q561 840 614.5 801 Q668 762 668 698 Q668 657 640 630.5 Q612 604 569 604 Q533 604 506 631 Q479 658 479 694 Q479 753 519 790 Q524 795 524 797 Q524 803 510 807 Q496 811 471 811 Q415 811 368 775.5 Q321 740 285 670 Q261 625 240.5 570 Q220 515 203 449 Q179 357 166.5 283.5 Q154 210 154 164 Q154 93 186 55.5 Q218 18 279 18 Q371 18 451 90 Q531 162 596 303 L625 287 Z " />
<glyph glyph-name="d" unicode="d" horiz-adv-x="963" d="M860 1327 L739 1327 L748 1356 L797 1356 Q866 1356 927.5 1369 Q989 1382 1044 1409 L682 180 Q671 144 665 116.5 Q659 89 659 76 Q659 52 672 35 Q685 18 702 18 Q733 18 782 66.5 Q831 115 885 199 L909 180 Q833 64 774.5 18.5 Q716 -27 647 -27 Q592 -27 557.5 7 Q523 41 508 111 Q448 42 386 8.5 Q324 -25 258 -25 Q133 -25 55 67.5 Q-23 160 -23 311 Q-23 402 3 484.5 Q29 567 78 633 Q150 731 249 786.5 Q348 842 449 842 Q539 842 593.5 798 Q648 754 662 670 L860 1327 Z M629 551 Q634 572 636.5 590.5 Q639 609 639 625 Q639 705 595 757 Q551 809 483 809 Q407 809 343.5 759.5 Q280 710 227 610 Q181 522 153 412.5 Q125 303 125 213 Q125 118 162.5 66 Q200 14 268 14 Q358 14 437.5 88 Q517 162 551 283 L629 551 Z " />
<glyph glyph-name="e" unicode="e" horiz-adv-x="711" d="M172 440 Q149 346 138 282 Q127 218 127 176 Q127 100 167 56 Q207 12 276 12 Q352 12 423.5 66.5 Q495 121 557 225 L582 211 Q516 97 433.5 38.5 Q351 -20 256 -20 Q137 -20 59.5 74 Q-18 168 -18 313 Q-18 399 22 491.5 Q62 584 135 668 Q207 750 288.5 795 Q370 840 446 840 Q534 840 585.5 792 Q637 744 637 664 Q637 562 546 489 Q455 416 328 416 Q295 416 255.5 422 Q216 428 172 440 Z M178 471 Q211 460 243 454.5 Q275 449 303 449 Q392 449 451 523 Q510 597 510 711 Q510 759 488 785 Q466 811 424 811 Q351 811 287 723 Q223 635 178 471 Z " />
<glyph glyph-name="f" unicode="f" horiz-adv-x="502" d="M186 786 L8 786 L16 815 L197 815 Q275 1094 404 1249.5 Q533 1405 684 1405 Q753 1405 793.5 1372.5 Q834 1340 834 1286 Q834 1247 807.5 1219.5 Q781 1192 743 1192 Q700 1192 671.5 1218 Q643 1244 643 1282 Q643 1300 656.5 1324 Q670 1348 670 1354 Q670 1359 659.5 1365.5 Q649 1372 637 1372 Q570 1372 499 1233.5 Q428 1095 352 815 L551 815 L543 786 L346 786 Q189 83 47 -212.5 Q-95 -508 -268 -508 Q-333 -508 -374.5 -473.5 Q-416 -439 -416 -385 Q-416 -343 -390.5 -314 Q-365 -285 -330 -285 Q-289 -285 -262.5 -311.5 Q-236 -338 -236 -379 Q-236 -398 -248 -419 Q-260 -440 -260 -442 Q-260 -451 -250.5 -459 Q-241 -467 -229 -467 Q-173 -467 -118 -373.5 Q-63 -280 -27 -117 Q-10 -43 24 114 Q116 542 186 786 Z " />
<glyph glyph-name="g" unicode="g" horiz-adv-x="895" d="M492 -31 L145 -31 Q71 -54 25.5 -115 Q-20 -176 -20 -252 Q-20 -355 58 -416 Q136 -477 266 -477 Q333 -477 400.5 -451 Q468 -425 530 -375 Q589 -327 624 -266 Q659 -205 659 -152 Q659 -90 618.5 -60.5 Q578 -31 492 -31 Z M98 -27 Q47 -15 18.5 20.5 Q-10 56 -10 106 Q-10 175 42 225.5 Q94 276 186 295 Q129 348 102.5 398 Q76 448 76 504 Q76 628 188 734 Q300 840 436 840 Q515 840 570.5 809.5 Q626 779 664 715 Q699 778 738.5 809 Q778 840 823 840 Q872 840 897 818 Q922 796 922 754 Q922 717 900.5 692.5 Q879 668 848 668 Q814 668 792 688.5 Q770 709 770 739 Q770 741 771 751.5 Q772 762 772 770 Q772 773 767.5 775.5 Q763 778 756 778 Q740 778 722.5 757.5 Q705 737 678 686 Q686 656 690 630.5 Q694 605 694 582 Q694 450 594.5 353 Q495 256 360 256 Q335 256 301.5 261.5 Q268 267 222 278 Q151 273 104 240 Q57 207 57 166 Q57 137 82.5 123 Q108 109 158 109 L487 113 L494 113 Q605 113 662 64.5 Q719 16 719 -80 Q719 -253 573.5 -382.5 Q428 -512 223 -512 Q67 -512 -24 -447 Q-115 -382 -115 -274 Q-115 -188 -59.5 -124 Q-4 -60 98 -27 Z M442 815 Q401 815 365.5 795.5 Q330 776 311 743 Q295 714 285.5 694 Q276 674 272 659 Q237 542 222 482.5 Q207 423 207 403 Q207 343 242.5 313 Q278 283 348 283 Q396 283 429 307.5 Q462 332 485 387 Q523 474 547 570 Q571 666 571 709 Q571 756 535.5 785.5 Q500 815 442 815 Z " />
<glyph glyph-name="h" unicode="h" horiz-adv-x="1014" d="M700 182 Q689 147 683.5 122 Q678 97 678 82 Q678 56 690.5 38 Q703 20 721 20 Q752 20 801 68 Q850 116 903 199 L928 180 Q852 64 795.5 19.5 Q739 -25 672 -25 Q609 -25 574 13 Q539 51 539 119 Q539 141 543.5 166.5 Q548 192 557 221 L692 653 Q701 682 706 704 Q711 726 711 739 Q711 770 693 786.5 Q675 803 641 803 Q602 803 549.5 778.5 Q497 754 440 709 Q360 645 304 564.5 Q248 484 219 389 L100 0 L-57 0 L350 1327 L229 1327 L238 1356 L287 1356 Q356 1356 417 1368.5 Q478 1381 535 1407 L281 586 Q380 713 478.5 776.5 Q577 840 674 840 Q754 840 801 797.5 Q848 755 848 682 Q848 662 842.5 635.5 Q837 609 823 563 L700 182 Z " />
<glyph glyph-name="i" unicode="i" horiz-adv-x="508" d="M199 786 L76 786 L84 815 L164 815 Q235 815 282.5 821 Q330 827 373 840 L178 195 Q167 161 161.5 133 Q156 105 156 88 Q156 61 169.5 47 Q183 33 209 33 Q244 33 288 66.5 Q332 100 416 195 L436 178 Q350 73 281 26.5 Q212 -20 143 -20 Q80 -20 43 16 Q6 52 6 115 Q6 138 12.5 169.5 Q19 201 39 264 L199 786 Z M352 1272 Q352 1323 383 1361 Q414 1399 455 1399 Q486 1399 508 1372.5 Q530 1346 530 1307 Q530 1255 500 1219.5 Q470 1184 428 1184 Q396 1184 374 1209 Q352 1234 352 1272 Z " />
<glyph glyph-name="j" unicode="j" horiz-adv-x="446" d="M186 786 L63 786 L72 815 L150 815 Q221 815 269.5 821 Q318 827 360 840 L158 160 Q60 -169 -56.5 -331.5 Q-173 -494 -311 -494 Q-375 -494 -414 -460.5 Q-453 -427 -453 -373 Q-453 -328 -428.5 -301 Q-404 -274 -362 -274 Q-325 -274 -302 -298 Q-279 -322 -279 -360 Q-279 -387 -291 -409 Q-303 -431 -303 -434 Q-303 -443 -296.5 -448 Q-290 -453 -279 -453 Q-235 -453 -196 -399.5 Q-157 -346 -125 -244 L186 786 Z M340 1272 Q340 1323 371 1361 Q402 1399 442 1399 Q474 1399 496 1372.5 Q518 1346 518 1307 Q518 1255 488 1219.5 Q458 1184 416 1184 Q384 1184 362 1209 Q340 1234 340 1272 Z " />
<glyph glyph-name="k" unicode="k" horiz-adv-x="915" d="M94 0 L-63 0 L367 1327 L246 1327 L254 1356 L303 1356 Q372 1356 433 1368.5 Q494 1381 551 1407 L256 532 L270 532 Q348 532 401 565.5 Q454 599 494 672 Q503 690 522 724 Q607 887 688 887 Q740 887 773.5 858.5 Q807 830 807 786 Q807 751 782 726.5 Q757 702 721 702 Q692 702 674 718 Q656 734 647 768 Q641 792 634.5 800.5 Q628 809 618 809 Q591 809 548 722 Q533 693 524 676 Q476 586 438.5 553.5 Q401 521 346 514 Q449 499 495.5 449.5 Q542 400 553 291 L567 154 Q576 83 586.5 66 Q597 49 621 49 Q657 49 698 106.5 Q739 164 770 262 L797 256 Q764 124 699 53 Q634 -18 547 -18 Q503 -18 474.5 0.5 Q446 19 428 59 Q407 108 402 251 Q400 312 397 346 Q391 436 358.5 470 Q326 504 250 506 L94 0 Z " />
<glyph glyph-name="l" unicode="l" horiz-adv-x="537" d="M395 1327 L274 1327 L283 1356 L332 1356 Q401 1356 462 1368.5 Q523 1381 580 1407 L178 180 Q168 148 162 123.5 Q156 99 156 88 Q156 67 170.5 52 Q185 37 207 37 Q244 37 299 80 Q354 123 418 203 L444 184 Q365 81 296.5 33.5 Q228 -14 160 -14 Q89 -14 51.5 20 Q14 54 14 119 Q14 141 19.5 167.5 Q25 194 37 229 L395 1327 Z " />
<glyph glyph-name="m" unicode="m" horiz-adv-x="1417" d="M98 0 L-61 0 L182 786 L61 786 L70 815 L147 815 Q219 815 267.5 821 Q316 827 358 840 L276 580 Q381 715 466 777.5 Q551 840 629 840 Q697 840 736.5 800 Q776 760 776 690 Q776 662 772.5 634.5 Q769 607 762 580 Q866 715 951 777.5 Q1036 840 1114 840 Q1183 840 1222.5 800 Q1262 760 1262 690 Q1262 657 1255.5 621 Q1249 585 1237 545 L1106 117 Q1102 105 1100 93 Q1098 81 1098 72 Q1098 52 1111 38.5 Q1124 25 1143 25 Q1175 25 1222 70 Q1269 115 1323 199 L1346 182 Q1270 65 1213.5 20 Q1157 -25 1090 -25 Q1027 -25 994 10 Q961 45 961 111 Q961 143 968.5 181.5 Q976 220 997 289 L1100 623 Q1112 663 1119 693 Q1126 723 1126 735 Q1126 758 1115 773 Q1104 788 1087 788 Q1046 788 1001 765 Q956 742 905 694 Q826 620 778 546 Q730 472 705 385 L590 0 L428 0 L614 623 Q626 660 632.5 690 Q639 720 639 735 Q639 759 628.5 773.5 Q618 788 602 788 Q508 788 389 668 Q270 548 219 385 L98 0 Z " />
<glyph glyph-name="n" unicode="n" horiz-adv-x="1014" d="M700 182 L699 177 Q676 102 676 82 Q676 56 688.5 38 Q701 20 719 20 Q750 20 800 68 Q850 116 903 199 L928 180 Q853 66 795 20.5 Q737 -25 670 -25 Q607 -25 573 13 Q539 51 539 119 Q539 141 543.5 166 Q548 191 557 221 L684 619 Q686 625 690 637 Q711 705 711 739 Q711 770 693 786.5 Q675 803 641 803 Q602 803 549.5 778.5 Q497 754 440 709 Q360 645 304 564.5 Q248 484 219 389 L100 0 L-57 0 L182 786 L61 786 L70 815 L147 815 Q219 815 267.5 821 Q316 827 358 840 L281 586 Q380 713 478.5 776.5 Q577 840 674 840 Q754 840 801 797.5 Q848 755 848 682 Q848 661 842 632 Q836 603 823 563 L700 182 Z " />
<glyph glyph-name="o" unicode="o" horiz-adv-x="891" d="M295 -25 Q153 -25 66.5 69 Q-20 163 -20 317 Q-20 406 13 494 Q46 582 106 655 Q188 753 273.5 796.5 Q359 840 467 840 Q601 840 682.5 747.5 Q764 655 764 502 Q764 409 731.5 321.5 Q699 234 637 160 Q560 67 475 21 Q390 -25 295 -25 Z M457 815 Q388 815 336 768.5 Q284 722 236 616 Q183 506 152 386.5 Q121 267 121 188 Q121 98 164 50 Q207 2 289 2 Q355 2 408 49 Q461 96 510 199 Q561 306 592 426.5 Q623 547 623 633 Q623 725 582 770 Q541 815 457 815 Z " />
<glyph glyph-name="p" unicode="p" horiz-adv-x="977" d="M221 274 Q216 256 213.5 236.5 Q211 217 211 199 Q211 118 254.5 66 Q298 14 367 14 Q443 14 506.5 63.5 Q570 113 623 213 Q669 301 697 410.5 Q725 520 725 610 Q725 706 687.5 757.5 Q650 809 582 809 Q493 809 412 735 Q331 661 297 543 L221 274 Z M190 786 L70 786 L78 815 L156 815 Q227 815 274.5 821 Q322 827 365 840 L319 678 Q381 759 449.5 800.5 Q518 842 592 842 Q717 842 794.5 749.5 Q872 657 872 508 Q872 417 846.5 334.5 Q821 252 772 186 Q702 91 602.5 36.5 Q503 -18 401 -18 Q312 -18 258.5 25 Q205 68 186 154 L10 -465 L127 -465 L121 -494 L-266 -494 L-258 -465 L-145 -465 L190 786 Z " />
<glyph glyph-name="q" unicode="q" horiz-adv-x="963" d="M508 115 Q447 48 385 15 Q323 -18 258 -18 Q133 -18 55 74 Q-23 166 -23 315 Q-23 406 3 488.5 Q29 571 78 637 Q148 733 248 788.5 Q348 844 449 844 Q539 844 593.5 800 Q648 756 662 672 L694 786 L852 786 L504 -465 L616 -465 L608 -494 L223 -494 L229 -465 L346 -465 L508 115 Z M629 551 Q634 572 636.5 590.5 Q639 609 639 625 Q639 705 595 757 Q551 809 483 809 Q407 809 343.5 759.5 Q280 710 227 610 Q181 522 153 412.5 Q125 303 125 213 Q125 118 162.5 66 Q200 14 268 14 Q358 14 437.5 88 Q517 162 551 283 L629 551 Z " />
<glyph glyph-name="r" unicode="r" horiz-adv-x="664" d="M285 623 Q359 733 428 785.5 Q497 838 569 838 Q617 838 643.5 812.5 Q670 787 670 741 Q670 698 642.5 669.5 Q615 641 573 641 Q539 641 514 665 Q489 689 489 721 Q489 732 496.5 750.5 Q504 769 504 776 Q504 778 500 778 Q443 778 358 675 Q273 572 231 436 L98 0 L-61 0 L182 786 L61 786 L70 815 L147 815 Q219 815 267.5 821 Q316 827 358 840 L285 623 Z " />
<glyph glyph-name="s" unicode="s" horiz-adv-x="743" d="M391 176 Q391 253 276 348 Q263 359 257 364 Q178 430 153.5 473.5 Q129 517 129 571 Q129 682 214 761 Q299 840 422 840 Q524 840 590.5 797 Q657 754 657 690 Q657 649 630 621.5 Q603 594 561 594 Q519 594 491 620 Q463 646 463 684 Q463 732 523 767 Q532 773 532 774 Q532 787 503.5 799 Q475 811 436 811 Q355 811 303.5 766 Q252 721 252 651 Q252 583 389 480 Q411 463 422 455 Q502 393 526.5 348.5 Q551 304 551 242 Q551 134 447.5 55.5 Q344 -23 199 -23 Q84 -23 6 36 Q-72 95 -72 178 Q-72 228 -39.5 263.5 Q-7 299 37 299 Q82 299 110.5 273.5 Q139 248 139 209 Q139 184 121.5 161 Q104 138 74 123 Q59 116 33.5 109.5 Q8 103 8 96 Q8 76 65 44 Q122 12 186 12 Q275 12 333 59 Q391 106 391 176 Z " />
<glyph glyph-name="t" unicode="t" horiz-adv-x="578" d="M371 815 L578 815 L569 786 L365 786 L180 180 Q168 143 163 121 Q158 99 158 88 Q158 67 172.5 52 Q187 37 209 37 Q252 37 316.5 93.5 Q381 150 469 264 L496 244 Q386 99 311.5 42.5 Q237 -14 162 -14 Q91 -14 53.5 19.5 Q16 53 16 117 Q16 141 21.5 169 Q27 197 37 229 L207 786 L82 786 L90 815 L221 815 L293 1061 Q341 1064 384 1076 Q427 1088 465 1110 L371 815 Z " />
<glyph glyph-name="u" unicode="u" horiz-adv-x="948" d="M168 786 L47 786 L55 815 L133 815 Q205 815 253 821 Q301 827 344 840 L143 184 Q135 157 130 133 Q125 109 125 96 Q125 67 143.5 49 Q162 31 193 31 Q220 31 252.5 47.5 Q285 64 330 100 Q419 173 469.5 244.5 Q520 316 551 412 L680 815 L836 815 L637 186 Q625 148 618.5 120.5 Q612 93 612 80 Q612 59 625 43 Q638 27 655 27 Q687 27 735 73 Q783 119 838 203 L860 186 Q798 84 733.5 33 Q669 -18 604 -18 Q541 -18 506 19 Q471 56 471 123 Q471 143 475.5 168.5 Q480 194 489 225 Q400 106 308 44 Q216 -18 129 -18 Q60 -18 18.5 21 Q-23 60 -23 125 Q-23 143 -16 178 Q-9 213 2 250 L168 786 Z " />
<glyph glyph-name="v" unicode="v" horiz-adv-x="782" d="M182 786 L61 786 L70 815 L147 815 Q219 815 267.5 821 Q316 827 358 840 L158 184 Q149 157 144 132.5 Q139 108 139 94 Q139 64 158 45.5 Q177 27 207 27 Q247 27 307.5 68 Q368 109 432 180 Q516 276 572.5 392.5 Q629 509 629 573 Q629 613 581 642 Q570 648 565 651 Q534 672 519 694.5 Q504 717 504 743 Q504 783 529 811.5 Q554 840 590 840 Q642 840 670 803 Q698 766 698 698 Q698 595 649.5 471 Q601 347 514 231 Q422 108 325.5 41.5 Q229 -25 143 -25 Q76 -25 34 16 Q-8 57 -8 123 Q-8 142 -1.5 177.5 Q5 213 16 250 L182 786 Z " />
<glyph glyph-name="w" unicode="w" horiz-adv-x="1280" d="M166 786 L45 786 L51 815 L131 815 Q202 815 249.5 821 Q297 827 340 840 L137 184 Q129 157 124 132.5 Q119 108 119 94 Q119 64 137.5 45.5 Q156 27 186 27 Q213 27 245.5 43 Q278 59 324 96 Q408 166 471.5 254 Q535 342 557 416 L674 815 L829 815 L643 184 Q634 156 629.5 131.5 Q625 107 625 94 Q625 64 643.5 45.5 Q662 27 692 27 Q733 27 794 68 Q855 109 918 180 Q1002 276 1058 392.5 Q1114 509 1114 573 Q1114 613 1066 642 Q1056 648 1051 651 Q1020 671 1005.5 693.5 Q991 716 991 743 Q991 784 1015.5 812 Q1040 840 1075 840 Q1127 840 1155.5 803 Q1184 766 1184 698 Q1184 595 1135 471 Q1086 347 999 231 Q908 109 811.5 42 Q715 -25 631 -25 Q559 -25 518 14.5 Q477 54 477 123 Q477 138 483 170.5 Q489 203 500 244 Q400 111 305.5 43 Q211 -25 125 -25 Q54 -25 12.5 14.5 Q-29 54 -29 123 Q-29 142 -22 177.5 Q-15 213 -4 250 L166 786 Z " />
<glyph glyph-name="x" unicode="x" horiz-adv-x="1034" d="M63 600 L41 621 Q127 736 204 788 Q281 840 365 840 Q453 840 501.5 793.5 Q550 747 565 647 Q624 750 678.5 795 Q733 840 799 840 Q863 840 901.5 805 Q940 770 940 711 Q940 671 914.5 643.5 Q889 616 852 616 Q818 616 797 637 Q776 658 776 692 Q776 736 815 779 Q823 788 823 791 Q823 796 813 799.5 Q803 803 788 803 Q745 803 709 775.5 Q673 748 627 678 Q600 637 578 586 Q556 535 532 457 Q510 381 497.5 314.5 Q485 248 485 205 Q485 139 513 97 Q541 55 582 55 Q629 55 691.5 101 Q754 147 840 246 L864 225 Q776 108 674 41.5 Q572 -25 483 -25 Q407 -25 367.5 33.5 Q328 92 328 203 L328 225 Q264 104 193.5 40.5 Q123 -23 51 -23 Q-3 -23 -39.5 17 Q-76 57 -76 117 Q-76 169 -49 203.5 Q-22 238 18 238 Q50 238 72 214 Q94 190 94 156 Q94 97 35 53 Q23 44 23 41 Q23 33 36 24.5 Q49 16 63 16 Q112 16 164.5 57.5 Q217 99 262 174 Q288 216 310.5 269 Q333 322 354 391 Q378 472 392 545 Q406 618 406 662 Q406 720 380 757.5 Q354 795 315 795 Q264 795 203 748 Q142 701 63 600 Z " />
<glyph glyph-name="y" unicode="y" horiz-adv-x="924" d="M201 637 Q194 698 179.5 724 Q165 750 137 750 Q114 750 76 702.5 Q38 655 -6 569 L-37 582 Q25 713 88.5 775.5 Q152 838 223 838 Q281 838 314 802 Q347 766 354 694 L410 188 L631 612 Q690 726 745.5 783 Q801 840 850 840 Q894 840 922 813.5 Q950 787 950 745 Q950 704 926 677.5 Q902 651 864 651 Q828 651 806 670.5 Q784 690 784 721 Q784 732 790.5 748.5 Q797 765 797 770 Q797 772 795.5 774 Q794 776 793 776 Q776 776 734 719 Q692 662 645 573 L422 152 Q213 -248 90 -378 Q-33 -508 -170 -508 Q-228 -508 -265.5 -475 Q-303 -442 -303 -391 Q-303 -343 -275 -311 Q-247 -279 -205 -279 Q-166 -279 -143.5 -302.5 Q-121 -326 -121 -369 Q-121 -408 -157 -446 Q-164 -453 -164 -455 Q-164 -460 -154.5 -462.5 Q-145 -465 -123 -465 Q-35 -465 68.5 -355.5 Q172 -246 279 -41 L201 637 Z " />
<glyph glyph-name="z" unicode="z" horiz-adv-x="883" d="M125 653 L90 563 L57 563 L158 809 Q316 786 424.5 775 Q533 764 602 764 Q631 764 660.5 768.5 Q690 773 720 782 Q718 793 716.5 802 Q715 811 715 819 Q715 830 723 838 Q731 846 743 846 Q756 846 765 836.5 Q774 827 774 815 Q774 810 769 802 Q764 794 754 784 L105 154 Q158 163 201 167.5 Q244 172 281 172 Q378 172 492 134 Q606 96 623 96 Q644 96 658 108.5 Q672 121 672 139 Q672 151 637 186.5 Q602 222 602 258 Q602 284 620 303 Q638 322 664 322 Q694 322 713.5 295.5 Q733 269 733 227 Q733 120 648.5 57 Q564 -6 418 -6 Q343 -6 225.5 28.5 Q108 63 70 63 Q56 63 39.5 57.5 Q23 52 6 41 Q7 37 7.5 32.5 Q8 28 8 18 Q8 3 0.5 -5.5 Q-7 -14 -20 -14 Q-35 -14 -45 -5 Q-55 4 -55 18 Q-55 38 -25 67 Q-20 73 -16 76 L600 678 Q535 656 462.5 645.5 Q390 635 307 635 Q260 635 215 639.5 Q170 644 125 653 Z " />
<glyph glyph-name="braceleft" unicode="&#x7b;" horiz-adv-x="1024" d="M846 1516 L846 1465 Q704 1463 652 1409.5 Q600 1356 600 1200 L600 1057 Q600 831 539 748.5 Q478 666 313 635 Q478 604 539 521.5 Q600 439 600 213 L600 70 Q600 -86 651.5 -138.5 Q703 -191 846 -193 L846 -244 L836 -244 Q619 -244 538 -170.5 Q457 -97 457 102 L457 315 Q457 473 398 533 Q339 593 176 606 L176 666 Q341 681 399 740 Q457 799 457 956 L457 1169 Q457 1369 538 1442.5 Q619 1516 836 1516 L846 1516 Z " />
<glyph glyph-name="bar" unicode="&#x7c;" horiz-adv-x="1024" d="M449 1565 L575 1565 L575 -483 L449 -483 L449 1565 Z " />
<glyph glyph-name="braceright" unicode="&#x7d;" horiz-adv-x="1024" d="M178 1516 L188 1516 Q404 1516 485.5 1442 Q567 1368 567 1169 L567 956 Q567 799 625 740 Q683 681 848 666 L848 606 Q685 593 626 533 Q567 473 567 315 L567 102 Q567 -96 485.5 -170 Q404 -244 188 -244 L178 -244 L178 -193 Q321 -191 372.5 -138.5 Q424 -86 424 70 L424 213 Q424 439 485 521.5 Q546 604 711 635 Q546 666 485 748.5 Q424 831 424 1057 L424 1200 Q424 1356 372 1409.5 Q320 1463 178 1465 L178 1516 Z " />
<glyph glyph-name="asciitilde" unicode="&#x7e;" horiz-adv-x="1706" d="M1530 758 L1530 627 Q1429 555 1332.5 519 Q1236 483 1143 483 Q1100 483 1052.5 492 Q1005 501 952 518 Q922 528 865 549 Q663 621 563 621 Q480 621 389.5 583.5 Q299 546 178 461 L178 594 Q283 667 380 703 Q477 739 565 739 Q621 739 681.5 726.5 Q742 714 856 674 Q868 670 891 661 Q1055 602 1145 602 Q1230 602 1321 638.5 Q1412 675 1530 758 Z " />
<glyph glyph-name="Adieresis" unicode="&#xc4;" horiz-adv-x="971" d="M215 516 L565 516 L565 1077 L215 516 Z M-240 0 L-240 29 Q-177 29 -138.5 52.5 Q-100 76 -45 164 L719 1384 L750 1384 L750 29 L874 29 L874 0 L403 0 L403 29 L565 29 L565 487 L199 487 L-20 143 Q-37 117 -43 101.5 Q-49 86 -49 74 Q-49 52 -21.5 42 Q6 32 82 28 L82 0 L-240 0 Z M495 1645 Q495 1683 525 1713 Q555 1743 594 1743 Q634 1743 663 1714 Q692 1685 692 1645 Q692 1601 664 1572.5 Q636 1544 594 1544 Q553 1544 524 1574 Q495 1604 495 1645 Z M870 1645 Q870 1683 900 1713 Q930 1743 968 1743 Q1008 1743 1037.5 1714 Q1067 1685 1067 1645 Q1067 1601 1039 1572.5 Q1011 1544 968 1544 Q928 1544 899 1574 Q870 1604 870 1645 Z " />
<glyph glyph-name="Aring" unicode="&#xc5;" horiz-adv-x="971" d="M215 516 L565 516 L565 1077 L215 516 Z M598 1690 Q598 1620 646 1572 Q694 1524 764 1524 Q833 1524 882.5 1572.5 Q932 1621 932 1690 Q932 1760 883.5 1809 Q835 1858 764 1858 Q694 1858 646 1809.5 Q598 1761 598 1690 Z M522 1692 Q522 1793 592 1862 Q662 1931 764 1931 Q865 1931 934.5 1862 Q1004 1793 1004 1692 Q1004 1590 934.5 1520 Q865 1450 764 1450 Q663 1450 592.5 1520 Q522 1590 522 1692 Z M-240 0 L-240 29 Q-177 29 -138.5 52.5 Q-100 76 -45 164 L719 1384 L750 1384 L750 29 L874 29 L874 0 L403 0 L403 29 L565 29 L565 487 L199 487 L-20 143 Q-37 117 -43 101.5 Q-49 86 -49 74 Q-49 52 -21.5 42 Q6 32 82 28 L82 0 L-240 0 Z " />
<glyph glyph-name="Ccedilla" unicode="&#xc7;" horiz-adv-x="1270" d="M1104 332 Q1003 152 866 62.5 Q729 -27 557 -27 Q341 -27 198 135.5 Q55 298 55 547 Q55 716 119 866.5 Q183 1017 309 1147 Q424 1265 550.5 1325.5 Q677 1386 807 1386 Q867 1386 918 1375.5 Q969 1365 1012 1343 Q1037 1331 1089.5 1296.5 Q1142 1262 1169 1262 Q1200 1262 1213.5 1274.5 Q1227 1287 1237 1325 L1268 1325 L1169 858 L1139 858 Q1149 903 1154 937.5 Q1159 972 1159 1001 Q1159 1157 1065 1254.5 Q971 1352 823 1352 Q696 1352 601 1275 Q506 1198 418 1024 Q338 868 294 695.5 Q250 523 250 369 Q250 204 341 106 Q432 8 586 8 Q724 8 855 99.5 Q986 191 1071 348 L1104 332 Z M277 -369 L297 -326 Q365 -353 425 -369 Q485 -385 514 -385 Q566 -385 593.5 -356.5 Q621 -328 621 -274 Q621 -225 594.5 -200.5 Q568 -176 516 -176 Q504 -176 489 -177.5 Q474 -179 457 -182 L514 0 L547 0 L511 -135 Q530 -132 548.5 -130.5 Q567 -129 582 -129 Q676 -129 728 -169 Q780 -209 780 -281 Q780 -349 717.5 -390.5 Q655 -432 551 -432 Q496 -432 427 -416 Q358 -400 277 -369 Z " />
<glyph glyph-name="Eacute" unicode="&#xc9;" horiz-adv-x="1165" d="M-145 0 L-137 29 L16 29 L377 1327 L223 1327 L231 1356 L1182 1356 L1114 987 L1083 987 Q1084 989 1084 993 Q1087 1035 1087 1057 Q1087 1190 1025 1258.5 Q963 1327 842 1327 L567 1327 L406 752 L522 752 Q637 752 678.5 790 Q720 828 754 958 L784 958 L645 449 L616 449 Q634 519 642.5 560 Q651 601 651 618 Q651 667 615 695 Q579 723 516 723 L395 723 L207 29 L537 29 Q697 29 811.5 133 Q926 237 963 416 L991 416 L907 0 L-145 0 Z M688 1495 L617 1495 L916 1809 Q934 1829 955.5 1840.5 Q977 1852 996 1852 Q1023 1852 1044 1831 Q1065 1810 1065 1782 Q1065 1760 1049 1740.5 Q1033 1721 996 1696 L688 1495 Z " />
<glyph glyph-name="Ntilde" unicode="&#xd1;" horiz-adv-x="1251" d="M-178 0 L-178 29 Q-86 29 -48 56 Q-10 83 20 193 L338 1327 L162 1327 L170 1356 L535 1356 L940 236 L1212 1202 Q1213 1204 1214 1208 Q1221 1239 1221 1255 Q1221 1293 1190.5 1309.5 Q1160 1326 1078 1331 L1083 1356 L1432 1356 L1423 1333 Q1341 1327 1306 1304.5 Q1271 1282 1245 1192 L915 16 L836 -16 L360 1274 L47 160 Q43 145 41 131 Q39 117 39 104 Q39 66 69.5 49 Q100 32 174 28 L174 0 L-178 0 Z M1153 1766 Q1134 1667 1090 1619 Q1046 1571 973 1571 Q955 1571 940 1573 Q925 1575 911 1579 L780 1616 Q756 1622 740 1624 Q724 1626 711 1626 Q672 1626 649 1607.5 Q626 1589 618 1553 L569 1553 Q585 1646 627.5 1691.5 Q670 1737 741 1737 Q763 1737 781.5 1734.5 Q800 1732 817 1727 L946 1690 Q967 1685 979.5 1683.5 Q992 1682 1003 1682 Q1044 1682 1068.5 1702 Q1093 1722 1104 1766 L1153 1766 Z " />
<glyph glyph-name="Odieresis" unicode="&#xd6;" horiz-adv-x="1346" d="M795 1360 Q691 1360 605.5 1303.5 Q520 1247 461 1139 Q415 1059 376.5 958 Q338 857 305 733 Q273 614 256.5 512.5 Q240 411 240 332 Q240 170 321 83 Q402 -4 553 -4 Q657 -4 741 51.5 Q825 107 887 217 Q930 292 968.5 393.5 Q1007 495 1042 623 Q1075 741 1091.5 842.5 Q1108 944 1108 1022 Q1108 1185 1027 1272.5 Q946 1360 795 1360 Z M549 -29 Q330 -29 192.5 125 Q55 279 55 526 Q55 671 108 816.5 Q161 962 258 1083 Q376 1232 512.5 1308 Q649 1384 797 1384 Q1015 1384 1152.5 1230.5 Q1290 1077 1290 831 Q1290 684 1238 539.5 Q1186 395 1087 272 Q970 124 833 47.5 Q696 -29 549 -29 Z M608 1645 Q608 1683 638 1713 Q668 1743 707 1743 Q747 1743 776 1714 Q805 1685 805 1645 Q805 1601 777 1572.5 Q749 1544 707 1544 Q666 1544 637 1574 Q608 1604 608 1645 Z M983 1645 Q983 1683 1013 1713 Q1043 1743 1081 1743 Q1121 1743 1150.5 1714 Q1180 1685 1180 1645 Q1180 1601 1152 1572.5 Q1124 1544 1081 1544 Q1041 1544 1012 1574 Q983 1604 983 1645 Z " />
<glyph glyph-name="Udieresis" unicode="&#xdc;" horiz-adv-x="1262" d="M305 1327 L154 1327 L160 1356 L672 1356 L666 1327 L498 1327 L248 428 Q232 372 224.5 325 Q217 278 217 236 Q217 130 294 68 Q371 6 502 6 Q711 6 828 97.5 Q945 189 1004 399 L1227 1206 Q1233 1226 1236 1240 Q1239 1254 1239 1262 Q1239 1300 1214.5 1313.5 Q1190 1327 1110 1327 L1071 1327 L1081 1356 L1454 1356 L1446 1327 Q1357 1327 1321.5 1304.5 Q1286 1282 1262 1194 L1055 449 Q981 178 855 74.5 Q729 -29 487 -29 Q286 -29 160.5 59 Q35 147 35 285 Q35 314 42.5 358.5 Q50 403 66 461 L305 1327 Z M624 1645 Q624 1683 654 1713 Q684 1743 723 1743 Q763 1743 792 1714 Q821 1685 821 1645 Q821 1601 793 1572.5 Q765 1544 723 1544 Q682 1544 653 1574 Q624 1604 624 1645 Z M999 1645 Q999 1683 1029 1713 Q1059 1743 1097 1743 Q1137 1743 1166.5 1714 Q1196 1685 1196 1645 Q1196 1601 1168 1572.5 Q1140 1544 1097 1544 Q1057 1544 1028 1574 Q999 1604 999 1645 Z " />
<glyph glyph-name="aacute" unicode="&#xe1;" horiz-adv-x="963" d="M622 546 Q628 567 630.5 586.5 Q633 606 633 623 Q633 702 589 753.5 Q545 805 477 805 Q400 805 336.5 755.5 Q273 706 221 606 Q175 518 147 408.5 Q119 299 119 209 Q119 114 156 62 Q193 10 262 10 Q352 10 431 84 Q510 158 545 279 L622 546 Z M676 182 Q665 146 659 118.5 Q653 91 653 78 Q653 54 666 37 Q679 20 696 20 Q727 20 776 68 Q825 116 879 199 L903 182 Q825 64 767.5 19.5 Q710 -25 641 -25 Q586 -25 551.5 8.5 Q517 42 502 111 Q442 45 380 12.5 Q318 -20 252 -20 Q127 -20 49 71 Q-29 162 -29 311 Q-29 402 -3 484.5 Q23 567 72 633 Q142 729 241.5 784.5 Q341 840 442 840 Q533 840 587.5 796 Q642 752 655 668 L700 815 L856 815 L676 182 Z M454 950 L383 950 L682 1264 Q700 1284 721.5 1295.5 Q743 1307 762 1307 Q789 1307 810 1286 Q831 1265 831 1237 Q831 1215 815 1195.5 Q799 1176 762 1151 L454 950 Z " />
<glyph glyph-name="agrave" unicode="&#xe0;" horiz-adv-x="963" d="M622 546 Q628 567 630.5 586.5 Q633 606 633 623 Q633 702 589 753.5 Q545 805 477 805 Q400 805 336.5 755.5 Q273 706 221 606 Q175 518 147 408.5 Q119 299 119 209 Q119 114 156 62 Q193 10 262 10 Q352 10 431 84 Q510 158 545 279 L622 546 Z M676 182 Q665 146 659 118.5 Q653 91 653 78 Q653 54 666 37 Q679 20 696 20 Q727 20 776 68 Q825 116 879 199 L903 182 Q825 64 767.5 19.5 Q710 -25 641 -25 Q586 -25 551.5 8.5 Q517 42 502 111 Q442 45 380 12.5 Q318 -20 252 -20 Q127 -20 49 71 Q-29 162 -29 311 Q-29 402 -3 484.5 Q23 567 72 633 Q142 729 241.5 784.5 Q341 840 442 840 Q533 840 587.5 796 Q642 752 655 668 L700 815 L856 815 L676 182 Z M696 952 L628 952 L385 1155 Q353 1181 341 1200 Q329 1219 329 1241 Q329 1269 349.5 1290 Q370 1311 397 1311 Q418 1311 441 1295.5 Q464 1280 483 1253 L696 952 Z " />
<glyph glyph-name="acircumflex" unicode="&#xe2;" horiz-adv-x="963" d="M622 546 Q628 567 630.5 586.5 Q633 606 633 623 Q633 702 589 753.5 Q545 805 477 805 Q400 805 336.5 755.5 Q273 706 221 606 Q175 518 147 408.5 Q119 299 119 209 Q119 114 156 62 Q193 10 262 10 Q352 10 431 84 Q510 158 545 279 L622 546 Z M676 182 Q665 146 659 118.5 Q653 91 653 78 Q653 54 666 37 Q679 20 696 20 Q727 20 776 68 Q825 116 879 199 L903 182 Q825 64 767.5 19.5 Q710 -25 641 -25 Q586 -25 551.5 8.5 Q517 42 502 111 Q442 45 380 12.5 Q318 -20 252 -20 Q127 -20 49 71 Q-29 162 -29 311 Q-29 402 -3 484.5 Q23 567 72 633 Q142 729 241.5 784.5 Q341 840 442 840 Q533 840 587.5 796 Q642 752 655 668 L700 815 L856 815 L676 182 Z M813 950 L757 950 L581 1157 L305 950 L237 950 L547 1298 L651 1298 L813 950 Z " />
<glyph glyph-name="adieresis" unicode="&#xe4;" horiz-adv-x="963" d="M622 546 Q628 567 630.5 586.5 Q633 606 633 623 Q633 702 589 753.5 Q545 805 477 805 Q400 805 336.5 755.5 Q273 706 221 606 Q175 518 147 408.5 Q119 299 119 209 Q119 114 156 62 Q193 10 262 10 Q352 10 431 84 Q510 158 545 279 L622 546 Z M676 182 Q665 146 659 118.5 Q653 91 653 78 Q653 54 666 37 Q679 20 696 20 Q727 20 776 68 Q825 116 879 199 L903 182 Q825 64 767.5 19.5 Q710 -25 641 -25 Q586 -25 551.5 8.5 Q517 42 502 111 Q442 45 380 12.5 Q318 -20 252 -20 Q127 -20 49 71 Q-29 162 -29 311 Q-29 402 -3 484.5 Q23 567 72 633 Q142 729 241.5 784.5 Q341 840 442 840 Q533 840 587.5 796 Q642 752 655 668 L700 815 L856 815 L676 182 Z M280 1100 Q280 1138 310 1168 Q340 1198 379 1198 Q419 1198 448 1169 Q477 1140 477 1100 Q477 1056 449 1027.5 Q421 999 379 999 Q338 999 309 1029 Q280 1059 280 1100 Z M655 1100 Q655 1138 685 1168 Q715 1198 753 1198 Q793 1198 822.5 1169 Q852 1140 852 1100 Q852 1056 824 1027.5 Q796 999 753 999 Q713 999 684 1029 Q655 1059 655 1100 Z " />
<glyph glyph-name="atilde" unicode="&#xe3;" horiz-adv-x="963" d="M622 546 Q628 567 630.5 586.5 Q633 606 633 623 Q633 702 589 753.5 Q545 805 477 805 Q400 805 336.5 755.5 Q273 706 221 606 Q175 518 147 408.5 Q119 299 119 209 Q119 114 156 62 Q193 10 262 10 Q352 10 431 84 Q510 158 545 279 L622 546 Z M676 182 Q665 146 659 118.5 Q653 91 653 78 Q653 54 666 37 Q679 20 696 20 Q727 20 776 68 Q825 116 879 199 L903 182 Q825 64 767.5 19.5 Q710 -25 641 -25 Q586 -25 551.5 8.5 Q517 42 502 111 Q442 45 380 12.5 Q318 -20 252 -20 Q127 -20 49 71 Q-29 162 -29 311 Q-29 402 -3 484.5 Q23 567 72 633 Q142 729 241.5 784.5 Q341 840 442 840 Q533 840 587.5 796 Q642 752 655 668 L700 815 L856 815 L676 182 Z M862 1221 Q843 1122 799 1074 Q755 1026 682 1026 Q664 1026 649 1028 Q634 1030 620 1034 L489 1071 Q465 1077 449 1079 Q433 1081 420 1081 Q381 1081 358 1062.5 Q335 1044 327 1008 L278 1008 Q294 1101 336.5 1146.5 Q379 1192 450 1192 Q472 1192 490.5 1189.5 Q509 1187 526 1182 L655 1145 Q676 1140 688.5 1138.5 Q701 1137 712 1137 Q753 1137 777.5 1157 Q802 1177 813 1221 L862 1221 Z " />
<glyph glyph-name="aring" unicode="&#xe5;" horiz-adv-x="963" d="M383 1145 Q383 1075 432 1027 Q481 979 551 979 Q620 979 668.5 1027.5 Q717 1076 717 1145 Q717 1215 668.5 1264 Q620 1313 551 1313 Q480 1313 431.5 1264 Q383 1215 383 1145 Z M307 1147 Q307 1248 377 1317 Q447 1386 549 1386 Q650 1386 719 1317 Q788 1248 788 1147 Q788 1045 719 975 Q650 905 549 905 Q447 905 377 975.5 Q307 1046 307 1147 Z M622 546 Q628 567 630.5 586.5 Q633 606 633 623 Q633 702 589 753.5 Q545 805 477 805 Q400 805 336.5 755.5 Q273 706 221 606 Q175 518 147 408.5 Q119 299 119 209 Q119 114 156 62 Q193 10 262 10 Q352 10 431 84 Q510 158 545 279 L622 546 Z M676 182 Q665 146 659 118.5 Q653 91 653 78 Q653 54 666 37 Q679 20 696 20 Q727 20 776 68 Q825 116 879 199 L903 182 Q825 64 767.5 19.5 Q710 -25 641 -25 Q586 -25 551.5 8.5 Q517 42 502 111 Q442 45 380 12.5 Q318 -20 252 -20 Q127 -20 49 71 Q-29 162 -29 311 Q-29 402 -3 484.5 Q23 567 72 633 Q142 729 241.5 784.5 Q341 840 442 840 Q533 840 587.5 796 Q642 752 655 668 L700 815 L856 815 L676 182 Z " />
<glyph glyph-name="ccedilla" unicode="&#xe7;" horiz-adv-x="735" d="M625 287 Q562 139 469 58 Q376 -23 270 -23 Q155 -23 74.5 68 Q-6 159 -6 291 Q-6 395 35 496 Q76 597 154 682 Q227 761 305.5 800.5 Q384 840 471 840 Q561 840 614.5 801 Q668 762 668 698 Q668 657 640 630.5 Q612 604 569 604 Q533 604 506 631 Q479 658 479 694 Q479 753 519 790 Q524 795 524 797 Q524 803 510 807 Q496 811 471 811 Q415 811 368 775.5 Q321 740 285 670 Q261 625 240.5 570 Q220 515 203 449 Q179 357 166.5 283.5 Q154 210 154 164 Q154 93 186 55.5 Q218 18 279 18 Q371 18 451 90 Q531 162 596 303 L625 287 Z M7 -369 L27 -326 Q95 -353 155 -369 Q215 -385 244 -385 Q296 -385 323.5 -356.5 Q351 -328 351 -274 Q351 -225 324.5 -200.5 Q298 -176 246 -176 Q234 -176 219 -177.5 Q204 -179 187 -182 L244 0 L277 0 L241 -135 Q260 -132 278.5 -130.5 Q297 -129 312 -129 Q406 -129 458 -169 Q510 -209 510 -281 Q510 -349 447.5 -390.5 Q385 -432 281 -432 Q226 -432 157 -416 Q88 -400 7 -369 Z " />
<glyph glyph-name="eacute" unicode="&#xe9;" horiz-adv-x="711" d="M172 440 Q149 346 138 282 Q127 218 127 176 Q127 100 167 56 Q207 12 276 12 Q352 12 423.5 66.5 Q495 121 557 225 L582 211 Q516 97 433.5 38.5 Q351 -20 256 -20 Q137 -20 59.5 74 Q-18 168 -18 313 Q-18 399 22 491.5 Q62 584 135 668 Q207 750 288.5 795 Q370 840 446 840 Q534 840 585.5 792 Q637 744 637 664 Q637 562 546 489 Q455 416 328 416 Q295 416 255.5 422 Q216 428 172 440 Z M178 471 Q211 460 243 454.5 Q275 449 303 449 Q392 449 451 523 Q510 597 510 711 Q510 759 488 785 Q466 811 424 811 Q351 811 287 723 Q223 635 178 471 Z M370 950 L299 950 L598 1264 Q616 1284 637.5 1295.5 Q659 1307 678 1307 Q705 1307 726 1286 Q747 1265 747 1237 Q747 1215 731 1195.5 Q715 1176 678 1151 L370 950 Z " />
<glyph glyph-name="egrave" unicode="&#xe8;" horiz-adv-x="711" d="M172 440 Q149 346 138 282 Q127 218 127 176 Q127 100 167 56 Q207 12 276 12 Q352 12 423.5 66.5 Q495 121 557 225 L582 211 Q516 97 433.5 38.5 Q351 -20 256 -20 Q137 -20 59.5 74 Q-18 168 -18 313 Q-18 399 22 491.5 Q62 584 135 668 Q207 750 288.5 795 Q370 840 446 840 Q534 840 585.5 792 Q637 744 637 664 Q637 562 546 489 Q455 416 328 416 Q295 416 255.5 422 Q216 428 172 440 Z M178 471 Q211 460 243 454.5 Q275 449 303 449 Q392 449 451 523 Q510 597 510 711 Q510 759 488 785 Q466 811 424 811 Q351 811 287 723 Q223 635 178 471 Z M612 952 L544 952 L301 1155 Q269 1181 257 1200 Q245 1219 245 1241 Q245 1269 265.5 1290 Q286 1311 313 1311 Q334 1311 357 1295.5 Q380 1280 399 1253 L612 952 Z " />
<glyph glyph-name="ecircumflex" unicode="&#xea;" horiz-adv-x="711" d="M172 440 Q149 346 138 282 Q127 218 127 176 Q127 100 167 56 Q207 12 276 12 Q352 12 423.5 66.5 Q495 121 557 225 L582 211 Q516 97 433.5 38.5 Q351 -20 256 -20 Q137 -20 59.5 74 Q-18 168 -18 313 Q-18 399 22 491.5 Q62 584 135 668 Q207 750 288.5 795 Q370 840 446 840 Q534 840 585.5 792 Q637 744 637 664 Q637 562 546 489 Q455 416 328 416 Q295 416 255.5 422 Q216 428 172 440 Z M178 471 Q211 460 243 454.5 Q275 449 303 449 Q392 449 451 523 Q510 597 510 711 Q510 759 488 785 Q466 811 424 811 Q351 811 287 723 Q223 635 178 471 Z M729 950 L673 950 L497 1157 L221 950 L153 950 L463 1298 L567 1298 L729 950 Z " />
<glyph glyph-name="edieresis" unicode="&#xeb;" horiz-adv-x="711" d="M172 440 Q149 346 138 282 Q127 218 127 176 Q127 100 167 56 Q207 12 276 12 Q352 12 423.5 66.5 Q495 121 557 225 L582 211 Q516 97 433.5 38.5 Q351 -20 256 -20 Q137 -20 59.5 74 Q-18 168 -18 313 Q-18 399 22 491.5 Q62 584 135 668 Q207 750 288.5 795 Q370 840 446 840 Q534 840 585.5 792 Q637 744 637 664 Q637 562 546 489 Q455 416 328 416 Q295 416 255.5 422 Q216 428 172 440 Z M178 471 Q211 460 243 454.5 Q275 449 303 449 Q392 449 451 523 Q510 597 510 711 Q510 759 488 785 Q466 811 424 811 Q351 811 287 723 Q223 635 178 471 Z M196 1100 Q196 1138 226 1168 Q256 1198 295 1198 Q335 1198 364 1169 Q393 1140 393 1100 Q393 1056 365 1027.5 Q337 999 295 999 Q254 999 225 1029 Q196 1059 196 1100 Z M571 1100 Q571 1138 601 1168 Q631 1198 669 1198 Q709 1198 738.5 1169 Q768 1140 768 1100 Q768 1056 740 1027.5 Q712 999 669 999 Q629 999 600 1029 Q571 1059 571 1100 Z " />
<glyph glyph-name="iacute" unicode="&#xed;" horiz-adv-x="508" d="M199 786 L76 786 L84 815 L164 815 Q235 815 282.5 821 Q330 827 373 840 L178 195 Q167 161 161.5 133 Q156 105 156 88 Q156 61 169.5 47 Q183 33 209 33 Q244 33 288 66.5 Q332 100 416 195 L436 178 Q350 73 281 26.5 Q212 -20 143 -20 Q80 -20 43 16 Q6 52 6 115 Q6 138 12.5 169.5 Q19 201 39 264 L199 786 Z M227 950 L156 950 L455 1264 Q473 1284 494.5 1295.5 Q516 1307 535 1307 Q562 1307 583 1286 Q604 1265 604 1237 Q604 1215 588 1195.5 Q572 1176 535 1151 L227 950 Z " />
<glyph glyph-name="igrave" unicode="&#xec;" horiz-adv-x="508" d="M199 786 L76 786 L84 815 L164 815 Q235 815 282.5 821 Q330 827 373 840 L178 195 Q167 161 161.5 133 Q156 105 156 88 Q156 61 169.5 47 Q183 33 209 33 Q244 33 288 66.5 Q332 100 416 195 L436 178 Q350 73 281 26.5 Q212 -20 143 -20 Q80 -20 43 16 Q6 52 6 115 Q6 138 12.5 169.5 Q19 201 39 264 L199 786 Z M469 952 L401 952 L158 1155 Q126 1181 114 1200 Q102 1219 102 1241 Q102 1269 122.5 1290 Q143 1311 170 1311 Q191 1311 214 1295.5 Q237 1280 256 1253 L469 952 Z " />
<glyph glyph-name="icircumflex" unicode="&#xee;" horiz-adv-x="508" d="M199 786 L76 786 L84 815 L164 815 Q235 815 282.5 821 Q330 827 373 840 L178 195 Q167 161 161.5 133 Q156 105 156 88 Q156 61 169.5 47 Q183 33 209 33 Q244 33 288 66.5 Q332 100 416 195 L436 178 Q350 73 281 26.5 Q212 -20 143 -20 Q80 -20 43 16 Q6 52 6 115 Q6 138 12.5 169.5 Q19 201 39 264 L199 786 Z M586 950 L530 950 L354 1157 L78 950 L10 950 L320 1298 L424 1298 L586 950 Z " />
<glyph glyph-name="idieresis" unicode="&#xef;" horiz-adv-x="508" d="M199 786 L76 786 L84 815 L164 815 Q235 815 282.5 821 Q330 827 373 840 L178 195 Q167 161 161.5 133 Q156 105 156 88 Q156 61 169.5 47 Q183 33 209 33 Q244 33 288 66.5 Q332 100 416 195 L436 178 Q350 73 281 26.5 Q212 -20 143 -20 Q80 -20 43 16 Q6 52 6 115 Q6 138 12.5 169.5 Q19 201 39 264 L199 786 Z M53 1100 Q53 1138 83 1168 Q113 1198 152 1198 Q192 1198 221 1169 Q250 1140 250 1100 Q250 1056 222 1027.5 Q194 999 152 999 Q111 999 82 1029 Q53 1059 53 1100 Z M428 1100 Q428 1138 458 1168 Q488 1198 526 1198 Q566 1198 595.5 1169 Q625 1140 625 1100 Q625 1056 597 1027.5 Q569 999 526 999 Q486 999 457 1029 Q428 1059 428 1100 Z " />
<glyph glyph-name="ntilde" unicode="&#xf1;" horiz-adv-x="1014" d="M700 182 L699 177 Q676 102 676 82 Q676 56 688.5 38 Q701 20 719 20 Q750 20 800 68 Q850 116 903 199 L928 180 Q853 66 795 20.5 Q737 -25 670 -25 Q607 -25 573 13 Q539 51 539 119 Q539 141 543.5 166 Q548 191 557 221 L684 619 Q686 625 690 637 Q711 705 711 739 Q711 770 693 786.5 Q675 803 641 803 Q602 803 549.5 778.5 Q497 754 440 709 Q360 645 304 564.5 Q248 484 219 389 L100 0 L-57 0 L182 786 L61 786 L70 815 L147 815 Q219 815 267.5 821 Q316 827 358 840 L281 586 Q380 713 478.5 776.5 Q577 840 674 840 Q754 840 801 797.5 Q848 755 848 682 Q848 661 842 632 Q836 603 823 563 L700 182 Z M889 1221 Q870 1122 826 1074 Q782 1026 709 1026 Q691 1026 676 1028 Q661 1030 647 1034 L516 1071 Q492 1077 476 1079 Q460 1081 447 1081 Q408 1081 385 1062.5 Q362 1044 354 1008 L305 1008 Q321 1101 363.5 1146.5 Q406 1192 477 1192 Q499 1192 517.5 1189.5 Q536 1187 553 1182 L682 1145 Q703 1140 715.5 1138.5 Q728 1137 739 1137 Q780 1137 804.5 1157 Q829 1177 840 1221 L889 1221 Z " />
<glyph glyph-name="oacute" unicode="&#xf3;" horiz-adv-x="891" d="M295 -25 Q153 -25 66.5 69 Q-20 163 -20 317 Q-20 406 13 494 Q46 582 106 655 Q188 753 273.5 796.5 Q359 840 467 840 Q601 840 682.5 747.5 Q764 655 764 502 Q764 409 731.5 321.5 Q699 234 637 160 Q560 67 475 21 Q390 -25 295 -25 Z M457 815 Q388 815 336 768.5 Q284 722 236 616 Q183 506 152 386.5 Q121 267 121 188 Q121 98 164 50 Q207 2 289 2 Q355 2 408 49 Q461 96 510 199 Q561 306 592 426.5 Q623 547 623 633 Q623 725 582 770 Q541 815 457 815 Z M419 950 L348 950 L647 1264 Q665 1284 686.5 1295.5 Q708 1307 727 1307 Q754 1307 775 1286 Q796 1265 796 1237 Q796 1215 780 1195.5 Q764 1176 727 1151 L419 950 Z " />
<glyph glyph-name="ograve" unicode="&#xf2;" horiz-adv-x="891" d="M295 -25 Q153 -25 66.5 69 Q-20 163 -20 317 Q-20 406 13 494 Q46 582 106 655 Q188 753 273.5 796.5 Q359 840 467 840 Q601 840 682.5 747.5 Q764 655 764 502 Q764 409 731.5 321.5 Q699 234 637 160 Q560 67 475 21 Q390 -25 295 -25 Z M457 815 Q388 815 336 768.5 Q284 722 236 616 Q183 506 152 386.5 Q121 267 121 188 Q121 98 164 50 Q207 2 289 2 Q355 2 408 49 Q461 96 510 199 Q561 306 592 426.5 Q623 547 623 633 Q623 725 582 770 Q541 815 457 815 Z M661 952 L593 952 L350 1155 Q318 1181 306 1200 Q294 1219 294 1241 Q294 1269 314.5 1290 Q335 1311 362 1311 Q383 1311 406 1295.5 Q429 1280 448 1253 L661 952 Z " />
<glyph glyph-name="ocircumflex" unicode="&#xf4;" horiz-adv-x="891" d="M295 -25 Q153 -25 66.5 69 Q-20 163 -20 317 Q-20 406 13 494 Q46 582 106 655 Q188 753 273.5 796.5 Q359 840 467 840 Q601 840 682.5 747.5 Q764 655 764 502 Q764 409 731.5 321.5 Q699 234 637 160 Q560 67 475 21 Q390 -25 295 -25 Z M457 815 Q388 815 336 768.5 Q284 722 236 616 Q183 506 152 386.5 Q121 267 121 188 Q121 98 164 50 Q207 2 289 2 Q355 2 408 49 Q461 96 510 199 Q561 306 592 426.5 Q623 547 623 633 Q623 725 582 770 Q541 815 457 815 Z M778 950 L722 950 L546 1157 L270 950 L202 950 L512 1298 L616 1298 L778 950 Z " />
<glyph glyph-name="odieresis" unicode="&#xf6;" horiz-adv-x="891" d="M295 -25 Q153 -25 66.5 69 Q-20 163 -20 317 Q-20 406 13 494 Q46 582 106 655 Q188 753 273.5 796.5 Q359 840 467 840 Q601 840 682.5 747.5 Q764 655 764 502 Q764 409 731.5 321.5 Q699 234 637 160 Q560 67 475 21 Q390 -25 295 -25 Z M457 815 Q388 815 336 768.5 Q284 722 236 616 Q183 506 152 386.5 Q121 267 121 188 Q121 98 164 50 Q207 2 289 2 Q355 2 408 49 Q461 96 510 199 Q561 306 592 426.5 Q623 547 623 633 Q623 725 582 770 Q541 815 457 815 Z M245 1100 Q245 1138 275 1168 Q305 1198 344 1198 Q384 1198 413 1169 Q442 1140 442 1100 Q442 1056 414 1027.5 Q386 999 344 999 Q303 999 274 1029 Q245 1059 245 1100 Z M620 1100 Q620 1138 650 1168 Q680 1198 718 1198 Q758 1198 787.5 1169 Q817 1140 817 1100 Q817 1056 789 1027.5 Q761 999 718 999 Q678 999 649 1029 Q620 1059 620 1100 Z " />
<glyph glyph-name="otilde" unicode="&#xf5;" horiz-adv-x="891" d="M295 -25 Q153 -25 66.5 69 Q-20 163 -20 317 Q-20 406 13 494 Q46 582 106 655 Q188 753 273.5 796.5 Q359 840 467 840 Q601 840 682.5 747.5 Q764 655 764 502 Q764 409 731.5 321.5 Q699 234 637 160 Q560 67 475 21 Q390 -25 295 -25 Z M457 815 Q388 815 336 768.5 Q284 722 236 616 Q183 506 152 386.5 Q121 267 121 188 Q121 98 164 50 Q207 2 289 2 Q355 2 408 49 Q461 96 510 199 Q561 306 592 426.5 Q623 547 623 633 Q623 725 582 770 Q541 815 457 815 Z M827 1221 Q808 1122 764 1074 Q720 1026 647 1026 Q629 1026 614 1028 Q599 1030 585 1034 L454 1071 Q430 1077 414 1079 Q398 1081 385 1081 Q346 1081 323 1062.5 Q300 1044 292 1008 L243 1008 Q259 1101 301.5 1146.5 Q344 1192 415 1192 Q437 1192 455.5 1189.5 Q474 1187 491 1182 L620 1145 Q641 1140 653.5 1138.5 Q666 1137 677 1137 Q718 1137 742.5 1157 Q767 1177 778 1221 L827 1221 Z " />
<glyph glyph-name="uacute" unicode="&#xfa;" horiz-adv-x="948" d="M168 786 L47 786 L55 815 L133 815 Q205 815 253 821 Q301 827 344 840 L143 184 Q135 157 130 133 Q125 109 125 96 Q125 67 143.5 49 Q162 31 193 31 Q220 31 252.5 47.5 Q285 64 330 100 Q419 173 469.5 244.5 Q520 316 551 412 L680 815 L836 815 L637 186 Q625 148 618.5 120.5 Q612 93 612 80 Q612 59 625 43 Q638 27 655 27 Q687 27 735 73 Q783 119 838 203 L860 186 Q798 84 733.5 33 Q669 -18 604 -18 Q541 -18 506 19 Q471 56 471 123 Q471 143 475.5 168.5 Q480 194 489 225 Q400 106 308 44 Q216 -18 129 -18 Q60 -18 18.5 21 Q-23 60 -23 125 Q-23 143 -16 178 Q-9 213 2 250 L168 786 Z M458 950 L387 950 L686 1264 Q704 1284 725.5 1295.5 Q747 1307 766 1307 Q793 1307 814 1286 Q835 1265 835 1237 Q835 1215 819 1195.5 Q803 1176 766 1151 L458 950 Z " />
<glyph glyph-name="ugrave" unicode="&#xf9;" horiz-adv-x="948" d="M168 786 L47 786 L55 815 L133 815 Q205 815 253 821 Q301 827 344 840 L143 184 Q135 157 130 133 Q125 109 125 96 Q125 67 143.5 49 Q162 31 193 31 Q220 31 252.5 47.5 Q285 64 330 100 Q419 173 469.5 244.5 Q520 316 551 412 L680 815 L836 815 L637 186 Q625 148 618.5 120.5 Q612 93 612 80 Q612 59 625 43 Q638 27 655 27 Q687 27 735 73 Q783 119 838 203 L860 186 Q798 84 733.5 33 Q669 -18 604 -18 Q541 -18 506 19 Q471 56 471 123 Q471 143 475.5 168.5 Q480 194 489 225 Q400 106 308 44 Q216 -18 129 -18 Q60 -18 18.5 21 Q-23 60 -23 125 Q-23 143 -16 178 Q-9 213 2 250 L168 786 Z M700 952 L632 952 L389 1155 Q357 1181 345 1200 Q333 1219 333 1241 Q333 1269 353.5 1290 Q374 1311 401 1311 Q422 1311 445 1295.5 Q468 1280 487 1253 L700 952 Z " />
<glyph glyph-name="ucircumflex" unicode="&#xfb;" horiz-adv-x="948" d="M168 786 L47 786 L55 815 L133 815 Q205 815 253 821 Q301 827 344 840 L143 184 Q135 157 130 133 Q125 109 125 96 Q125 67 143.5 49 Q162 31 193 31 Q220 31 252.5 47.5 Q285 64 330 100 Q419 173 469.5 244.5 Q520 316 551 412 L680 815 L836 815 L637 186 Q625 148 618.5 120.5 Q612 93 612 80 Q612 59 625 43 Q638 27 655 27 Q687 27 735 73 Q783 119 838 203 L860 186 Q798 84 733.5 33 Q669 -18 604 -18 Q541 -18 506 19 Q471 56 471 123 Q471 143 475.5 168.5 Q480 194 489 225 Q400 106 308 44 Q216 -18 129 -18 Q60 -18 18.5 21 Q-23 60 -23 125 Q-23 143 -16 178 Q-9 213 2 250 L168 786 Z M817 950 L761 950 L585 1157 L309 950 L241 950 L551 1298 L655 1298 L817 950 Z " />
<glyph glyph-name="udieresis" unicode="&#xfc;" horiz-adv-x="948" d="M168 786 L47 786 L55 815 L133 815 Q205 815 253 821 Q301 827 344 840 L143 184 Q135 157 130 133 Q125 109 125 96 Q125 67 143.5 49 Q162 31 193 31 Q220 31 252.5 47.5 Q285 64 330 100 Q419 173 469.5 244.5 Q520 316 551 412 L680 815 L836 815 L637 186 Q625 148 618.5 120.5 Q612 93 612 80 Q612 59 625 43 Q638 27 655 27 Q687 27 735 73 Q783 119 838 203 L860 186 Q798 84 733.5 33 Q669 -18 604 -18 Q541 -18 506 19 Q471 56 471 123 Q471 143 475.5 168.5 Q480 194 489 225 Q400 106 308 44 Q216 -18 129 -18 Q60 -18 18.5 21 Q-23 60 -23 125 Q-23 143 -16 178 Q-9 213 2 250 L168 786 Z M284 1100 Q284 1138 314 1168 Q344 1198 383 1198 Q423 1198 452 1169 Q481 1140 481 1100 Q481 1056 453 1027.5 Q425 999 383 999 Q342 999 313 1029 Q284 1059 284 1100 Z M659 1100 Q659 1138 689 1168 Q719 1198 757 1198 Q797 1198 826.5 1169 Q856 1140 856 1100 Q856 1056 828 1027.5 Q800 999 757 999 Q717 999 688 1029 Q659 1059 659 1100 Z " />
<glyph glyph-name="dagger" unicode="&#x2020;" horiz-adv-x="1024" d="M506 680 L494 680 Q387 680 284 640 Q181 600 174 600 Q163 600 160.5 601.5 Q158 603 158 608 Q158 618 164 632.5 Q170 647 180 664 L98 674 Q70 677 60.5 682 Q51 687 51 698 Q51 710 61.5 717 Q72 724 98 729 L186 750 L178 782 Q178 785 177 787.5 Q176 790 176 791 Q176 797 179 801 Q182 805 186 805 Q197 805 303.5 760 Q410 715 514 713 Q542 815 555.5 897 Q569 979 569 1044 Q569 1134 542 1219 Q537 1235 537 1239 Q537 1245 542.5 1249 Q548 1253 555 1253 Q558 1253 560 1252.5 Q562 1252 563 1251 L612 1214 Q642 1291 673 1338.5 Q704 1386 723 1386 Q731 1386 735 1372.5 Q739 1359 739 1333 Q739 1308 736 1276.5 Q733 1245 727 1210 L768 1237 Q776 1242 779.5 1243.5 Q783 1245 786 1245 Q794 1245 798.5 1240.5 Q803 1236 803 1229 Q803 1225 783 1197 Q636 994 549 713 Q698 716 859 785 Q900 803 909 803 Q914 803 918 799 Q922 795 922 791 L922 786 L903 737 L979 721 Q997 718 1006 711 Q1015 704 1016 692 Q1016 683 997 674 Q978 665 944 659 L885 649 L895 617 Q896 613 896.5 610 Q897 607 897 602 Q897 594 892 591 Q887 588 874 588 Q872 588 856 596 Q716 665 539 680 Q466 379 426.5 150 Q387 -79 387 -199 Q387 -214 390 -238 Q393 -262 393 -270 Q393 -284 387.5 -291.5 Q382 -299 373 -299 Q370 -299 365.5 -296.5 Q361 -294 356 -289 L332 -262 L256 -401 Q244 -424 233 -435 Q222 -446 211 -446 Q203 -446 196.5 -433.5 Q190 -421 190 -403 L190 -391 L209 -254 L174 -279 Q173 -279 172 -280 Q157 -289 150 -289 Q143 -289 137 -283.5 Q131 -278 131 -272 Q131 -267 157 -220 Q371 171 506 680 Z " />
<glyph glyph-name="degree" unicode="&#xb0;" horiz-adv-x="674" d="M338 1372 Q254 1372 194.5 1313.5 Q135 1255 135 1171 Q135 1087 194.5 1028 Q254 969 338 969 Q422 969 480.5 1028 Q539 1087 539 1171 Q539 1255 480.5 1313.5 Q422 1372 338 1372 Z M338 1454 Q455 1454 538 1371 Q621 1288 621 1171 Q621 1055 537.5 972 Q454 889 336 889 Q218 889 136.5 971 Q55 1053 55 1171 Q55 1290 137.5 1372 Q220 1454 338 1454 Z " />
<glyph glyph-name="cent" unicode="&#xa2;" horiz-adv-x="985" d="M295 31 L524 809 Q462 798 412.5 747.5 Q363 697 324 604 Q276 495 247.5 373.5 Q219 252 219 170 Q219 115 237.5 80.5 Q256 46 295 31 Z M281 -10 Q175 19 114 100.5 Q53 182 53 295 Q53 397 96 496 Q139 595 221 680 Q297 757 375 796.5 Q453 836 532 838 L580 993 L614 993 L567 838 L573 838 Q656 838 710 799 Q764 760 764 705 Q764 661 739.5 633.5 Q715 606 676 606 Q632 606 607 629.5 Q582 653 582 692 Q582 753 622 789 Q627 794 627 795 Q627 801 609 805 Q591 809 559 809 L328 25 Q334 23 339.5 23 Q345 23 356 23 Q449 23 531.5 95 Q614 167 680 305 L709 289 Q641 138 545.5 61 Q450 -16 330 -16 L315 -16 L264 -188 L229 -182 L281 -10 Z " />
<glyph glyph-name="sterling" unicode="&#xa3;" horiz-adv-x="985" d="M260 203 Q204 253 157 276 Q110 299 66 299 Q-11 299 -63 255.5 Q-115 212 -115 150 Q-115 97 -77 62 Q-39 27 18 27 Q89 27 148.5 70 Q208 113 260 203 Z M305 145 Q229 58 159.5 16.5 Q90 -25 20 -25 Q-54 -25 -100.5 18.5 Q-147 62 -147 131 Q-147 219 -77.5 275.5 Q-8 332 104 332 Q151 332 204.5 319.5 Q258 307 323 281 Q337 309 343.5 342 Q350 375 350 414 Q350 464 338.5 538.5 Q327 613 305 709 L82 709 L90 741 L301 741 Q295 778 292 810.5 Q289 843 289 870 Q289 1077 426 1219.5 Q563 1362 762 1362 Q883 1362 958.5 1301.5 Q1034 1241 1034 1145 Q1034 1078 1001.5 1034.5 Q969 991 920 991 Q883 991 859.5 1011 Q836 1031 836 1061 Q836 1082 849.5 1104 Q863 1126 885 1139 Q894 1144 913 1152 Q969 1175 969 1210 Q969 1255 917 1289 Q865 1323 793 1323 Q657 1323 569 1191.5 Q481 1060 481 856 Q481 824 482.5 795 Q484 766 487 742 L774 741 L764 709 L490 709 Q491 697 491.5 684.5 Q492 672 492 647 Q492 539 463 442 Q434 345 375 254 Q497 186 576 154.5 Q655 123 705 123 Q771 123 817.5 159 Q864 195 895 270 L920 268 Q884 134 800.5 54.5 Q717 -25 612 -25 Q542 -25 465.5 17.5 Q389 60 305 145 Z " />
<glyph glyph-name="section" unicode="&#xa7;" horiz-adv-x="1024" d="M356 842 Q257 796 206.5 741.5 Q156 687 156 627 Q156 522 372 372 Q398 354 412 344 Q432 330 471 303 Q590 221 633 172 Q732 229 778.5 286.5 Q825 344 825 410 Q825 511 523 723 Q417 797 356 842 Z M332 862 Q304 896 290 936.5 Q276 977 276 1026 Q276 1173 395.5 1278.5 Q515 1384 684 1384 Q809 1384 889 1322.5 Q969 1261 969 1167 Q969 1119 940.5 1091 Q912 1063 862 1063 Q817 1063 790.5 1087.5 Q764 1112 764 1153 Q764 1188 781 1209 Q798 1230 834 1239 Q840 1241 850 1243 Q887 1251 887 1270 Q887 1296 827 1326 Q767 1356 692 1356 Q553 1356 468 1291.5 Q383 1227 383 1122 Q383 1027 590 886 Q634 856 657 840 Q826 724 874 662 Q922 600 922 526 Q922 425 849.5 322 Q777 219 651 143 Q673 106 683.5 65 Q694 24 694 -27 Q694 -207 565.5 -326.5 Q437 -446 246 -446 Q97 -446 -3.5 -371.5 Q-104 -297 -104 -190 Q-104 -125 -68 -86 Q-32 -47 29 -47 Q73 -47 99 -71.5 Q125 -96 125 -137 Q125 -178 99.5 -201.5 Q74 -225 31 -225 Q22 -225 4.5 -223 Q-13 -221 -23 -221 Q-38 -221 -47.5 -228.5 Q-57 -236 -57 -250 Q-57 -305 37 -361.5 Q131 -418 248 -418 Q388 -418 489 -336 Q590 -254 590 -141 Q590 -2 351 168 Q325 187 312 196 L309 198 Q55 379 55 508 Q55 609 130 705.5 Q205 802 332 862 Z " />
<glyph glyph-name="bullet" unicode="&#x2022;" horiz-adv-x="1208" d="M307 762 Q307 885 394 971 Q481 1057 604 1057 Q726 1057 812.5 970.5 Q899 884 899 762 Q899 640 811.5 552.5 Q724 465 602 465 Q479 465 393 552 Q307 639 307 762 Z " />
<glyph glyph-name="paragraph" unicode="&#xb6;" horiz-adv-x="1024" d="M948 1479 L948 1401 L823 1401 L823 0 L729 0 L729 1401 L547 1401 L547 0 L451 0 L451 782 Q278 790 177 884.5 Q76 979 76 1130 Q76 1287 183.5 1383 Q291 1479 469 1479 L948 1479 Z " />
<glyph glyph-name="germandbls" unicode="&#xdf;" horiz-adv-x="991" d="M684 1376 Q603 1376 547.5 1338.5 Q492 1301 444 1212 Q383 1095 294 734 Q257 585 236 504 Q82 -73 -39.5 -290.5 Q-161 -508 -313 -508 Q-378 -508 -419.5 -473.5 Q-461 -439 -461 -385 Q-461 -343 -435.5 -314 Q-410 -285 -375 -285 Q-334 -285 -307.5 -311.5 Q-281 -338 -281 -379 Q-281 -398 -292 -419 Q-303 -440 -303 -442 Q-303 -451 -294.5 -459 Q-286 -467 -274 -467 Q-244 -467 -203 -426 Q-162 -385 -133 -322 Q-94 -234 -8 167 Q23 313 41 395 Q126 775 185.5 937.5 Q245 1100 324 1204 Q395 1299 491 1353 Q587 1407 684 1407 Q803 1407 880.5 1337.5 Q958 1268 958 1161 Q958 1094 916.5 1032.5 Q875 971 795 920 Q775 907 739 885 Q545 763 545 682 Q545 624 686 524 Q722 499 741 485 Q801 443 827.5 398 Q854 353 854 295 Q854 163 755 69 Q656 -25 516 -25 Q411 -25 339.5 36 Q268 97 268 186 Q268 238 297 271.5 Q326 305 371 305 Q409 305 435 280.5 Q461 256 461 219 Q461 176 414 136.5 Q367 97 367 80 Q367 50 406 29 Q445 8 504 8 Q599 8 668 63 Q737 118 737 193 Q737 280 574 395 L559 406 Q472 466 445 501.5 Q418 537 418 578 Q418 636 457 695 Q496 754 575 813 Q590 824 617 844 Q877 1038 877 1192 Q877 1275 824 1325.5 Q771 1376 684 1376 Z " />
<glyph glyph-name="registered" unicode="&#xae;" horiz-adv-x="1683" d="M729 719 Q745 718 761 717.5 Q777 717 795 717 Q907 717 968.5 762.5 Q1030 808 1030 891 Q1030 964 977 1008.5 Q924 1053 834 1053 Q782 1053 755.5 1034.5 Q729 1016 729 981 L729 719 Z M469 1092 L862 1092 Q1009 1092 1094.5 1037.5 Q1180 983 1180 891 Q1180 815 1110.5 767 Q1041 719 893 692 Q986 663 1035 614.5 Q1084 566 1106 481 Q1112 459 1117 418 Q1130 330 1176 330 Q1208 330 1225.5 364 Q1243 398 1243 463 L1286 463 L1286 451 Q1286 363 1245.5 317.5 Q1205 272 1126 272 Q1080 272 1047.5 289 Q1015 306 999 338 Q981 378 978 451.5 Q975 525 969 547 Q949 615 898.5 647.5 Q848 680 762 680 L729 680 L729 432 Q729 378 755.5 356.5 Q782 335 854 331 L854 291 L469 291 L469 331 Q541 334 568.5 355.5 Q596 377 596 432 L596 948 Q596 1003 570 1024 Q544 1045 469 1049 L469 1092 Z M844 1303 Q722 1303 608 1255 Q494 1207 406 1118 Q318 1029 271.5 915.5 Q225 802 225 678 Q225 551 271.5 439 Q318 327 408 238 Q496 149 606.5 103 Q717 57 842 57 Q968 57 1078.5 103 Q1189 149 1276 238 Q1364 328 1411 441 Q1458 554 1458 678 Q1458 802 1410.5 919.5 Q1363 1037 1278 1120 Q1192 1207 1077.5 1255 Q963 1303 844 1303 Z M844 1382 Q982 1382 1112.5 1328 Q1243 1274 1341 1176 Q1438 1079 1491 948 Q1544 817 1544 676 Q1544 539 1488.5 408.5 Q1433 278 1331 176 Q1232 77 1106.5 26 Q981 -25 836 -25 Q699 -25 573 27.5 Q447 80 346 180 Q245 280 192 407 Q139 534 139 678 Q139 818 192 946.5 Q245 1075 344 1176 Q442 1275 572 1328.5 Q702 1382 844 1382 Z " />
<glyph glyph-name="copyright" unicode="&#xa9;" horiz-adv-x="1683" d="M1120 1096 L1155 1096 L1157 782 L1116 782 Q1082 919 1012 988 Q942 1057 836 1057 Q713 1057 650.5 962.5 Q588 868 588 684 Q588 495 655 399 Q722 303 854 303 Q940 303 1010 346 Q1080 389 1137 477 L1171 453 Q1113 348 1028 296 Q943 244 829 244 Q662 244 544 367 Q426 490 426 664 Q426 850 542 976 Q658 1102 827 1102 Q901 1102 975 1068 Q1049 1034 1057 1034 Q1084 1034 1099 1048.5 Q1114 1063 1120 1096 Z M844 1303 Q721 1303 606.5 1254.5 Q492 1206 406 1118 Q318 1029 271.5 915.5 Q225 802 225 678 Q225 553 272 439.5 Q319 326 408 238 Q496 149 606.5 103 Q717 57 842 57 Q968 57 1078.5 103 Q1189 149 1276 238 Q1364 328 1411 441 Q1458 554 1458 678 Q1458 802 1410.5 918.5 Q1363 1035 1278 1120 Q1192 1207 1077.5 1255 Q963 1303 844 1303 Z M844 1382 Q981 1382 1110.5 1328.5 Q1240 1275 1337 1178 Q1435 1081 1489.5 949.5 Q1544 818 1544 678 Q1544 538 1491 410 Q1438 282 1337 180 Q1239 80 1112 27.5 Q985 -25 842 -25 Q699 -25 573 27.5 Q447 80 346 180 Q245 280 192 407 Q139 534 139 678 Q139 818 192 946.5 Q245 1075 344 1176 Q442 1275 572 1328.5 Q702 1382 844 1382 Z " />
<glyph glyph-name="trademark" unicode="&#x2122;" horiz-adv-x="1683" d="M788 1438 L971 1438 L1112 1038 L1260 1438 L1434 1438 L1434 1413 L1404 1411 Q1382 1409 1370 1395.5 Q1358 1382 1358 1358 L1358 985 Q1358 961 1370 947.5 Q1382 934 1404 932 L1434 930 L1434 903 L1198 903 L1198 930 L1229 932 Q1250 934 1262 948 Q1274 962 1274 985 L1274 1380 L1096 901 L1081 901 L907 1380 L907 985 Q907 962 919.5 948 Q932 934 954 932 L985 930 L985 903 L788 903 L788 930 L822 932 Q843 934 854.5 948 Q866 962 866 985 L866 1356 Q866 1379 853.5 1393 Q841 1407 819 1409 L788 1411 L788 1438 Z M256 1438 L696 1438 L707 1260 L682 1260 Q674 1339 641.5 1375 Q609 1411 545 1411 L524 1411 L524 985 Q524 962 536 948 Q548 934 569 932 L600 930 L600 903 L352 903 L352 930 L383 932 Q404 933 416 947.5 Q428 962 428 985 L428 1411 L408 1411 Q344 1411 311 1375 Q278 1339 270 1260 L244 1260 L256 1438 Z " />
<glyph glyph-name="acute" unicode="&#xb4;" horiz-adv-x="1024" d="M485 950 L414 950 L713 1264 Q731 1284 752.5 1295.5 Q774 1307 793 1307 Q820 1307 841 1286 Q862 1265 862 1237 Q862 1215 846 1195.5 Q830 1176 793 1151 L485 950 Z " />
<glyph glyph-name="dieresis" unicode="&#xa8;" horiz-adv-x="1024" d="M311 1100 Q311 1138 341 1168 Q371 1198 410 1198 Q450 1198 479 1169 Q508 1140 508 1100 Q508 1056 480 1027.5 Q452 999 410 999 Q369 999 340 1029 Q311 1059 311 1100 Z M686 1100 Q686 1138 716 1168 Q746 1198 784 1198 Q824 1198 853.5 1169 Q883 1140 883 1100 Q883 1056 855 1027.5 Q827 999 784 999 Q744 999 715 1029 Q686 1059 686 1100 Z " />
<glyph glyph-name="notequal" unicode="&#x2260;" horiz-adv-x="1706" d="M1210 1180 L1298 1110 L1102 860 L1452 860 L1452 745 L1028 745 L817 475 L1452 475 L1452 360 L743 360 L492 41 L403 111 L600 360 L254 360 L254 475 L674 475 L885 745 L254 745 L254 860 L958 860 L1210 1180 Z " />
<glyph glyph-name="AE" unicode="&#xc6;" horiz-adv-x="1626" d="M324 0 L332 29 L485 29 L612 492 L168 492 L-104 143 Q-127 114 -137 95.5 Q-147 77 -147 66 Q-147 47 -122.5 38 Q-98 29 -49 29 L-23 29 L-31 0 L-330 0 L-322 28 Q-277 30 -236 54.5 Q-195 79 -160 125 L774 1327 L692 1327 L700 1356 L1651 1356 L1581 987 L1552 987 Q1553 989 1553 993 Q1556 1035 1556 1057 Q1556 1190 1494 1258.5 Q1432 1327 1311 1327 L1036 1327 L874 752 L991 752 Q1106 752 1147.5 790 Q1189 828 1223 958 L1253 958 L1114 449 L1085 449 Q1103 515 1111.5 558.5 Q1120 602 1120 618 Q1120 667 1084 695 Q1048 723 985 723 L864 723 L676 29 L1006 29 Q1166 29 1280.5 133 Q1395 237 1432 416 L1460 416 L1376 0 L324 0 Z M621 520 L854 1327 L819 1327 L190 520 L621 520 Z " />
<glyph glyph-name="Oslash" unicode="&#xd8;" horiz-adv-x="1346" d="M242 78 Q148 168 101.5 279 Q55 390 55 522 Q55 670 108 816 Q161 962 258 1083 Q376 1232 517 1309 Q658 1386 811 1386 Q901 1386 974.5 1358.5 Q1048 1331 1108 1274 L1206 1407 L1235 1386 L1139 1247 Q1214 1174 1252 1069 Q1290 964 1290 831 Q1290 683 1238 539 Q1186 395 1087 270 Q973 127 833.5 49 Q694 -29 553 -29 Q468 -29 399 -8.5 Q330 12 276 53 L186 -70 L158 -47 L242 78 Z M285 133 L1069 1214 Q1032 1288 968.5 1325 Q905 1362 817 1362 Q698 1362 607.5 1300.5 Q517 1239 449 1112 Q355 941 300.5 732 Q246 523 246 338 Q246 269 255 220.5 Q264 172 285 133 Z M1083 1174 L307 96 Q341 48 405 23 Q469 -2 557 -2 Q684 -2 777.5 81.5 Q871 165 952 352 Q986 431 1014.5 523.5 Q1043 616 1065 717 Q1086 815 1097 888.5 Q1108 962 1108 1010 Q1108 1044 1102 1085 Q1096 1126 1083 1174 Z " />
<glyph glyph-name="infinity" unicode="&#x221e;" horiz-adv-x="1706" d="M905 559 Q956 464 1024 417.5 Q1092 371 1180 371 Q1282 371 1348.5 442 Q1415 513 1415 623 Q1415 731 1354 802.5 Q1293 874 1202 874 Q1117 874 1048.5 801.5 Q980 729 905 559 Z M803 666 Q752 761 684 808.5 Q616 856 530 856 Q425 856 359 785 Q293 714 293 602 Q293 494 354 423 Q415 352 506 352 Q591 352 658 421 Q725 490 803 666 Z M866 494 Q795 356 718 292.5 Q641 229 545 229 Q411 229 319 338 Q227 447 227 610 Q227 782 309.5 887.5 Q392 993 524 993 Q621 993 696 930 Q771 867 840 727 Q907 865 986 931 Q1065 997 1161 997 Q1295 997 1387 888.5 Q1479 780 1479 616 Q1479 445 1397 339 Q1315 233 1184 233 Q1088 233 1015 293 Q942 353 866 494 Z " />
<glyph glyph-name="plusminus" unicode="&#xb1;" horiz-adv-x="1706" d="M254 158 L1452 158 L1452 41 L254 41 L254 158 Z M795 1180 L913 1180 L913 836 L1452 836 L1452 719 L913 719 L913 375 L795 375 L795 719 L254 719 L254 836 L795 836 L795 1180 Z " />
<glyph glyph-name="lessequal" unicode="&#x2264;" horiz-adv-x="1706" d="M262 150 L1444 150 L1444 33 L262 33 L262 150 Z M1444 1192 L1444 1067 L467 743 L1444 420 L1444 295 L262 694 L262 795 L1444 1192 Z " />
<glyph glyph-name="greaterequal" unicode="&#x2265;" horiz-adv-x="1706" d="M262 150 L1444 150 L1444 33 L262 33 L262 150 Z M262 1192 L1444 795 L1444 694 L262 295 L262 420 L1241 743 L262 1067 L262 1192 Z " />
<glyph glyph-name="yen" unicode="&#xa5;" horiz-adv-x="985" d="M37 0 L43 29 L199 29 L348 565 L342 614 L33 614 L45 662 L340 662 L324 829 L92 829 L104 877 L322 877 L287 1311 L154 1311 L154 1337 L600 1337 L600 1311 L440 1311 L498 614 L920 1190 Q940 1217 951.5 1238.5 Q963 1260 963 1270 Q963 1293 942.5 1303 Q922 1313 872 1313 Q867 1313 852.5 1312 Q838 1311 829 1311 L838 1337 L1122 1337 L1116 1311 Q1043 1311 992 1239 Q988 1233 985 1229 L735 877 L977 877 L963 829 L702 829 L582 662 L915 662 L903 614 L549 614 L500 549 L365 29 L530 29 L524 0 L37 0 Z " />
<glyph glyph-name="mu" unicode="&#xb5;" horiz-adv-x="1120" d="M164 193 Q137 57 112 -146 Q78 -418 0 -418 Q-37 -418 -58.5 -394.5 Q-80 -371 -80 -330 Q-80 -290 -15.5 -56.5 Q49 177 90 371 L199 885 L346 885 L242 393 Q236 363 232.5 334.5 Q229 306 229 281 Q229 198 271 152 Q313 106 389 106 Q487 106 552.5 174.5 Q618 243 647 375 L758 885 L907 885 L793 354 Q780 295 776 266.5 Q772 238 772 217 Q772 169 798 139 Q824 109 864 109 Q899 109 929.5 127 Q960 145 981 178 Q1002 211 1022 271.5 Q1042 332 1061 332 Q1073 332 1080 322 Q1087 312 1087 295 Q1087 270 1076 228.5 Q1065 187 1047 145 Q1009 63 952 22.5 Q895 -18 817 -18 Q749 -18 708.5 33 Q668 84 668 172 L668 195 Q622 85 552 31 Q482 -23 387 -23 Q291 -23 234.5 31.5 Q178 86 164 193 Z " />
<glyph glyph-name="partialdiff" unicode="&#x2202;" horiz-adv-x="1044" d="M754 604 Q767 685 773.5 765.5 Q780 846 780 924 Q780 1064 740.5 1140.5 Q701 1217 629 1217 Q576 1217 512 1153.5 Q448 1090 403 1090 Q374 1090 352 1111.5 Q330 1133 330 1163 Q330 1222 398 1268.5 Q466 1315 561 1315 Q732 1315 834 1162.5 Q936 1010 936 750 Q936 415 797 195 Q658 -25 453 -25 Q306 -25 211.5 81.5 Q117 188 117 354 Q117 543 225.5 670 Q334 797 492 797 Q591 797 654.5 750 Q718 703 754 604 Z M709 483 Q709 600 664 663.5 Q619 727 537 727 Q424 727 352.5 599.5 Q281 472 281 266 Q281 149 325 88 Q369 27 453 27 Q564 27 636.5 155 Q709 283 709 483 Z " />
<glyph glyph-name="summation" unicode="&#x2211;" horiz-adv-x="1434" d="M12 1473 L1147 1473 L1245 1133 L1171 1133 L1104 1352 Q1096 1379 1072 1391 Q1048 1403 999 1403 L258 1403 L1122 553 L1122 516 L264 -240 L1157 -240 Q1217 -240 1234.5 -227 Q1252 -214 1264 -176 L1335 53 L1409 53 L1274 -393 L14 -393 L14 -365 L973 473 L12 1423 L12 1473 Z " />
<glyph glyph-name="product" unicode="&#x220f;" horiz-adv-x="1595" d="M57 1473 L1536 1473 L1536 1403 L1350 1403 L1350 -324 L1536 -324 L1536 -393 L981 -393 L981 -324 L1178 -324 L1178 1403 L416 1403 L416 -324 L612 -324 L612 -393 L57 -393 L57 -324 L244 -324 L244 1403 L57 1403 L57 1473 Z " />
<glyph glyph-name="pi" unicode="&#x3c0;" horiz-adv-x="1354" d="M1329 885 L1294 723 L965 723 Q931 544 911 271 Q888 -43 791 -43 Q753 -43 733 -18.5 Q713 6 713 51 Q713 109 790 331.5 Q867 554 907 723 L532 723 Q499 546 479 275 Q454 -43 356 -43 Q319 -43 299 -18 Q279 7 279 53 Q279 109 356.5 330 Q434 551 475 723 L342 723 Q206 723 162 679.5 Q118 636 90 508 L31 508 Q68 715 148.5 800 Q229 885 387 885 L1329 885 Z " />
<glyph glyph-name="integral" unicode="&#x222b;" horiz-adv-x="1020" d="M301 -268 Q404 -268 417 396 Q420 537 422 612 Q434 1115 524 1331.5 Q614 1548 805 1548 Q881 1548 927 1509 Q973 1470 973 1405 Q973 1357 942 1327.5 Q911 1298 860 1298 Q807 1298 775 1333 Q743 1368 743 1425 Q743 1433 737 1440.5 Q731 1448 723 1448 Q618 1448 604 814 Q601 657 598 569 Q588 261 566.5 108 Q545 -45 504 -139 Q455 -253 381 -312 Q307 -371 213 -371 Q140 -371 93.5 -333 Q47 -295 47 -236 Q47 -183 78.5 -152 Q110 -121 162 -121 Q209 -121 241.5 -150 Q274 -179 274 -217 Q274 -241 281.5 -254.5 Q289 -268 301 -268 Z " />
<glyph glyph-name="ordfeminine" unicode="&#xaa;" horiz-adv-x="723" d="M467 1151 Q472 1170 473.5 1181.5 Q475 1193 475 1204 Q475 1260 442 1295.5 Q409 1331 358 1331 Q300 1331 253 1297 Q206 1263 166 1192 Q132 1131 111 1054 Q90 977 90 913 Q90 847 117.5 811.5 Q145 776 197 776 Q265 776 324.5 827 Q384 878 410 963 L467 1151 Z M508 895 Q498 863 493.5 846.5 Q489 830 489 823 Q489 806 499 794 Q509 782 522 782 Q545 782 581 815 Q617 848 659 907 L678 895 Q621 814 577.5 783 Q534 752 481 752 Q440 752 414 775.5 Q388 799 377 846 Q332 799 285.5 776.5 Q239 754 188 754 Q94 754 35.5 817.5 Q-23 881 -23 985 Q-23 1049 -3.5 1106.5 Q16 1164 53 1210 Q107 1278 181.5 1317 Q256 1356 332 1356 Q400 1356 440.5 1325 Q481 1294 492 1235 L526 1339 L643 1339 L508 895 Z " />
<glyph glyph-name="ordmasculine" unicode="&#xba;" horiz-adv-x="668" d="M221 752 Q114 752 49 817.5 Q-16 883 -16 991 Q-16 1053 9 1114.5 Q34 1176 80 1227 Q142 1295 206 1325.5 Q270 1356 350 1356 Q451 1356 512 1291.5 Q573 1227 573 1120 Q573 1055 548.5 993.5 Q524 932 477 881 Q420 816 356.5 784 Q293 752 221 752 Z M342 1339 Q292 1339 253 1307 Q214 1275 176 1200 Q137 1122 113.5 1038 Q90 954 90 899 Q90 836 122.5 803 Q155 770 217 770 Q267 770 307 803 Q347 836 383 907 Q421 982 444 1066.5 Q467 1151 467 1210 Q467 1276 436.5 1307.5 Q406 1339 342 1339 Z " />
<glyph glyph-name="Omega" unicode="&#x3a9;" horiz-adv-x="1567" d="M1100 188 L1100 162 L1413 162 L1479 365 L1540 365 L1432 0 L932 0 Q1066 233 1134 451 Q1202 669 1202 864 Q1202 1135 1094.5 1280 Q987 1425 786 1425 Q585 1425 477 1280 Q369 1135 369 864 Q369 669 437 453 Q505 237 641 0 L141 0 L31 365 L92 365 L160 162 L471 162 L471 188 Q306 391 237 549.5 Q168 708 168 877 Q168 1149 342.5 1323 Q517 1497 786 1497 Q1055 1497 1229 1322.5 Q1403 1148 1403 877 Q1403 708 1334 549.5 Q1265 391 1100 188 Z " />
<glyph glyph-name="ae" unicode="&#xe6;" horiz-adv-x="1229" d="M654 463 Q696 456 730.5 452.5 Q765 449 793 449 Q899 449 954.5 516.5 Q1010 584 1010 715 Q1010 764 986.5 787.5 Q963 811 915 811 Q837 811 768 720 Q699 629 654 463 Z M492 109 Q435 41 366.5 9 Q298 -23 209 -23 Q100 -23 24.5 45.5 Q-51 114 -51 211 Q-51 338 63 412.5 Q177 487 375 487 Q403 487 479 482 Q499 480 510 479 Q522 524 528.5 564.5 Q535 605 535 639 Q535 729 493.5 772 Q452 815 367 815 Q304 815 259.5 791.5 Q215 768 215 737 Q215 733 237.5 700 Q260 667 260 637 Q260 602 239 580.5 Q218 559 182 559 Q143 559 117.5 583.5 Q92 608 92 647 Q92 728 171.5 784 Q251 840 369 840 Q469 840 538 799.5 Q607 759 645 678 Q706 757 779.5 798.5 Q853 840 932 840 Q1021 840 1078 788.5 Q1135 737 1135 657 Q1135 556 1051.5 485 Q968 414 846 414 Q815 414 764 419 Q713 424 645 434 Q621 325 612.5 273.5 Q604 222 604 188 Q604 105 644.5 57.5 Q685 10 756 10 Q842 10 922.5 68 Q1003 126 1059 229 L1085 213 Q1020 97 931.5 37 Q843 -23 735 -23 Q648 -23 585 11 Q522 45 492 109 Z M503 455 Q479 458 457.5 459.5 Q436 461 418 461 Q266 461 182 378.5 Q98 296 98 147 Q98 84 136 45 Q174 6 233 6 Q321 6 383.5 108.5 Q446 211 503 455 Z " />
<glyph glyph-name="oslash" unicode="&#xf8;" horiz-adv-x="891" d="M23 -39 L86 49 Q32 104 6 171 Q-20 238 -20 324 Q-20 410 10.5 492.5 Q41 575 102 651 Q180 748 267.5 795 Q355 842 457 842 Q504 842 548 829 Q592 816 635 788 L700 877 L731 860 L664 770 Q714 712 739 645.5 Q764 579 764 502 Q764 414 732.5 329 Q701 244 641 170 Q563 73 476.5 25 Q390 -23 295 -23 Q240 -23 196 -11.5 Q152 0 115 25 L53 -57 L23 -39 Z M127 102 L598 743 Q581 780 546 797.5 Q511 815 457 815 Q388 815 334.5 767.5 Q281 720 233 616 Q181 503 150 386 Q119 269 119 193 Q119 171 121 148 Q123 125 127 102 Z M150 72 Q170 38 206 20 Q242 2 289 2 Q357 2 411.5 52.5 Q466 103 514 211 Q566 324 594.5 434.5 Q623 545 623 631 Q623 648 621 666 Q619 684 614 706 L150 72 Z " />
<glyph glyph-name="questiondown" unicode="&#xbf;" horiz-adv-x="920" d="M852 1290 Q852 1252 825 1225 Q798 1198 760 1198 Q722 1198 696 1224.5 Q670 1251 670 1290 Q670 1329 695.5 1354.5 Q721 1380 760 1380 Q798 1380 825 1353.5 Q852 1327 852 1290 Z M653 979 L682 971 L602 723 Q582 661 562.5 616.5 Q543 572 524 547 Q486 497 409 470 Q395 465 389 463 Q235 404 160.5 336 Q86 268 86 186 Q86 107 153 52.5 Q220 -2 319 -2 Q403 -2 464.5 34.5 Q526 71 526 117 Q526 143 493 157 Q479 162 471 166 Q447 179 435.5 197.5 Q424 216 424 242 Q424 275 445 295 Q466 315 502 315 Q545 315 570.5 285.5 Q596 256 596 205 Q596 104 518 35.5 Q440 -33 326 -33 Q190 -33 111.5 47.5 Q33 128 33 266 Q33 380 108 472 Q183 564 332 633 Q348 641 385 655 Q498 701 549 750 Q587 786 614 862 Q616 868 616 870 L653 979 Z " />
<glyph glyph-name="exclamdown" unicode="&#xa1;" horiz-adv-x="674" d="M641 1294 Q641 1256 615 1229 Q589 1202 551 1202 Q513 1202 486 1229 Q459 1256 459 1294 Q459 1332 485.5 1358 Q512 1384 551 1384 Q589 1384 615 1358 Q641 1332 641 1294 Z M432 1032 L461 1024 Q388 777 356 614 Q324 451 324 336 Q324 303 325 278.5 Q326 254 328 227 Q262 187 214 125.5 Q166 64 127 -29 Q127 -21 128 -6 Q131 63 131 92 Q131 141 119.5 175.5 Q108 210 84 236 Q183 361 270.5 562 Q358 763 432 1032 Z " />
<glyph glyph-name="logicalnot" unicode="&#xac;" horiz-adv-x="1706" d="M254 858 L1452 858 L1452 356 L1337 356 L1337 741 L254 741 L254 858 Z " />
<glyph glyph-name="radical" unicode="&#x221a;" horiz-adv-x="1288" d="M1106 1647 L1288 1647 L1288 1565 L1169 1565 L575 -41 L522 -41 L199 852 L80 809 L57 877 L319 969 L584 240 L1106 1647 Z " />
<glyph glyph-name="florin" unicode="&#x192;" horiz-adv-x="985" d="M213 705 L223 739 L389 739 Q482 1039 612.5 1199.5 Q743 1360 893 1360 Q956 1360 993 1331 Q1030 1302 1030 1253 Q1030 1209 1007 1184 Q984 1159 942 1159 Q906 1159 881 1181.5 Q856 1204 856 1237 Q856 1253 864 1275.5 Q872 1298 872 1305 Q872 1318 866.5 1325.5 Q861 1333 852 1333 Q779 1333 701 1178.5 Q623 1024 553 739 L748 739 L737 705 L547 705 Q377 31 247.5 -219 Q118 -469 -43 -469 Q-100 -469 -136 -438.5 Q-172 -408 -172 -360 Q-172 -322 -147.5 -297 Q-123 -272 -86 -272 Q-50 -272 -29 -295.5 Q-8 -319 -8 -358 Q-8 -370 -20.5 -388.5 Q-33 -407 -33 -416 Q-33 -426 -28 -432 Q-23 -438 -14 -438 Q39 -438 94 -369.5 Q149 -301 178 -193 Q195 -130 256.5 168.5 Q318 467 377 705 L213 705 Z " />
<glyph glyph-name="approxequal" unicode="&#x2248;" horiz-adv-x="1706" d="M1530 584 L1530 453 Q1423 378 1328 342.5 Q1233 307 1141 307 Q1043 307 853 376.5 Q663 446 563 446 Q481 446 393.5 410.5 Q306 375 178 287 L178 418 Q286 492 381.5 528.5 Q477 565 565 565 Q676 565 866.5 495.5 Q1057 426 1143 426 Q1228 426 1316.5 461.5 Q1405 497 1530 584 Z M1530 934 L1530 803 Q1426 730 1330 694.5 Q1234 659 1143 659 Q1043 659 853 728 Q663 797 563 797 Q480 797 391.5 761 Q303 725 178 639 L178 770 Q284 843 380 879 Q476 915 565 915 Q676 915 865.5 846.5 Q1055 778 1143 778 Q1230 778 1318 813 Q1406 848 1530 934 Z " />
<glyph glyph-name="increment" unicode="&#x2206;" horiz-adv-x="1208" d="M555 1212 L166 170 L934 170 L555 1212 Z M596 1497 L625 1497 L1180 0 L29 0 L596 1497 Z " />
<glyph glyph-name="guillemotleft" unicode="&#xab;" horiz-adv-x="909" d="M389 412 Q478 480 563 551 Q648 622 731 698 L762 698 Q722 632 659.5 561 Q597 490 504 406 L524 367 Q618 186 647 104 L616 104 Q574 170 516.5 247.5 Q459 325 389 412 Z M45 412 Q140 484 226 556 Q312 628 389 698 L418 698 Q378 632 315.5 561 Q253 490 160 406 L180 367 Q274 186 303 104 L272 104 Q230 170 172.5 247.5 Q115 325 45 412 Z " />
<glyph glyph-name="guillemotright" unicode="&#xbb;" horiz-adv-x="909" d="M709 391 Q614 319 527.5 247 Q441 175 365 104 L336 104 Q376 171 438.5 242 Q501 313 594 397 L574 436 Q479 617 451 698 L481 698 Q524 633 581.5 555 Q639 477 709 391 Z M367 391 Q278 323 192.5 251.5 Q107 180 25 104 L-6 104 Q34 171 96.5 242 Q159 313 252 397 L232 436 Q137 617 109 698 L139 698 Q182 633 239.5 555 Q297 477 367 391 Z " />
<glyph glyph-name="ellipsis" unicode="&#x2026;" horiz-adv-x="2048" d="M137 76 Q137 114 163.5 140 Q190 166 229 166 Q268 166 293.5 140 Q319 114 319 76 Q319 37 293.5 11.5 Q268 -14 229 -14 Q191 -14 164 12.5 Q137 39 137 76 Z M819 76 Q819 114 845.5 140 Q872 166 911 166 Q950 166 975.5 140 Q1001 114 1001 76 Q1001 37 975.5 11.5 Q950 -14 911 -14 Q873 -14 846 12.5 Q819 39 819 76 Z M1503 76 Q1503 114 1529.5 140 Q1556 166 1595 166 Q1634 166 1659.5 140 Q1685 114 1685 76 Q1685 37 1659.5 11.5 Q1634 -14 1595 -14 Q1557 -14 1530 12.5 Q1503 39 1503 76 Z " />
<glyph glyph-name="nbspace" unicode="&#xa0;" horiz-adv-x="985" d="" />
<glyph glyph-name="Agrave" unicode="&#xc0;" horiz-adv-x="971" d="M215 516 L565 516 L565 1077 L215 516 Z M-240 0 L-240 29 Q-177 29 -138.5 52.5 Q-100 76 -45 164 L719 1384 L750 1384 L750 29 L874 29 L874 0 L403 0 L403 29 L565 29 L565 487 L199 487 L-20 143 Q-37 117 -43 101.5 Q-49 86 -49 74 Q-49 52 -21.5 42 Q6 32 82 28 L82 0 L-240 0 Z M911 1497 L843 1497 L600 1700 Q568 1726 556 1745 Q544 1764 544 1786 Q544 1814 564.5 1835 Q585 1856 612 1856 Q633 1856 656 1840.5 Q679 1825 698 1798 L911 1497 Z " />
<glyph glyph-name="Atilde" unicode="&#xc3;" horiz-adv-x="971" d="M215 516 L565 516 L565 1077 L215 516 Z M-240 0 L-240 29 Q-177 29 -138.5 52.5 Q-100 76 -45 164 L719 1384 L750 1384 L750 29 L874 29 L874 0 L403 0 L403 29 L565 29 L565 487 L199 487 L-20 143 Q-37 117 -43 101.5 Q-49 86 -49 74 Q-49 52 -21.5 42 Q6 32 82 28 L82 0 L-240 0 Z M1077 1766 Q1058 1667 1014 1619 Q970 1571 897 1571 Q879 1571 864 1573 Q849 1575 835 1579 L704 1616 Q680 1622 664 1624 Q648 1626 635 1626 Q596 1626 573 1607.5 Q550 1589 542 1553 L493 1553 Q509 1646 551.5 1691.5 Q594 1737 665 1737 Q687 1737 705.5 1734.5 Q724 1732 741 1727 L870 1690 Q891 1685 903.5 1683.5 Q916 1682 927 1682 Q968 1682 992.5 1702 Q1017 1722 1028 1766 L1077 1766 Z " />
<glyph glyph-name="Otilde" unicode="&#xd5;" horiz-adv-x="1346" d="M795 1360 Q691 1360 605.5 1303.5 Q520 1247 461 1139 Q415 1059 376.5 958 Q338 857 305 733 Q273 614 256.5 512.5 Q240 411 240 332 Q240 170 321 83 Q402 -4 553 -4 Q657 -4 741 51.5 Q825 107 887 217 Q930 292 968.5 393.5 Q1007 495 1042 623 Q1075 741 1091.5 842.5 Q1108 944 1108 1022 Q1108 1185 1027 1272.5 Q946 1360 795 1360 Z M549 -29 Q330 -29 192.5 125 Q55 279 55 526 Q55 671 108 816.5 Q161 962 258 1083 Q376 1232 512.5 1308 Q649 1384 797 1384 Q1015 1384 1152.5 1230.5 Q1290 1077 1290 831 Q1290 684 1238 539.5 Q1186 395 1087 272 Q970 124 833 47.5 Q696 -29 549 -29 Z M1190 1766 Q1171 1667 1127 1619 Q1083 1571 1010 1571 Q992 1571 977 1573 Q962 1575 948 1579 L817 1616 Q793 1622 777 1624 Q761 1626 748 1626 Q709 1626 686 1607.5 Q663 1589 655 1553 L606 1553 Q622 1646 664.5 1691.5 Q707 1737 778 1737 Q800 1737 818.5 1734.5 Q837 1732 854 1727 L983 1690 Q1004 1685 1016.5 1683.5 Q1029 1682 1040 1682 Q1081 1682 1105.5 1702 Q1130 1722 1141 1766 L1190 1766 Z " />
<glyph glyph-name="OE" unicode="&#x152;" horiz-adv-x="1896" d="M825 229 L1087 1157 Q1095 1185 1099.5 1210.5 Q1104 1236 1104 1255 Q1104 1300 1062 1319.5 Q1020 1339 922 1339 Q748 1339 637.5 1277.5 Q527 1216 438 1071 Q351 927 295.5 726.5 Q240 526 240 354 Q240 186 325 105.5 Q410 25 588 25 Q705 25 746 59 Q787 93 825 229 Z M905 0 Q819 0 713 -3 Q607 -6 588 -6 Q330 -6 188.5 128.5 Q47 263 47 508 Q47 667 109 825.5 Q171 984 285 1114 Q402 1248 542 1308 Q682 1368 879 1368 Q956 1368 1085.5 1362 Q1215 1356 1266 1356 L1935 1356 L1868 987 L1837 987 Q1837 989 1838 993 Q1841 1035 1841 1057 Q1841 1190 1779 1258.5 Q1717 1327 1595 1327 L1323 1327 L1159 752 L1276 752 Q1390 752 1432 790.5 Q1474 829 1507 958 L1538 958 L1401 449 L1372 449 Q1388 510 1396.5 554.5 Q1405 599 1405 618 Q1405 667 1369 695 Q1333 723 1270 723 L1151 723 L961 29 L1290 29 Q1450 29 1565 133 Q1680 237 1716 416 L1745 416 L1661 0 L905 0 Z " />
<glyph glyph-name="oe" unicode="&#x153;" horiz-adv-x="1208" d="M702 475 Q739 461 769.5 453.5 Q800 446 825 446 Q914 446 973 521.5 Q1032 597 1032 711 Q1032 759 1010 785 Q988 811 946 811 Q873 811 810 724 Q747 637 702 475 Z M547 125 Q493 54 419.5 15.5 Q346 -23 264 -23 Q137 -23 57 72 Q-23 167 -23 319 Q-23 410 8.5 498 Q40 586 98 662 Q165 748 250.5 794 Q336 840 430 840 Q515 840 576.5 800 Q638 760 674 684 Q739 758 816 799 Q893 840 967 840 Q1054 840 1105.5 792 Q1157 744 1157 664 Q1157 562 1066 489 Q975 416 848 416 Q816 416 777.5 422 Q739 428 694 440 Q671 346 660 282 Q649 218 649 176 Q649 99 688.5 55.5 Q728 12 797 12 Q872 12 945 67 Q1018 122 1079 225 L1104 211 Q1039 97 956 38.5 Q873 -20 778 -20 Q705 -20 646.5 16.5 Q588 53 547 125 Z M430 811 Q363 811 315.5 766 Q268 721 225 616 Q171 485 141 365 Q111 245 111 166 Q111 92 152 48 Q193 4 262 4 Q330 4 379 54 Q428 104 473 223 Q520 347 545.5 464 Q571 581 571 662 Q571 736 535.5 773.5 Q500 811 430 811 Z " />
<glyph glyph-name="endash" unicode="&#x2013;" horiz-adv-x="1024" d="M950 467 L918 352 L-74 352 L-43 467 L950 467 Z " />
<glyph glyph-name="emdash" unicode="&#x2014;" horiz-adv-x="2048" d="M-90 352 L-59 467 L1989 467 L1958 352 L-90 352 Z " />
<glyph glyph-name="quotedblleft" unicode="&#x201c;" horiz-adv-x="872" d="M915 1384 L928 1356 Q800 1304 720.5 1229.5 Q641 1155 641 1094 Q641 1057 700 1054 Q725 1053 739 1051 Q793 1041 821.5 1014 Q850 987 850 946 Q850 902 819 872 Q788 842 741 842 Q673 842 628.5 892.5 Q584 943 584 1022 Q584 1134 671.5 1230 Q759 1326 915 1384 Z M537 1384 L549 1356 Q421 1304 341.5 1229.5 Q262 1155 262 1094 Q262 1057 321 1054 Q346 1053 360 1051 Q412 1042 440.5 1014.5 Q469 987 469 946 Q469 902 439 872 Q409 842 362 842 Q294 842 249.5 892.5 Q205 943 205 1022 Q205 1134 292.5 1230 Q380 1326 537 1384 Z " />
<glyph glyph-name="quotedblright" unicode="&#x201d;" horiz-adv-x="872" d="M557 844 L547 872 Q674 924 752.5 997.5 Q831 1071 831 1133 Q831 1170 772 1174 Q748 1176 735 1178 Q682 1187 653.5 1213.5 Q625 1240 625 1280 Q625 1324 656 1354 Q687 1384 733 1384 Q802 1384 846.5 1334.5 Q891 1285 891 1206 Q891 1094 802.5 998 Q714 902 557 844 Z M178 844 L168 872 Q295 924 374 997.5 Q453 1071 453 1133 Q453 1170 393 1174 Q369 1176 356 1178 Q303 1187 274.5 1213.5 Q246 1240 246 1280 Q246 1324 277 1354 Q308 1384 354 1384 Q423 1384 467.5 1334.5 Q512 1285 512 1206 Q512 1094 423.5 998 Q335 902 178 844 Z " />
<glyph glyph-name="quoteleft" unicode="&#x2018;" horiz-adv-x="494" d="M537 1384 L549 1356 Q421 1304 341.5 1229.5 Q262 1155 262 1094 Q262 1057 321 1054 Q346 1053 360 1051 Q412 1042 440.5 1014.5 Q469 987 469 946 Q469 902 439 872 Q409 842 362 842 Q294 842 249.5 892.5 Q205 943 205 1022 Q205 1134 292.5 1230 Q380 1326 537 1384 Z " />
<glyph glyph-name="quoteright" unicode="&#x2019;" horiz-adv-x="494" d="M178 844 L168 872 Q295 924 374 997.5 Q453 1071 453 1133 Q453 1170 393 1174 Q369 1176 356 1178 Q303 1187 274.5 1213.5 Q246 1240 246 1280 Q246 1324 277 1354 Q308 1384 354 1384 Q423 1384 467.5 1334.5 Q512 1285 512 1206 Q512 1094 423.5 998 Q335 902 178 844 Z " />
<glyph glyph-name="divide" unicode="&#xf7;" horiz-adv-x="1706" d="M854 365 Q901 365 935 331 Q969 297 969 250 Q969 203 935.5 169 Q902 135 854 135 Q806 135 772.5 168.5 Q739 202 739 250 Q739 298 773 331.5 Q807 365 854 365 Z M254 670 L1452 670 L1452 553 L254 553 L254 670 Z M854 1085 Q902 1085 935.5 1051.5 Q969 1018 969 971 Q969 923 935.5 889.5 Q902 856 854 856 Q805 856 772 889.5 Q739 923 739 971 Q739 1018 773 1051.5 Q807 1085 854 1085 Z " />
<glyph glyph-name="lozenge" unicode="&#x25ca;" horiz-adv-x="1012" d="M506 1409 L121 592 L506 -233 L891 592 L506 1409 Z M506 1653 L1006 592 L506 -477 L6 592 L506 1653 Z " />
<glyph glyph-name="ydieresis" unicode="&#xff;" horiz-adv-x="924" d="M201 637 Q194 698 179.5 724 Q165 750 137 750 Q114 750 76 702.5 Q38 655 -6 569 L-37 582 Q25 713 88.5 775.5 Q152 838 223 838 Q281 838 314 802 Q347 766 354 694 L410 188 L631 612 Q690 726 745.5 783 Q801 840 850 840 Q894 840 922 813.5 Q950 787 950 745 Q950 704 926 677.5 Q902 651 864 651 Q828 651 806 670.5 Q784 690 784 721 Q784 732 790.5 748.5 Q797 765 797 770 Q797 772 795.5 774 Q794 776 793 776 Q776 776 734 719 Q692 662 645 573 L422 152 Q213 -248 90 -378 Q-33 -508 -170 -508 Q-228 -508 -265.5 -475 Q-303 -442 -303 -391 Q-303 -343 -275 -311 Q-247 -279 -205 -279 Q-166 -279 -143.5 -302.5 Q-121 -326 -121 -369 Q-121 -408 -157 -446 Q-164 -453 -164 -455 Q-164 -460 -154.5 -462.5 Q-145 -465 -123 -465 Q-35 -465 68.5 -355.5 Q172 -246 279 -41 L201 637 Z M262 1100 Q262 1138 292 1168 Q322 1198 361 1198 Q401 1198 430 1169 Q459 1140 459 1100 Q459 1056 431 1027.5 Q403 999 361 999 Q320 999 291 1029 Q262 1059 262 1100 Z M637 1100 Q637 1138 667 1168 Q697 1198 735 1198 Q775 1198 804.5 1169 Q834 1140 834 1100 Q834 1056 806 1027.5 Q778 999 735 999 Q695 999 666 1029 Q637 1059 637 1100 Z " />
<glyph glyph-name="Ydieresis" unicode="&#x178;" horiz-adv-x="883" d="M-47 0 L-39 29 L117 29 L268 571 L207 1327 L72 1327 L72 1356 L553 1356 L553 1327 L389 1327 L449 614 L877 1206 Q898 1237 909 1257 Q920 1277 920 1286 Q920 1309 900.5 1319 Q881 1329 834 1329 Q827 1329 810.5 1328 Q794 1327 784 1327 L793 1356 L1081 1356 L1075 1327 Q1002 1327 950 1255 Q945 1247 942 1243 L449 557 L313 29 L481 29 L475 0 L-47 0 Z M399 1645 Q399 1683 429 1713 Q459 1743 498 1743 Q538 1743 567 1714 Q596 1685 596 1645 Q596 1601 568 1572.5 Q540 1544 498 1544 Q457 1544 428 1574 Q399 1604 399 1645 Z M774 1645 Q774 1683 804 1713 Q834 1743 872 1743 Q912 1743 941.5 1714 Q971 1685 971 1645 Q971 1601 943 1572.5 Q915 1544 872 1544 Q832 1544 803 1574 Q774 1604 774 1645 Z " />
<glyph glyph-name="fraction" unicode="&#x2215;" horiz-adv-x="342" d="M-281 -25 L-342 -25 L621 1360 L682 1360 L-281 -25 Z " />
<glyph glyph-name="currency" unicode="&#xa4;" horiz-adv-x="985" d="M895 326 Q816 155 705.5 65 Q595 -25 463 -25 Q287 -25 180.5 118.5 Q74 262 74 504 L74 535 L-45 535 L-25 582 L76 582 Q80 626 88 669 Q96 712 106 752 L-10 752 L10 799 L119 799 Q200 1050 359 1204 Q518 1358 690 1358 Q797 1358 886 1296.5 Q975 1235 985 1235 Q1006 1235 1018 1250 Q1030 1265 1036 1298 L1065 1298 L991 842 L961 842 Q969 883 973 917.5 Q977 952 977 981 Q977 1135 901 1231 Q825 1327 707 1327 Q580 1327 484.5 1201.5 Q389 1076 307 799 L692 799 L672 752 L295 752 Q284 714 274.5 672.5 Q265 631 256 582 L596 582 L575 535 L248 535 Q240 485 235.5 440 Q231 395 231 352 Q231 202 300 107 Q369 12 475 12 Q590 12 692.5 98.5 Q795 185 864 342 L895 326 Z " />
<glyph glyph-name="guilsinglleft" unicode="&#x2039;" horiz-adv-x="569" d="M45 412 Q140 484 226 556 Q312 628 389 698 L418 698 Q378 632 315.5 561 Q253 490 160 406 L180 367 Q274 186 303 104 L272 104 Q230 170 172.5 247.5 Q115 325 45 412 Z " />
<glyph glyph-name="guilsinglright" unicode="&#x203a;" horiz-adv-x="569" d="M371 391 Q282 323 197 251.5 Q112 180 29 104 L-2 104 Q38 171 100.5 242 Q163 313 256 397 L253 402 Q147 608 115 698 L143 698 Q186 633 243.5 555 Q301 477 371 391 Z " />
<glyph glyph-name="fi" unicode="&#xf001;" horiz-adv-x="981" d="M356 815 L637 815 Q709 815 757 821 Q805 827 848 840 L639 170 Q627 130 621.5 108.5 Q616 87 616 78 Q616 56 631 41.5 Q646 27 668 27 Q704 27 757 69 Q810 111 877 193 L903 174 Q824 70 755.5 22.5 Q687 -25 618 -25 Q548 -25 510.5 9.5 Q473 44 473 109 Q473 131 478 155.5 Q483 180 496 219 L672 786 L348 786 Q186 76 45 -216 Q-96 -508 -268 -508 Q-333 -508 -374.5 -473.5 Q-416 -439 -416 -385 Q-416 -343 -390.5 -314 Q-365 -285 -330 -285 Q-289 -285 -262.5 -311.5 Q-236 -338 -236 -379 Q-236 -398 -248 -419 Q-260 -440 -260 -442 Q-260 -451 -250.5 -459 Q-241 -467 -229 -467 Q-173 -467 -118 -373.5 Q-63 -280 -27 -117 Q-10 -43 24 114 Q116 542 186 786 L8 786 L16 815 L197 815 Q272 1107 411 1256 Q550 1405 748 1405 Q844 1405 905.5 1359.5 Q967 1314 967 1245 Q967 1201 939 1174 Q911 1147 866 1147 Q828 1147 803 1170.5 Q778 1194 778 1229 Q778 1275 819 1298.5 Q860 1322 860 1325 Q860 1350 831.5 1365 Q803 1380 754 1380 Q605 1380 517 1258.5 Q429 1137 356 815 Z " />
<glyph glyph-name="fl" unicode="&#xf002;" horiz-adv-x="995" d="M1024 1399 L643 170 Q629 125 625 106.5 Q621 88 621 78 Q621 56 635.5 41.5 Q650 27 672 27 Q708 27 762.5 69.5 Q817 112 883 193 L909 174 Q831 72 762.5 24.5 Q694 -23 625 -23 Q553 -23 515 11 Q477 45 477 109 Q477 128 481.5 150 Q486 172 500 219 L782 1139 Q757 1159 747 1174.5 Q737 1190 737 1208 Q737 1252 784 1284.5 Q831 1317 831 1325 Q831 1348 799 1364 Q767 1380 717 1380 Q599 1380 522 1266 Q445 1152 356 815 L565 815 L553 786 L348 786 Q186 76 45 -216 Q-96 -508 -268 -508 Q-333 -508 -374.5 -473.5 Q-416 -439 -416 -385 Q-416 -343 -390.5 -314 Q-365 -285 -330 -285 Q-289 -285 -262.5 -311.5 Q-236 -338 -236 -379 Q-236 -398 -248 -419 Q-260 -440 -260 -442 Q-260 -451 -250.5 -459 Q-241 -467 -229 -467 Q-173 -467 -118 -373.5 Q-63 -280 -27 -117 Q-10 -43 24 114 Q116 542 186 786 L8 786 L16 815 L197 815 Q266 1098 402 1252.5 Q538 1407 715 1407 Q770 1407 833 1389.5 Q896 1372 903 1372 Q930 1372 1006 1394 Q1017 1397 1024 1399 Z " />
<glyph glyph-name="daggerdbl" unicode="&#x2021;" horiz-adv-x="1024" d="M360 479 Q412 516 452 596 Q492 676 524 807 L510 807 Q361 807 211 739 Q179 725 172 725 Q161 725 154.5 728.5 Q148 732 147 739 Q148 741 148.5 743 Q149 745 152 750 L172 784 L121 805 Q116 807 110 809 Q68 826 68 836 Q68 843 80 851 Q92 859 117 866 L184 887 L180 918 L180 926 Q180 933 182 936.5 Q184 940 188 940 Q191 940 302.5 893 Q414 846 532 840 Q547 887 554 936.5 Q561 986 561 1044 Q561 1110 545.5 1180.5 Q530 1251 530 1257 Q531 1262 534 1264.5 Q537 1267 543 1268 Q545 1268 547.5 1267 Q550 1266 555 1264 L606 1233 L643 1300 Q674 1356 686.5 1370 Q699 1384 711 1384 Q722 1384 727.5 1374.5 Q733 1365 733 1343 Q733 1333 730 1309 Q730 1303 729 1298 L719 1231 L769 1252 Q770 1252 772.5 1252.5 Q775 1253 780 1253 Q787 1253 791 1250.5 Q795 1248 795 1243 Q795 1238 708.5 1112.5 Q622 987 567 840 Q677 840 801 882 Q925 924 946 924 Q951 924 954.5 919 Q958 914 958 907 Q958 904 956 897 Q955 895 954 893 L936 860 L983 846 Q1011 836 1023.5 828 Q1036 820 1036 811 Q1036 797 990 787 Q977 784 970 782 L918 768 L924 727 L924 723 Q924 718 920 713.5 Q916 709 911 709 Q909 709 791 756.5 Q673 804 558 807 Q530 718 516 654 Q502 590 502 555 Q502 536 507 512.5 Q512 489 522 461 Q470 422 431 342.5 Q392 263 360 133 L375 133 Q524 133 672 199 Q704 213 711 213 Q722 213 728.5 209 Q735 205 735 199 Q735 197 734.5 195.5 Q734 194 731 188 L711 154 L796 119 Q806 114 811.5 109.5 Q817 105 817 102 Q817 95 805 87 Q793 79 768 72 L698 51 L705 20 L705 14 Q704 6 701.5 2 Q699 -2 694 -2 Q692 -2 580.5 46 Q469 94 350 100 Q337 57 330.5 7 Q324 -43 324 -106 Q324 -172 339 -242.5 Q354 -313 354 -319 Q354 -323 351.5 -325.5 Q349 -328 346 -328 Q330 -328 313 -319 Q296 -310 279 -293 L242 -362 Q213 -414 199 -430 Q185 -446 172 -446 Q162 -446 157 -437.5 Q152 -429 152 -410 Q152 -398 154 -375 Q155 -366 156 -360 L164 -293 Q148 -303 133.5 -308 Q119 -313 106 -313 Q98 -313 93 -310.5 Q88 -308 88 -303 Q88 -298 175 -172.5 Q262 -47 317 100 Q207 100 82.5 57 Q-42 14 -63 14 Q-68 14 -71 18 Q-74 22 -74 29 Q-74 30 -73 34 Q-72 38 -69 46 L-53 78 L-98 94 Q-127 104 -140 111.5 Q-153 119 -154 127 Q-154 141 -101 154 Q-92 156 -86 158 L-33 170 L-39 211 L-39 215 Q-39 221 -35 226 Q-31 231 -27 231 Q-24 231 92.5 183.5 Q209 136 326 134 Q353 222 367 284.5 Q381 347 381 383 Q381 404 376 427.5 Q371 451 360 479 Z " />
<glyph glyph-name="middot" unicode="&#xb7;" horiz-adv-x="494" d="M152 655 Q152 694 178.5 721 Q205 748 244 748 Q282 748 308 721 Q334 694 334 655 Q334 617 308 591 Q282 565 244 565 Q206 565 179 591.5 Q152 618 152 655 Z " />
<glyph glyph-name="quotesinglbase" unicode="&#x201a;" horiz-adv-x="494" d="M-45 -354 L-57 -326 Q70 -274 149.5 -199.5 Q229 -125 229 -63 Q229 -27 170 -24 Q144 -22 132 -21 Q78 -11 49 16 Q20 43 20 84 Q20 128 51.5 158 Q83 188 129 188 Q197 188 242 137.5 Q287 87 287 8 Q287 -104 199.5 -200 Q112 -296 -45 -354 Z " />
<glyph glyph-name="quotedblbase" unicode="&#x201e;" horiz-adv-x="872" d="M334 -354 L324 -326 Q451 -274 529.5 -199.5 Q608 -125 608 -63 Q608 -27 551 -24 Q525 -22 513 -21 Q459 -11 430 16 Q401 43 401 84 Q401 128 432 158 Q463 188 510 188 Q578 188 623 137.5 Q668 87 668 8 Q668 -104 579.5 -200 Q491 -296 334 -354 Z M-45 -354 L-57 -326 Q70 -274 149.5 -199.5 Q229 -125 229 -63 Q229 -27 170 -24 Q144 -22 132 -21 Q78 -11 49 16 Q20 43 20 84 Q20 128 51.5 158 Q83 188 129 188 Q197 188 242 137.5 Q287 87 287 8 Q287 -104 199.5 -200 Q112 -296 -45 -354 Z " />
<glyph glyph-name="perthousand" unicode="&#x2030;" horiz-adv-x="2114" d="M1849 713 Q1800 713 1754 657 Q1708 601 1669 494 Q1631 388 1609 284.5 Q1587 181 1587 109 Q1587 59 1607 31.5 Q1627 4 1663 4 Q1706 4 1744.5 42.5 Q1783 81 1821 164 Q1868 267 1898.5 394.5 Q1929 522 1929 608 Q1929 659 1908.5 686 Q1888 713 1849 713 Z M1860 741 Q1950 741 1998 677 Q2046 613 2046 494 Q2046 413 2022.5 333 Q1999 253 1956 184 Q1897 90 1819 37 Q1741 -16 1663 -16 Q1574 -16 1525.5 48 Q1477 112 1477 229 Q1477 307 1500.5 386.5 Q1524 466 1569 539 Q1628 635 1704.5 688 Q1781 741 1860 741 Z M1159 713 Q1110 713 1064 657 Q1018 601 979 494 Q940 388 918.5 284.5 Q897 181 897 109 Q897 59 917 31.5 Q937 4 973 4 Q1016 4 1054 42.5 Q1092 81 1130 164 Q1178 267 1208.5 394.5 Q1239 522 1239 608 Q1239 659 1218 686 Q1197 713 1159 713 Z M1167 741 Q1258 741 1306 677 Q1354 613 1354 494 Q1354 413 1330.5 333 Q1307 253 1264 184 Q1204 90 1126.5 37 Q1049 -16 971 -16 Q882 -16 833 48 Q784 112 784 229 Q784 307 808 386.5 Q832 466 877 539 Q936 635 1012.5 688 Q1089 741 1167 741 Z M446 1331 Q398 1331 351.5 1274.5 Q305 1218 266 1110 Q228 1004 206 901.5 Q184 799 184 727 Q184 677 204 650 Q224 623 260 623 Q304 623 342 661 Q380 699 418 780 Q465 883 495.5 1011.5 Q526 1140 526 1227 Q526 1277 505.5 1304 Q485 1331 446 1331 Z M451 1354 Q541 1354 589 1290 Q637 1226 637 1106 Q637 1026 614 947 Q591 868 547 799 Q487 703 409.5 649.5 Q332 596 254 596 Q165 596 116.5 660.5 Q68 725 68 842 Q68 919 91.5 998.5 Q115 1078 160 1151 Q219 1247 295.5 1300.5 Q372 1354 451 1354 Z M317 -25 L250 -25 L1104 1360 L1169 1360 L317 -25 Z " />
<glyph glyph-name="Acircumflex" unicode="&#xc2;" horiz-adv-x="971" d="M215 516 L565 516 L565 1077 L215 516 Z M-240 0 L-240 29 Q-177 29 -138.5 52.5 Q-100 76 -45 164 L719 1384 L750 1384 L750 29 L874 29 L874 0 L403 0 L403 29 L565 29 L565 487 L199 487 L-20 143 Q-37 117 -43 101.5 Q-49 86 -49 74 Q-49 52 -21.5 42 Q6 32 82 28 L82 0 L-240 0 Z M1028 1495 L972 1495 L796 1702 L520 1495 L452 1495 L762 1843 L866 1843 L1028 1495 Z " />
<glyph glyph-name="Ecircumflex" unicode="&#xca;" horiz-adv-x="1165" d="M-145 0 L-137 29 L16 29 L377 1327 L223 1327 L231 1356 L1182 1356 L1114 987 L1083 987 Q1084 989 1084 993 Q1087 1035 1087 1057 Q1087 1190 1025 1258.5 Q963 1327 842 1327 L567 1327 L406 752 L522 752 Q637 752 678.5 790 Q720 828 754 958 L784 958 L645 449 L616 449 Q634 519 642.5 560 Q651 601 651 618 Q651 667 615 695 Q579 723 516 723 L395 723 L207 29 L537 29 Q697 29 811.5 133 Q926 237 963 416 L991 416 L907 0 L-145 0 Z M1047 1495 L991 1495 L815 1702 L539 1495 L471 1495 L781 1843 L885 1843 L1047 1495 Z " />
<glyph glyph-name="Aacute" unicode="&#xc1;" horiz-adv-x="971" d="M215 516 L565 516 L565 1077 L215 516 Z M-240 0 L-240 29 Q-177 29 -138.5 52.5 Q-100 76 -45 164 L719 1384 L750 1384 L750 29 L874 29 L874 0 L403 0 L403 29 L565 29 L565 487 L199 487 L-20 143 Q-37 117 -43 101.5 Q-49 86 -49 74 Q-49 52 -21.5 42 Q6 32 82 28 L82 0 L-240 0 Z M669 1495 L598 1495 L897 1809 Q915 1829 936.5 1840.5 Q958 1852 977 1852 Q1004 1852 1025 1831 Q1046 1810 1046 1782 Q1046 1760 1030 1740.5 Q1014 1721 977 1696 L669 1495 Z " />
<glyph glyph-name="Edieresis" unicode="&#xcb;" horiz-adv-x="1165" d="M-145 0 L-137 29 L16 29 L377 1327 L223 1327 L231 1356 L1182 1356 L1114 987 L1083 987 Q1084 989 1084 993 Q1087 1035 1087 1057 Q1087 1190 1025 1258.5 Q963 1327 842 1327 L567 1327 L406 752 L522 752 Q637 752 678.5 790 Q720 828 754 958 L784 958 L645 449 L616 449 Q634 519 642.5 560 Q651 601 651 618 Q651 667 615 695 Q579 723 516 723 L395 723 L207 29 L537 29 Q697 29 811.5 133 Q926 237 963 416 L991 416 L907 0 L-145 0 Z M514 1645 Q514 1683 544 1713 Q574 1743 613 1743 Q653 1743 682 1714 Q711 1685 711 1645 Q711 1601 683 1572.5 Q655 1544 613 1544 Q572 1544 543 1574 Q514 1604 514 1645 Z M889 1645 Q889 1683 919 1713 Q949 1743 987 1743 Q1027 1743 1056.5 1714 Q1086 1685 1086 1645 Q1086 1601 1058 1572.5 Q1030 1544 987 1544 Q947 1544 918 1574 Q889 1604 889 1645 Z " />
<glyph glyph-name="Egrave" unicode="&#xc8;" horiz-adv-x="1165" d="M-145 0 L-137 29 L16 29 L377 1327 L223 1327 L231 1356 L1182 1356 L1114 987 L1083 987 Q1084 989 1084 993 Q1087 1035 1087 1057 Q1087 1190 1025 1258.5 Q963 1327 842 1327 L567 1327 L406 752 L522 752 Q637 752 678.5 790 Q720 828 754 958 L784 958 L645 449 L616 449 Q634 519 642.5 560 Q651 601 651 618 Q651 667 615 695 Q579 723 516 723 L395 723 L207 29 L537 29 Q697 29 811.5 133 Q926 237 963 416 L991 416 L907 0 L-145 0 Z M930 1497 L862 1497 L619 1700 Q587 1726 575 1745 Q563 1764 563 1786 Q563 1814 583.5 1835 Q604 1856 631 1856 Q652 1856 675 1840.5 Q698 1825 717 1798 L930 1497 Z " />
<glyph glyph-name="Iacute" unicode="&#xcd;" horiz-adv-x="578" d="M-147 0 L-141 29 L12 29 L373 1327 L219 1327 L227 1356 L739 1356 L731 1327 L563 1327 L205 29 L371 29 L365 0 L-147 0 Z M422 1495 L351 1495 L650 1809 Q668 1829 689.5 1840.5 Q711 1852 730 1852 Q757 1852 778 1831 Q799 1810 799 1782 Q799 1760 783 1740.5 Q767 1721 730 1696 L422 1495 Z " />
<glyph glyph-name="Icircumflex" unicode="&#xce;" horiz-adv-x="578" d="M-147 0 L-141 29 L12 29 L373 1327 L219 1327 L227 1356 L739 1356 L731 1327 L563 1327 L205 29 L371 29 L365 0 L-147 0 Z M781 1495 L725 1495 L549 1702 L273 1495 L205 1495 L515 1843 L619 1843 L781 1495 Z " />
<glyph glyph-name="Idieresis" unicode="&#xcf;" horiz-adv-x="578" d="M-147 0 L-141 29 L12 29 L373 1327 L219 1327 L227 1356 L739 1356 L731 1327 L563 1327 L205 29 L371 29 L365 0 L-147 0 Z M248 1645 Q248 1683 278 1713 Q308 1743 347 1743 Q387 1743 416 1714 Q445 1685 445 1645 Q445 1601 417 1572.5 Q389 1544 347 1544 Q306 1544 277 1574 Q248 1604 248 1645 Z M623 1645 Q623 1683 653 1713 Q683 1743 721 1743 Q761 1743 790.5 1714 Q820 1685 820 1645 Q820 1601 792 1572.5 Q764 1544 721 1544 Q681 1544 652 1574 Q623 1604 623 1645 Z " />
<glyph glyph-name="Igrave" unicode="&#xcc;" horiz-adv-x="578" d="M-147 0 L-141 29 L12 29 L373 1327 L219 1327 L227 1356 L739 1356 L731 1327 L563 1327 L205 29 L371 29 L365 0 L-147 0 Z M664 1497 L596 1497 L353 1700 Q321 1726 309 1745 Q297 1764 297 1786 Q297 1814 317.5 1835 Q338 1856 365 1856 Q386 1856 409 1840.5 Q432 1825 451 1798 L664 1497 Z " />
<glyph glyph-name="Oacute" unicode="&#xd3;" horiz-adv-x="1346" d="M795 1360 Q691 1360 605.5 1303.5 Q520 1247 461 1139 Q415 1059 376.5 958 Q338 857 305 733 Q273 614 256.5 512.5 Q240 411 240 332 Q240 170 321 83 Q402 -4 553 -4 Q657 -4 741 51.5 Q825 107 887 217 Q930 292 968.5 393.5 Q1007 495 1042 623 Q1075 741 1091.5 842.5 Q1108 944 1108 1022 Q1108 1185 1027 1272.5 Q946 1360 795 1360 Z M549 -29 Q330 -29 192.5 125 Q55 279 55 526 Q55 671 108 816.5 Q161 962 258 1083 Q376 1232 512.5 1308 Q649 1384 797 1384 Q1015 1384 1152.5 1230.5 Q1290 1077 1290 831 Q1290 684 1238 539.5 Q1186 395 1087 272 Q970 124 833 47.5 Q696 -29 549 -29 Z M782 1495 L711 1495 L1010 1809 Q1028 1829 1049.5 1840.5 Q1071 1852 1090 1852 Q1117 1852 1138 1831 Q1159 1810 1159 1782 Q1159 1760 1143 1740.5 Q1127 1721 1090 1696 L782 1495 Z " />
<glyph glyph-name="Ocircumflex" unicode="&#xd4;" horiz-adv-x="1346" d="M795 1360 Q691 1360 605.5 1303.5 Q520 1247 461 1139 Q415 1059 376.5 958 Q338 857 305 733 Q273 614 256.5 512.5 Q240 411 240 332 Q240 170 321 83 Q402 -4 553 -4 Q657 -4 741 51.5 Q825 107 887 217 Q930 292 968.5 393.5 Q1007 495 1042 623 Q1075 741 1091.5 842.5 Q1108 944 1108 1022 Q1108 1185 1027 1272.5 Q946 1360 795 1360 Z M549 -29 Q330 -29 192.5 125 Q55 279 55 526 Q55 671 108 816.5 Q161 962 258 1083 Q376 1232 512.5 1308 Q649 1384 797 1384 Q1015 1384 1152.5 1230.5 Q1290 1077 1290 831 Q1290 684 1238 539.5 Q1186 395 1087 272 Q970 124 833 47.5 Q696 -29 549 -29 Z M1141 1495 L1085 1495 L909 1702 L633 1495 L565 1495 L875 1843 L979 1843 L1141 1495 Z " />
<glyph glyph-name="apple" unicode="&#xf000;" horiz-adv-x="1618" d="M836 1216 Q835 1222 834.5 1230 Q834 1238 834 1253 Q834 1377 929 1482.5 Q1024 1588 1165 1614 Q1166 1604 1166.5 1591 Q1167 1578 1167 1552 Q1167 1421 1063.5 1317.5 Q960 1214 860 1214 L852 1214 Q849 1214 844.5 1215 Q840 1216 836 1216 Z M1505 403 Q1391 156 1300 60.5 Q1209 -35 1096 -35 Q1046 -35 964.5 -2 Q883 31 842 31 Q797 31 711 -2 Q625 -35 584 -35 Q520 -35 455.5 9 Q391 53 326 141 Q224 281 168.5 436.5 Q113 592 113 737 Q113 956 238 1093.5 Q363 1231 561 1231 Q629 1231 716 1197 Q803 1163 840 1163 Q874 1163 961.5 1198 Q1049 1233 1114 1233 Q1224 1233 1312 1193 Q1400 1153 1473 1069 Q1371 1004 1321.5 923.5 Q1272 843 1272 741 Q1272 628 1332 541 Q1392 454 1505 403 Z " />
<glyph glyph-name="Ograve" unicode="&#xd2;" horiz-adv-x="1346" d="M795 1360 Q691 1360 605.5 1303.5 Q520 1247 461 1139 Q415 1059 376.5 958 Q338 857 305 733 Q273 614 256.5 512.5 Q240 411 240 332 Q240 170 321 83 Q402 -4 553 -4 Q657 -4 741 51.5 Q825 107 887 217 Q930 292 968.5 393.5 Q1007 495 1042 623 Q1075 741 1091.5 842.5 Q1108 944 1108 1022 Q1108 1185 1027 1272.5 Q946 1360 795 1360 Z M549 -29 Q330 -29 192.5 125 Q55 279 55 526 Q55 671 108 816.5 Q161 962 258 1083 Q376 1232 512.5 1308 Q649 1384 797 1384 Q1015 1384 1152.5 1230.5 Q1290 1077 1290 831 Q1290 684 1238 539.5 Q1186 395 1087 272 Q970 124 833 47.5 Q696 -29 549 -29 Z M1024 1497 L956 1497 L713 1700 Q681 1726 669 1745 Q657 1764 657 1786 Q657 1814 677.5 1835 Q698 1856 725 1856 Q746 1856 769 1840.5 Q792 1825 811 1798 L1024 1497 Z " />
<glyph glyph-name="Uacute" unicode="&#xda;" horiz-adv-x="1262" d="M305 1327 L154 1327 L160 1356 L672 1356 L666 1327 L498 1327 L248 428 Q232 372 224.5 325 Q217 278 217 236 Q217 130 294 68 Q371 6 502 6 Q711 6 828 97.5 Q945 189 1004 399 L1227 1206 Q1233 1226 1236 1240 Q1239 1254 1239 1262 Q1239 1300 1214.5 1313.5 Q1190 1327 1110 1327 L1071 1327 L1081 1356 L1454 1356 L1446 1327 Q1357 1327 1321.5 1304.5 Q1286 1282 1262 1194 L1055 449 Q981 178 855 74.5 Q729 -29 487 -29 Q286 -29 160.5 59 Q35 147 35 285 Q35 314 42.5 358.5 Q50 403 66 461 L305 1327 Z M798 1495 L727 1495 L1026 1809 Q1044 1829 1065.5 1840.5 Q1087 1852 1106 1852 Q1133 1852 1154 1831 Q1175 1810 1175 1782 Q1175 1760 1159 1740.5 Q1143 1721 1106 1696 L798 1495 Z " />
<glyph glyph-name="Ucircumflex" unicode="&#xdb;" horiz-adv-x="1262" d="M305 1327 L154 1327 L160 1356 L672 1356 L666 1327 L498 1327 L248 428 Q232 372 224.5 325 Q217 278 217 236 Q217 130 294 68 Q371 6 502 6 Q711 6 828 97.5 Q945 189 1004 399 L1227 1206 Q1233 1226 1236 1240 Q1239 1254 1239 1262 Q1239 1300 1214.5 1313.5 Q1190 1327 1110 1327 L1071 1327 L1081 1356 L1454 1356 L1446 1327 Q1357 1327 1321.5 1304.5 Q1286 1282 1262 1194 L1055 449 Q981 178 855 74.5 Q729 -29 487 -29 Q286 -29 160.5 59 Q35 147 35 285 Q35 314 42.5 358.5 Q50 403 66 461 L305 1327 Z M1157 1495 L1101 1495 L925 1702 L649 1495 L581 1495 L891 1843 L995 1843 L1157 1495 Z " />
<glyph glyph-name="Ugrave" unicode="&#xd9;" horiz-adv-x="1262" d="M305 1327 L154 1327 L160 1356 L672 1356 L666 1327 L498 1327 L248 428 Q232 372 224.5 325 Q217 278 217 236 Q217 130 294 68 Q371 6 502 6 Q711 6 828 97.5 Q945 189 1004 399 L1227 1206 Q1233 1226 1236 1240 Q1239 1254 1239 1262 Q1239 1300 1214.5 1313.5 Q1190 1327 1110 1327 L1071 1327 L1081 1356 L1454 1356 L1446 1327 Q1357 1327 1321.5 1304.5 Q1286 1282 1262 1194 L1055 449 Q981 178 855 74.5 Q729 -29 487 -29 Q286 -29 160.5 59 Q35 147 35 285 Q35 314 42.5 358.5 Q50 403 66 461 L305 1327 Z M1040 1497 L972 1497 L729 1700 Q697 1726 685 1745 Q673 1764 673 1786 Q673 1814 693.5 1835 Q714 1856 741 1856 Q762 1856 785 1840.5 Q808 1825 827 1798 L1040 1497 Z " />
<glyph glyph-name="dotlessi" unicode="&#x131;" horiz-adv-x="508" d="M199 786 L76 786 L84 815 L164 815 Q235 815 282.5 821 Q330 827 373 840 L178 195 Q167 161 161.5 133 Q156 105 156 88 Q156 61 169.5 47 Q183 33 209 33 Q244 33 288 66.5 Q332 100 416 195 L436 178 Q350 73 281 26.5 Q212 -20 143 -20 Q80 -20 43 16 Q6 52 6 115 Q6 138 12.5 169.5 Q19 201 39 264 L199 786 Z " />
<glyph glyph-name="circumflex" unicode="&#x2c6;" horiz-adv-x="1024" d="M844 950 L788 950 L612 1157 L336 950 L268 950 L578 1298 L682 1298 L844 950 Z " />
<glyph glyph-name="tilde" unicode="&#x2dc;" horiz-adv-x="1024" d="M893 1221 Q874 1122 830 1074 Q786 1026 713 1026 Q695 1026 680 1028 Q665 1030 651 1034 L520 1071 Q496 1077 480 1079 Q464 1081 451 1081 Q412 1081 389 1062.5 Q366 1044 358 1008 L309 1008 Q325 1101 367.5 1146.5 Q410 1192 481 1192 Q503 1192 521.5 1189.5 Q540 1187 557 1182 L686 1145 Q707 1140 719.5 1138.5 Q732 1137 743 1137 Q784 1137 808.5 1157 Q833 1177 844 1221 L893 1221 Z " />
<glyph glyph-name="overscore" unicode="&#xaf;" horiz-adv-x="1024" d="M326 1036 L352 1161 L868 1161 L842 1036 L326 1036 Z " />
<glyph glyph-name="breve" unicode="&#x2d8;" horiz-adv-x="1024" d="M338 1262 L393 1262 Q401 1189 443.5 1152.5 Q486 1116 563 1116 Q658 1116 730 1151 Q802 1186 866 1262 L926 1262 Q845 1121 753.5 1053 Q662 985 555 985 Q446 985 392 1053.5 Q338 1122 338 1262 Z " />
<glyph glyph-name="dotaccent" unicode="&#x2d9;" horiz-adv-x="1024" d="M496 1100 Q496 1140 527 1172 Q558 1204 598 1204 Q641 1204 673 1173 Q705 1142 705 1100 Q705 1056 674 1025.5 Q643 995 598 995 Q558 995 527 1027 Q496 1059 496 1100 Z " />
<glyph glyph-name="ring" unicode="&#x2da;" horiz-adv-x="1024" d="M459 1171 Q459 1106 504 1061 Q549 1016 614 1016 Q679 1016 723.5 1061.5 Q768 1107 768 1171 Q768 1237 723.5 1282 Q679 1327 614 1327 Q548 1327 503.5 1282.5 Q459 1238 459 1171 Z M373 1171 Q373 1273 442 1343 Q511 1413 612 1413 Q714 1413 784 1343 Q854 1273 854 1171 Q854 1070 784 1001 Q714 932 612 932 Q511 932 442 1001 Q373 1070 373 1171 Z " />
<glyph glyph-name="cedilla" unicode="&#xb8;" horiz-adv-x="1024" d="M113 -369 L133 -326 Q201 -353 261 -369 Q321 -385 350 -385 Q402 -385 429.5 -356.5 Q457 -328 457 -274 Q457 -225 430.5 -200.5 Q404 -176 352 -176 Q340 -176 325 -177.5 Q310 -179 293 -182 L350 0 L383 0 L347 -135 Q366 -132 384.5 -130.5 Q403 -129 418 -129 Q512 -129 564 -169 Q616 -209 616 -281 Q616 -349 553.5 -390.5 Q491 -432 387 -432 Q332 -432 263 -416 Q194 -400 113 -369 Z " />
<glyph glyph-name="hungarumlaut" unicode="&#x2dd;" horiz-adv-x="1024" d="M641 950 L831 1251 Q848 1278 869.5 1293.5 Q891 1309 911 1309 Q936 1309 956.5 1288.5 Q977 1268 977 1243 Q977 1227 966 1210 Q955 1193 926 1163 L705 950 L641 950 Z M393 950 L547 1245 Q568 1284 583.5 1296.5 Q599 1309 621 1309 Q646 1309 667 1290 Q688 1271 688 1249 Q688 1230 678 1209.5 Q668 1189 645 1163 L455 950 L393 950 Z " />
<glyph glyph-name="ogonek" unicode="&#x2db;" horiz-adv-x="1024" d="M492 0 Q400 -63 354.5 -123 Q309 -183 309 -240 Q309 -288 337 -318 Q365 -348 410 -348 Q451 -348 481 -331.5 Q511 -315 530 -283 L559 -299 Q521 -365 466.5 -399.5 Q412 -434 346 -434 Q276 -434 232 -397 Q188 -360 188 -303 Q188 -225 251 -150 Q314 -75 442 0 L492 0 Z " />
<glyph glyph-name="caron" unicode="&#x2c7;" horiz-adv-x="1024" d="M352 1298 L408 1298 L584 1092 L860 1298 L928 1298 L618 950 L514 950 L352 1298 Z " />
<glyph glyph-name="Lslash" unicode="&#x141;" horiz-adv-x="1165" d="M-166 0 L-160 29 L-4 29 L156 621 L-61 494 L-41 563 L178 692 L356 1327 L201 1327 L209 1356 L721 1356 L713 1327 L547 1327 L397 782 L743 983 L723 907 L375 709 L188 29 L479 29 Q679 29 825 154 Q971 279 1032 504 L1063 504 L909 0 L-166 0 Z " />
<glyph glyph-name="lslash" unicode="&#x142;" horiz-adv-x="537" d="M164 621 L-68 485 L-49 561 L186 694 L395 1327 L274 1327 L283 1356 L332 1356 Q401 1356 462 1368.5 Q523 1381 580 1407 L377 791 L612 928 L588 850 L352 715 L178 180 Q168 148 162 123.5 Q156 99 156 88 Q156 67 170.5 52 Q185 37 207 37 Q243 37 297.5 79.5 Q352 122 418 203 L444 184 Q365 81 296.5 33.5 Q228 -14 160 -14 Q89 -14 51.5 20 Q14 54 14 119 Q14 142 19.5 169 Q25 196 37 229 L164 621 Z " />
<glyph glyph-name="Scaron" unicode="&#x160;" horiz-adv-x="1006" d="M98 483 Q89 443 84.5 407 Q80 371 80 338 Q80 192 175.5 99 Q271 6 418 6 Q556 6 653 104.5 Q750 203 750 344 Q750 497 506 617 L485 627 Q338 700 280.5 776.5 Q223 853 223 969 Q223 1143 334.5 1263.5 Q446 1384 606 1384 Q667 1384 716.5 1373 Q766 1362 807 1339 Q818 1333 836 1322 Q895 1286 918 1286 Q937 1286 949.5 1297 Q962 1308 981 1346 L1010 1339 L897 938 L870 946 Q879 985 883 1015.5 Q887 1046 887 1071 Q887 1201 813 1277.5 Q739 1354 614 1354 Q485 1354 398 1273 Q311 1192 311 1073 Q311 943 585 814 Q626 795 647 784 Q766 727 821.5 647 Q877 567 877 453 Q877 253 740 112 Q603 -29 408 -29 Q302 -29 182 28.5 Q62 86 45 86 Q18 86 -2.5 63 Q-23 40 -35 -4 L-63 4 L70 487 L98 483 Z M502 1843 L558 1843 L734 1637 L1010 1843 L1078 1843 L768 1495 L664 1495 L502 1843 Z " />
<glyph glyph-name="scaron" unicode="&#x161;" horiz-adv-x="743" d="M391 176 Q391 253 276 348 Q263 359 257 364 Q178 430 153.5 473.5 Q129 517 129 571 Q129 682 214 761 Q299 840 422 840 Q524 840 590.5 797 Q657 754 657 690 Q657 649 630 621.5 Q603 594 561 594 Q519 594 491 620 Q463 646 463 684 Q463 732 523 767 Q532 773 532 774 Q532 787 503.5 799 Q475 811 436 811 Q355 811 303.5 766 Q252 721 252 651 Q252 583 389 480 Q411 463 422 455 Q502 393 526.5 348.5 Q551 304 551 242 Q551 134 447.5 55.5 Q344 -23 199 -23 Q84 -23 6 36 Q-72 95 -72 178 Q-72 228 -39.5 263.5 Q-7 299 37 299 Q82 299 110.5 273.5 Q139 248 139 209 Q139 184 121.5 161 Q104 138 74 123 Q59 116 33.5 109.5 Q8 103 8 96 Q8 76 65 44 Q122 12 186 12 Q275 12 333 59 Q391 106 391 176 Z M213 1298 L269 1298 L445 1092 L721 1298 L789 1298 L479 950 L375 950 L213 1298 Z " />
<glyph glyph-name="Zcaron" unicode="&#x17d;" horiz-adv-x="1133" d="M-121 0 L934 1327 L639 1327 Q440 1327 332.5 1249.5 Q225 1172 139 973 L111 973 L215 1356 L1182 1356 L135 29 L516 29 Q703 29 810 113.5 Q917 198 1004 414 L1032 414 L918 0 L-121 0 Z M565 1843 L621 1843 L797 1637 L1073 1843 L1141 1843 L831 1495 L727 1495 L565 1843 Z " />
<glyph glyph-name="zcaron" unicode="&#x17e;" horiz-adv-x="883" d="M125 653 L90 563 L57 563 L158 809 Q316 786 424.5 775 Q533 764 602 764 Q631 764 660.5 768.5 Q690 773 720 782 Q718 793 716.5 802 Q715 811 715 819 Q715 830 723 838 Q731 846 743 846 Q756 846 765 836.5 Q774 827 774 815 Q774 810 769 802 Q764 794 754 784 L105 154 Q158 163 201 167.5 Q244 172 281 172 Q378 172 492 134 Q606 96 623 96 Q644 96 658 108.5 Q672 121 672 139 Q672 151 637 186.5 Q602 222 602 258 Q602 284 620 303 Q638 322 664 322 Q694 322 713.5 295.5 Q733 269 733 227 Q733 120 648.5 57 Q564 -6 418 -6 Q343 -6 225.5 28.5 Q108 63 70 63 Q56 63 39.5 57.5 Q23 52 6 41 Q7 37 7.5 32.5 Q8 28 8 18 Q8 3 0.5 -5.5 Q-7 -14 -20 -14 Q-35 -14 -45 -5 Q-55 4 -55 18 Q-55 38 -25 67 Q-20 73 -16 76 L600 678 Q535 656 462.5 645.5 Q390 635 307 635 Q260 635 215 639.5 Q170 644 125 653 Z M282 1298 L338 1298 L514 1092 L790 1298 L858 1298 L548 950 L444 950 L282 1298 Z " />
<glyph glyph-name="brokenbar" unicode="&#xa6;" horiz-adv-x="1024" d="M449 408 L575 408 L575 -350 L449 -350 L449 408 Z M449 1432 L575 1432 L575 674 L449 674 L449 1432 Z " />
<glyph glyph-name="Eth" unicode="&#xd0;" horiz-adv-x="1337" d="M205 29 L430 29 Q596 29 714.5 97.5 Q833 166 909 307 Q989 453 1037 638.5 Q1085 824 1085 987 Q1085 1165 997 1246 Q909 1327 717 1327 L565 1327 L401 733 L745 733 L731 680 L387 680 L205 29 Z M-147 0 L-141 29 L10 29 L190 680 L-2 680 L12 733 L205 733 L371 1327 L219 1327 L227 1356 L741 1356 Q884 1356 976 1322 Q1068 1288 1137 1212 Q1206 1135 1242 1035 Q1278 935 1278 819 Q1278 664 1219.5 516 Q1161 368 1051 246 Q933 117 796.5 58.5 Q660 0 473 0 L-147 0 Z " />
<glyph glyph-name="eth" unicode="&#xf0;" horiz-adv-x="891" d="M879 1251 L893 1196 L637 1126 Q705 999 738.5 875 Q772 751 772 625 Q772 340 635.5 157.5 Q499 -25 295 -25 Q152 -25 66 68.5 Q-20 162 -20 315 Q-20 427 30.5 534 Q81 641 174 725 Q239 784 306 812 Q373 840 449 840 Q501 840 541.5 826 Q582 812 616 783 Q613 858 595.5 936.5 Q578 1015 545 1100 L256 1024 L242 1073 L522 1149 Q489 1216 451.5 1272.5 Q414 1329 371 1378 L406 1409 Q468 1355 519 1296 Q570 1237 610 1171 L879 1251 Z M457 815 Q389 815 338.5 770 Q288 725 236 616 Q184 511 152.5 389.5 Q121 268 121 188 Q121 98 164 50 Q207 2 289 2 Q355 2 408 49 Q461 96 510 199 Q561 306 592 426.5 Q623 547 623 633 Q623 725 582 770 Q541 815 457 815 Z " />
<glyph glyph-name="Yacute" unicode="&#xdd;" horiz-adv-x="883" d="M-47 0 L-39 29 L117 29 L268 571 L207 1327 L72 1327 L72 1356 L553 1356 L553 1327 L389 1327 L449 614 L877 1206 Q898 1237 909 1257 Q920 1277 920 1286 Q920 1309 900.5 1319 Q881 1329 834 1329 Q827 1329 810.5 1328 Q794 1327 784 1327 L793 1356 L1081 1356 L1075 1327 Q1002 1327 950 1255 Q945 1247 942 1243 L449 557 L313 29 L481 29 L475 0 L-47 0 Z M573 1495 L502 1495 L801 1809 Q819 1829 840.5 1840.5 Q862 1852 881 1852 Q908 1852 929 1831 Q950 1810 950 1782 Q950 1760 934 1740.5 Q918 1721 881 1696 L573 1495 Z " />
<glyph glyph-name="yacute" unicode="&#xfd;" horiz-adv-x="924" d="M201 637 Q194 698 179.5 724 Q165 750 137 750 Q114 750 76 702.5 Q38 655 -6 569 L-37 582 Q25 713 88.5 775.5 Q152 838 223 838 Q281 838 314 802 Q347 766 354 694 L410 188 L631 612 Q690 726 745.5 783 Q801 840 850 840 Q894 840 922 813.5 Q950 787 950 745 Q950 704 926 677.5 Q902 651 864 651 Q828 651 806 670.5 Q784 690 784 721 Q784 732 790.5 748.5 Q797 765 797 770 Q797 772 795.5 774 Q794 776 793 776 Q776 776 734 719 Q692 662 645 573 L422 152 Q213 -248 90 -378 Q-33 -508 -170 -508 Q-228 -508 -265.5 -475 Q-303 -442 -303 -391 Q-303 -343 -275 -311 Q-247 -279 -205 -279 Q-166 -279 -143.5 -302.5 Q-121 -326 -121 -369 Q-121 -408 -157 -446 Q-164 -453 -164 -455 Q-164 -460 -154.5 -462.5 Q-145 -465 -123 -465 Q-35 -465 68.5 -355.5 Q172 -246 279 -41 L201 637 Z M436 950 L365 950 L664 1264 Q682 1284 703.5 1295.5 Q725 1307 744 1307 Q771 1307 792 1286 Q813 1265 813 1237 Q813 1215 797 1195.5 Q781 1176 744 1151 L436 950 Z " />
<glyph glyph-name="Thorn" unicode="&#xde;" horiz-adv-x="1090" d="M733 1356 L725 1327 L557 1327 L477 1051 L625 1051 Q817 1051 921.5 969 Q1026 887 1026 737 Q1026 667 994.5 596 Q963 525 907 471 Q828 395 729.5 363.5 Q631 332 440 332 L279 332 L197 29 L365 29 L356 0 L-156 0 L-147 29 L6 29 L365 1327 L213 1327 L219 1356 L733 1356 Z M469 1024 L287 360 L434 360 Q546 360 602.5 384.5 Q659 409 707 469 Q757 534 788 630.5 Q819 727 819 823 Q819 932 756 979 Q693 1026 543 1026 Q516 1026 499.5 1025.5 Q483 1025 469 1024 Z " />
<glyph glyph-name="thorn" unicode="&#xfe;" horiz-adv-x="977" d="M297 543 L221 274 Q216 253 213.5 234.5 Q211 216 211 199 Q211 118 254.5 66 Q298 14 367 14 Q443 14 506.5 63.5 Q570 113 623 213 Q669 301 697 410.5 Q725 520 725 610 Q725 705 687 757 Q649 809 582 809 Q492 809 411.5 735.5 Q331 662 297 543 Z M336 1327 L215 1327 L223 1356 L272 1356 Q348 1356 407 1368.5 Q466 1381 514 1407 L319 678 Q381 759 449.5 800.5 Q518 842 592 842 Q717 842 794.5 749.5 Q872 657 872 508 Q872 417 846.5 334.5 Q821 252 772 186 Q702 91 602.5 36.5 Q503 -18 401 -18 Q302 -18 243 37.5 Q184 93 184 186 L10 -465 L127 -465 L121 -494 L-266 -494 L-258 -465 L-145 -465 L336 1327 Z " />
<glyph glyph-name="minus" unicode="&#x2212;" horiz-adv-x="1706" d="M254 670 L1452 670 L1452 551 L254 551 L254 670 Z " />
<glyph glyph-name="multiply" unicode="&#xd7;" horiz-adv-x="1706" d="M381 1169 L858 692 L1333 1169 L1415 1087 L940 610 L1415 135 L1333 53 L858 528 L381 53 L301 135 L776 610 L301 1087 L381 1169 Z " />
<glyph glyph-name="onesuperior" unicode="&#xb9;" horiz-adv-x="651" d="M37 532 L43 553 Q50 552 58.5 551.5 Q67 551 82 551 Q134 551 155.5 566.5 Q177 582 197 641 L397 1266 Q345 1233 279 1202 Q213 1171 125 1137 L119 1153 Q200 1183 302.5 1235.5 Q405 1288 557 1378 L305 606 Q303 600 302 594 Q301 588 301 580 Q301 555 378 554 Q403 553 418 553 L414 532 L37 532 Z " />
<glyph glyph-name="twosuperior" unicode="&#xb2;" horiz-adv-x="649" d="M-31 532 Q-16 580 12.5 621 Q41 662 88 702 Q114 726 205 785 Q266 824 301 848 Q393 910 445.5 997 Q498 1084 498 1174 Q498 1245 451 1288 Q404 1331 328 1331 Q256 1331 200.5 1292 Q145 1253 145 1206 Q145 1192 151 1181 Q157 1170 176 1153 Q182 1147 194 1137 Q233 1102 233 1081 Q233 1063 218 1049.5 Q203 1036 180 1036 Q152 1036 130.5 1070.5 Q109 1105 109 1155 Q109 1242 177.5 1296 Q246 1350 358 1350 Q473 1350 545.5 1295.5 Q618 1241 618 1157 Q618 1076 568.5 1011.5 Q519 947 389 866 Q357 847 291 811 Q109 711 45 631 L403 631 Q453 631 473.5 643.5 Q494 656 522 694 L537 688 Q504 635 483.5 599.5 Q463 564 446 532 L-31 532 Z " />
<glyph glyph-name="threesuperior" unicode="&#xb3;" horiz-adv-x="649" d="M168 973 L172 989 Q194 989 215.5 988 Q237 987 238 987 Q366 987 430 1044 Q494 1101 494 1217 Q494 1271 461.5 1301 Q429 1331 371 1331 Q312 1331 264.5 1304.5 Q217 1278 217 1249 Q217 1241 223 1237 Q229 1233 247 1229 Q271 1223 282 1211.5 Q293 1200 293 1182 Q293 1162 275 1146 Q257 1130 233 1130 Q206 1130 188 1148.5 Q170 1167 170 1196 Q170 1261 232 1304.5 Q294 1348 391 1348 Q486 1348 545 1301.5 Q604 1255 604 1182 Q604 1101 534.5 1048 Q465 995 334 977 Q433 960 488 912 Q543 864 543 793 Q543 679 446 598.5 Q349 518 211 518 Q123 518 65.5 557.5 Q8 597 8 657 Q8 702 37 733 Q66 764 106 764 Q136 764 154 748.5 Q172 733 172 709 Q172 682 153 665.5 Q134 649 102 649 Q100 649 91.5 650 Q83 651 76 651 Q57 651 49 645.5 Q41 640 41 627 Q41 594 89.5 564.5 Q138 535 199 535 Q244 535 282 553.5 Q320 572 352 610 Q378 645 397 709.5 Q416 774 416 836 Q416 913 366.5 943 Q317 973 180 973 L168 973 Z " />
<glyph glyph-name="onequarter" unicode="&#xbc;" horiz-adv-x="1583" d="M1102 0 L1110 23 L1214 23 L1278 227 L936 227 L1487 780 L1499 772 L1022 287 L1296 287 L1376 539 L1501 604 L1403 287 L1546 287 L1528 227 L1382 227 L1321 23 L1421 23 L1413 0 L1102 0 Z M340 -25 L279 -25 L1241 1360 L1303 1360 L340 -25 Z M35 588 L39 606 Q47 605 55 604.5 Q63 604 78 604 Q125 604 146 618.5 Q167 633 186 690 L379 1272 Q329 1242 267.5 1213.5 Q206 1185 119 1153 L113 1167 Q191 1196 289.5 1245.5 Q388 1295 530 1376 L291 657 Q289 651 288 646 Q287 641 287 633 Q287 608 366 607 Q386 606 397 606 L395 588 L35 588 Z " />
<glyph glyph-name="onehalf" unicode="&#xbd;" horiz-adv-x="1583" d="M934 0 Q947 44 974 82.5 Q1001 121 1047 160 Q1071 181 1144 226.5 Q1217 272 1249 293 Q1337 353 1387.5 434.5 Q1438 516 1438 598 Q1438 664 1393 704.5 Q1348 745 1276 745 Q1207 745 1153.5 709 Q1100 673 1100 629 Q1100 615 1106 604.5 Q1112 594 1130 580 Q1135 575 1146 566 Q1184 532 1184 512 Q1184 495 1170 483 Q1156 471 1135 471 Q1106 471 1086.5 502.5 Q1067 534 1067 582 Q1067 662 1132.5 712 Q1198 762 1305 762 Q1415 762 1484.5 711.5 Q1554 661 1554 582 Q1554 508 1505.5 447.5 Q1457 387 1333 311 Q1303 294 1242 261 Q1067 169 1006 92 L1348 92 Q1397 92 1415.5 104 Q1434 116 1460 152 L1475 145 Q1452 111 1431.5 75 Q1411 39 1391 0 L934 0 Z M340 -25 L279 -25 L1241 1360 L1303 1360 L340 -25 Z M35 588 L39 606 Q47 605 55 604.5 Q63 604 78 604 Q125 604 146 618.5 Q167 633 186 690 L379 1272 Q329 1242 267.5 1213.5 Q206 1185 119 1153 L113 1167 Q191 1196 289.5 1245.5 Q388 1295 530 1376 L291 657 Q289 651 288 646 Q287 641 287 633 Q287 608 366 607 Q386 606 397 606 L395 588 L35 588 Z " />
<glyph glyph-name="threequarters" unicode="&#xbe;" horiz-adv-x="1583" d="M1102 0 L1110 23 L1214 23 L1278 227 L936 227 L1487 780 L1499 772 L1022 287 L1296 287 L1376 539 L1501 604 L1403 287 L1546 287 L1528 227 L1382 227 L1321 23 L1421 23 L1413 0 L1102 0 Z M340 -25 L279 -25 L1241 1360 L1303 1360 L340 -25 Z M160 999 L166 1014 Q188 1014 216 1012 Q223 1012 225 1012 Q350 1012 410.5 1065 Q471 1118 471 1227 Q471 1277 440.5 1305 Q410 1333 354 1333 Q299 1333 253 1307.5 Q207 1282 207 1255 Q207 1249 213 1245 Q219 1241 236 1237 Q259 1232 270 1221.5 Q281 1211 281 1194 Q281 1175 263 1161 Q245 1147 221 1147 Q194 1147 178 1163 Q162 1179 162 1206 Q162 1267 221 1308.5 Q280 1350 373 1350 Q464 1350 521 1306.5 Q578 1263 578 1194 Q578 1118 511 1068.5 Q444 1019 319 1004 Q414 988 466 943 Q518 898 518 831 Q518 723 426 648 Q334 573 201 573 Q118 573 63 611 Q8 649 8 705 Q8 746 35.5 774.5 Q63 803 102 803 Q130 803 148 788.5 Q166 774 166 752 Q166 727 147.5 711.5 Q129 696 98 696 Q96 696 87.5 697 Q79 698 72 698 Q55 698 48 693 Q41 688 41 676 Q41 645 87 617.5 Q133 590 190 590 Q235 590 271.5 608 Q308 626 336 662 Q361 694 379 754 Q397 814 397 870 Q397 943 350 971 Q303 999 172 999 L160 999 Z " />
<glyph glyph-name="franc" unicode="&#x20a3;" horiz-adv-x="1739" d="M-145 0 L-137 29 L16 29 L377 1327 L223 1327 L231 1356 L1161 1356 L1114 987 L1083 987 Q1084 989 1084 993 Q1087 1035 1087 1057 Q1087 1190 1025 1258.5 Q963 1327 842 1327 L567 1327 L406 752 L522 752 Q637 752 678.5 790 Q720 828 754 958 L784 958 L645 449 L616 449 Q634 519 642.5 560 Q651 601 651 618 Q651 667 615 695 Q579 723 516 723 L395 723 L207 29 L373 29 L365 0 L-145 0 Z M1360 623 Q1434 733 1503 785.5 Q1572 838 1644 838 Q1692 838 1718.5 812.5 Q1745 787 1745 741 Q1745 698 1717.5 669.5 Q1690 641 1648 641 Q1614 641 1589 665 Q1564 689 1564 721 Q1564 732 1571.5 750.5 Q1579 769 1579 776 Q1579 778 1575 778 Q1518 778 1433 675 Q1348 572 1306 436 L1173 0 L1014 0 L1257 786 L1136 786 L1145 815 L1222 815 Q1294 815 1342.5 821 Q1391 827 1433 840 L1360 623 Z " />
<glyph glyph-name="Gbreve" unicode="&#x11e;" horiz-adv-x="1309" d="M1126 465 L1059 215 Q1052 189 996.5 136 Q941 83 870 45 Q805 9 729 -10 Q653 -29 575 -29 Q361 -29 210 135 Q59 299 59 530 Q59 685 118 831.5 Q177 978 289 1104 Q410 1239 552.5 1311.5 Q695 1384 838 1384 Q919 1384 985 1363.5 Q1051 1343 1119 1296 Q1135 1285 1165 1261 Q1225 1212 1260 1212 Q1277 1212 1291 1226.5 Q1305 1241 1317 1272 L1343 1268 L1212 793 L1186 801 Q1193 839 1196.5 880.5 Q1200 922 1200 973 Q1200 1154 1109 1255 Q1018 1356 854 1356 Q717 1356 623 1284 Q529 1212 438 1034 Q341 842 286 661 Q231 480 231 360 Q231 185 320.5 94.5 Q410 4 582 4 Q690 4 760.5 60 Q831 116 862 227 L926 465 L784 465 L793 494 L1274 494 L1274 465 L1126 465 Z M639 1807 L694 1807 Q702 1734 744.5 1697.5 Q787 1661 864 1661 Q959 1661 1031 1696 Q1103 1731 1167 1807 L1227 1807 Q1146 1666 1054.5 1598 Q963 1530 856 1530 Q747 1530 693 1598.5 Q639 1667 639 1807 Z " />
<glyph glyph-name="gbreve" unicode="&#x11f;" horiz-adv-x="895" d="M492 -31 L145 -31 Q71 -54 25.5 -115 Q-20 -176 -20 -252 Q-20 -355 58 -416 Q136 -477 266 -477 Q333 -477 400.5 -451 Q468 -425 530 -375 Q589 -327 624 -266 Q659 -205 659 -152 Q659 -90 618.5 -60.5 Q578 -31 492 -31 Z M98 -27 Q47 -15 18.5 20.5 Q-10 56 -10 106 Q-10 175 42 225.5 Q94 276 186 295 Q129 348 102.5 398 Q76 448 76 504 Q76 628 188 734 Q300 840 436 840 Q515 840 570.5 809.5 Q626 779 664 715 Q699 778 738.5 809 Q778 840 823 840 Q872 840 897 818 Q922 796 922 754 Q922 717 900.5 692.5 Q879 668 848 668 Q814 668 792 688.5 Q770 709 770 739 Q770 741 771 751.5 Q772 762 772 770 Q772 773 767.5 775.5 Q763 778 756 778 Q740 778 722.5 757.5 Q705 737 678 686 Q686 656 690 630.5 Q694 605 694 582 Q694 450 594.5 353 Q495 256 360 256 Q335 256 301.5 261.5 Q268 267 222 278 Q151 273 104 240 Q57 207 57 166 Q57 137 82.5 123 Q108 109 158 109 L487 113 L494 113 Q605 113 662 64.5 Q719 16 719 -80 Q719 -253 573.5 -382.5 Q428 -512 223 -512 Q67 -512 -24 -447 Q-115 -382 -115 -274 Q-115 -188 -59.5 -124 Q-4 -60 98 -27 Z M442 815 Q401 815 365.5 795.5 Q330 776 311 743 Q295 714 285.5 694 Q276 674 272 659 Q237 542 222 482.5 Q207 423 207 403 Q207 343 242.5 313 Q278 283 348 283 Q396 283 429 307.5 Q462 332 485 387 Q523 474 547 570 Q571 666 571 709 Q571 756 535.5 785.5 Q500 815 442 815 Z M275 1262 L330 1262 Q338 1189 380.5 1152.5 Q423 1116 500 1116 Q595 1116 667 1151 Q739 1186 803 1262 L863 1262 Q782 1121 690.5 1053 Q599 985 492 985 Q383 985 329 1053.5 Q275 1122 275 1262 Z " />
<glyph glyph-name="Idot" unicode="&#x130;" horiz-adv-x="578" d="M-147 0 L-141 29 L12 29 L373 1327 L219 1327 L227 1356 L739 1356 L731 1327 L563 1327 L205 29 L371 29 L365 0 L-147 0 Z M433 1645 Q433 1685 464 1717 Q495 1749 535 1749 Q578 1749 610 1718 Q642 1687 642 1645 Q642 1601 611 1570.5 Q580 1540 535 1540 Q495 1540 464 1572 Q433 1604 433 1645 Z " />
<glyph glyph-name="Scedilla" unicode="&#x15e;" horiz-adv-x="1006" d="M98 483 Q89 443 84.5 407 Q80 371 80 338 Q80 192 175.5 99 Q271 6 418 6 Q556 6 653 104.5 Q750 203 750 344 Q750 497 506 617 L485 627 Q338 700 280.5 776.5 Q223 853 223 969 Q223 1143 334.5 1263.5 Q446 1384 606 1384 Q667 1384 716.5 1373 Q766 1362 807 1339 Q818 1333 836 1322 Q895 1286 918 1286 Q937 1286 949.5 1297 Q962 1308 981 1346 L1010 1339 L897 938 L870 946 Q879 985 883 1015.5 Q887 1046 887 1071 Q887 1201 813 1277.5 Q739 1354 614 1354 Q485 1354 398 1273 Q311 1192 311 1073 Q311 943 585 814 Q626 795 647 784 Q766 727 821.5 647 Q877 567 877 453 Q877 253 740 112 Q603 -29 408 -29 Q302 -29 182 28.5 Q62 86 45 86 Q18 86 -2.5 63 Q-23 40 -35 -4 L-63 4 L70 487 L98 483 Z M45 -369 L65 -326 Q133 -353 193 -369 Q253 -385 282 -385 Q334 -385 361.5 -356.5 Q389 -328 389 -274 Q389 -225 362.5 -200.5 Q336 -176 284 -176 Q272 -176 257 -177.5 Q242 -179 225 -182 L282 0 L315 0 L279 -135 Q298 -132 316.5 -130.5 Q335 -129 350 -129 Q444 -129 496 -169 Q548 -209 548 -281 Q548 -349 485.5 -390.5 Q423 -432 319 -432 Q264 -432 195 -416 Q126 -400 45 -369 Z " />
<glyph glyph-name="scedilla" unicode="&#x15f;" horiz-adv-x="743" d="M391 176 Q391 253 276 348 Q263 359 257 364 Q178 430 153.5 473.5 Q129 517 129 571 Q129 682 214 761 Q299 840 422 840 Q524 840 590.5 797 Q657 754 657 690 Q657 649 630 621.5 Q603 594 561 594 Q519 594 491 620 Q463 646 463 684 Q463 732 523 767 Q532 773 532 774 Q532 787 503.5 799 Q475 811 436 811 Q355 811 303.5 766 Q252 721 252 651 Q252 583 389 480 Q411 463 422 455 Q502 393 526.5 348.5 Q551 304 551 242 Q551 134 447.5 55.5 Q344 -23 199 -23 Q84 -23 6 36 Q-72 95 -72 178 Q-72 228 -39.5 263.5 Q-7 299 37 299 Q82 299 110.5 273.5 Q139 248 139 209 Q139 184 121.5 161 Q104 138 74 123 Q59 116 33.5 109.5 Q8 103 8 96 Q8 76 65 44 Q122 12 186 12 Q275 12 333 59 Q391 106 391 176 Z M-26 -369 L-6 -326 Q62 -353 122 -369 Q182 -385 211 -385 Q263 -385 290.5 -356.5 Q318 -328 318 -274 Q318 -225 291.5 -200.5 Q265 -176 213 -176 Q201 -176 186 -177.5 Q171 -179 154 -182 L211 0 L244 0 L208 -135 Q227 -132 245.5 -130.5 Q264 -129 279 -129 Q373 -129 425 -169 Q477 -209 477 -281 Q477 -349 414.5 -390.5 Q352 -432 248 -432 Q193 -432 124 -416 Q55 -400 -26 -369 Z " />
<glyph glyph-name="Cacute" unicode="&#x106;" horiz-adv-x="1270" d="M1104 332 Q1003 152 866 62.5 Q729 -27 557 -27 Q341 -27 198 135.5 Q55 298 55 547 Q55 716 119 866.5 Q183 1017 309 1147 Q424 1265 550.5 1325.5 Q677 1386 807 1386 Q867 1386 918 1375.5 Q969 1365 1012 1343 Q1037 1331 1089.5 1296.5 Q1142 1262 1169 1262 Q1200 1262 1213.5 1274.5 Q1227 1287 1237 1325 L1268 1325 L1169 858 L1139 858 Q1149 903 1154 937.5 Q1159 972 1159 1001 Q1159 1157 1065 1254.5 Q971 1352 823 1352 Q696 1352 601 1275 Q506 1198 418 1024 Q338 868 294 695.5 Q250 523 250 369 Q250 204 341 106 Q432 8 586 8 Q724 8 855 99.5 Q986 191 1071 348 L1104 332 Z M804 1495 L733 1495 L1032 1809 Q1050 1829 1071.5 1840.5 Q1093 1852 1112 1852 Q1139 1852 1160 1831 Q1181 1810 1181 1782 Q1181 1760 1165 1740.5 Q1149 1721 1112 1696 L804 1495 Z " />
<glyph glyph-name="cacute" unicode="&#x107;" horiz-adv-x="735" d="M625 287 Q562 139 469 58 Q376 -23 270 -23 Q155 -23 74.5 68 Q-6 159 -6 291 Q-6 395 35 496 Q76 597 154 682 Q227 761 305.5 800.5 Q384 840 471 840 Q561 840 614.5 801 Q668 762 668 698 Q668 657 640 630.5 Q612 604 569 604 Q533 604 506 631 Q479 658 479 694 Q479 753 519 790 Q524 795 524 797 Q524 803 510 807 Q496 811 471 811 Q415 811 368 775.5 Q321 740 285 670 Q261 625 240.5 570 Q220 515 203 449 Q179 357 166.5 283.5 Q154 210 154 164 Q154 93 186 55.5 Q218 18 279 18 Q371 18 451 90 Q531 162 596 303 L625 287 Z M387 950 L316 950 L615 1264 Q633 1284 654.5 1295.5 Q676 1307 695 1307 Q722 1307 743 1286 Q764 1265 764 1237 Q764 1215 748 1195.5 Q732 1176 695 1151 L387 950 Z " />
<glyph glyph-name="Ccaron" unicode="&#x10c;" horiz-adv-x="1270" d="M1104 332 Q1003 152 866 62.5 Q729 -27 557 -27 Q341 -27 198 135.5 Q55 298 55 547 Q55 716 119 866.5 Q183 1017 309 1147 Q424 1265 550.5 1325.5 Q677 1386 807 1386 Q867 1386 918 1375.5 Q969 1365 1012 1343 Q1037 1331 1089.5 1296.5 Q1142 1262 1169 1262 Q1200 1262 1213.5 1274.5 Q1227 1287 1237 1325 L1268 1325 L1169 858 L1139 858 Q1149 903 1154 937.5 Q1159 972 1159 1001 Q1159 1157 1065 1254.5 Q971 1352 823 1352 Q696 1352 601 1275 Q506 1198 418 1024 Q338 868 294 695.5 Q250 523 250 369 Q250 204 341 106 Q432 8 586 8 Q724 8 855 99.5 Q986 191 1071 348 L1104 332 Z M671 1843 L727 1843 L903 1637 L1179 1843 L1247 1843 L937 1495 L833 1495 L671 1843 Z " />
<glyph glyph-name="ccaron" unicode="&#x10d;" horiz-adv-x="735" d="M625 287 Q562 139 469 58 Q376 -23 270 -23 Q155 -23 74.5 68 Q-6 159 -6 291 Q-6 395 35 496 Q76 597 154 682 Q227 761 305.5 800.5 Q384 840 471 840 Q561 840 614.5 801 Q668 762 668 698 Q668 657 640 630.5 Q612 604 569 604 Q533 604 506 631 Q479 658 479 694 Q479 753 519 790 Q524 795 524 797 Q524 803 510 807 Q496 811 471 811 Q415 811 368 775.5 Q321 740 285 670 Q261 625 240.5 570 Q220 515 203 449 Q179 357 166.5 283.5 Q154 210 154 164 Q154 93 186 55.5 Q218 18 279 18 Q371 18 451 90 Q531 162 596 303 L625 287 Z M254 1298 L310 1298 L486 1092 L762 1298 L830 1298 L520 950 L416 950 L254 1298 Z " />
<glyph glyph-name="dslash" unicode="&#x111;" horiz-adv-x="963" d="M858 1327 L739 1327 L748 1356 L797 1356 Q865 1356 925 1369 Q985 1382 1044 1409 L952 1100 L1120 1100 L1106 1049 L938 1049 L682 180 Q671 145 665 117.5 Q659 90 659 76 Q659 52 672 35 Q685 18 702 18 Q733 18 782 66.5 Q831 115 885 199 L909 180 Q829 59 772.5 16 Q716 -27 647 -27 Q591 -27 557.5 6.5 Q524 40 508 111 Q445 42 384 8.5 Q323 -25 258 -25 Q134 -25 55.5 68 Q-23 161 -23 311 Q-23 529 120 685.5 Q263 842 449 842 Q538 842 592.5 798.5 Q647 755 666 670 L776 1049 L467 1049 L481 1100 L791 1100 L858 1327 Z M629 551 Q634 572 636.5 590.5 Q639 609 639 625 Q639 705 595 757 Q551 809 483 809 Q401 809 332 750 Q263 691 211 575 Q171 487 148 389.5 Q125 292 125 213 Q125 119 162.5 66.5 Q200 14 268 14 Q357 14 436.5 88 Q516 162 551 283 L629 551 Z " />
<glyph glyph-name="sfthyphen" unicode="&#xad;" horiz-adv-x="786" d="M72 344 L109 475 L557 475 L518 344 L72 344 Z " />
<glyph glyph-name="periodcentered" unicode="&#x2219;" horiz-adv-x="494" d="M152 655 Q152 694 178.5 721 Q205 748 244 748 Q282 748 308 721 Q334 694 334 655 Q334 617 308 591 Q282 565 244 565 Q206 565 179 591.5 Q152 618 152 655 Z " />
<glyph glyph-name="&amp;#x80;" unicode="&#x80;" horiz-adv-x="985" d="M895 326 Q816 155 705.5 65 Q595 -25 463 -25 Q287 -25 180.5 118.5 Q74 262 74 504 L74 535 L-45 535 L-25 582 L76 582 Q80 626 88 669 Q96 712 106 752 L-10 752 L10 799 L119 799 Q200 1050 359 1204 Q518 1358 690 1358 Q797 1358 886 1296.5 Q975 1235 985 1235 Q1006 1235 1018 1250 Q1030 1265 1036 1298 L1065 1298 L991 842 L961 842 Q969 883 973 917.5 Q977 952 977 981 Q977 1135 901 1231 Q825 1327 707 1327 Q580 1327 484.5 1201.5 Q389 1076 307 799 L692 799 L672 752 L295 752 Q284 714 274.5 672.5 Q265 631 256 582 L596 582 L575 535 L248 535 Q240 485 235.5 440 Q231 395 231 352 Q231 202 300 107 Q369 12 475 12 Q590 12 692.5 98.5 Q795 185 864 342 L895 326 Z " />
<glyph glyph-name="&amp;#x20ac;" unicode="&#x20ac;" horiz-adv-x="985" d="M895 326 Q816 155 705.5 65 Q595 -25 463 -25 Q287 -25 180.5 118.5 Q74 262 74 504 L74 535 L-45 535 L-25 582 L76 582 Q80 626 88 669 Q96 712 106 752 L-10 752 L10 799 L119 799 Q200 1050 359 1204 Q518 1358 690 1358 Q797 1358 886 1296.5 Q975 1235 985 1235 Q1006 1235 1018 1250 Q1030 1265 1036 1298 L1065 1298 L991 842 L961 842 Q969 883 973 917.5 Q977 952 977 981 Q977 1135 901 1231 Q825 1327 707 1327 Q580 1327 484.5 1201.5 Q389 1076 307 799 L692 799 L672 752 L295 752 Q284 714 274.5 672.5 Q265 631 256 582 L596 582 L575 535 L248 535 Q240 485 235.5 440 Q231 395 231 352 Q231 202 300 107 Q369 12 475 12 Q590 12 692.5 98.5 Q795 185 864 342 L895 326 Z " />
</font>
</svg>
