<?xml version="1.0" standalone="no"?>
<!DOCTYPE svg PUBLIC "-//W3C//DTD SVG 1.1//EN" "http://www.w3.org/Graphics/SVG/1.1/DTD/svg11.dtd" >
<svg xmlns="http://www.w3.org/2000/svg">
<metadata>
Created by FontPrep 20130207 at Mon Apr 27 13:26:26 2015
 By Martin
Copyright (c) 1987, 1991, 1993 Adobe Systems Incorporated.  All Rights Reserved.Futura is a registered trademark of Fundicion Tipografica Neufville S. A.
</metadata>
<defs>
<font id="e6d6aac5ad4ce505f33effbeb3bbf0a6" horiz-adv-x='1024' >
  <font-face 
    font-family="FuturaLT-LightOblique"
    font-weight="400"
    font-style="oblique"
    font-stretch="normal"
    units-per-em="2048"
    panose-1="2 0 5 4 3 0 0 9 0 3"
    ascent="1638"
    descent="-410"
    x-height="946"
    cap-height="1544"
    bbox="-358 -618 2552 1989"
    underline-thickness="102"
    underline-position="-153"
    slope="-9"
    unicode-range="U+0020-2122"
  />
<missing-glyph horiz-adv-x="1024" 
d="M102 1049h820v-1049h-820v1049zM905 16v1016h-786v-1016h786z" />
    <glyph glyph-name=".notdef" horiz-adv-x="1024" 
d="M102 1049h820v-1049h-820v1049zM905 16v1016h-786v-1016h786z" />
    <glyph glyph-name=".null" horiz-adv-x="0" 
 />
    <glyph glyph-name="nonmarkingreturn" horiz-adv-x="634" 
 />
    <glyph glyph-name="space" unicode=" " horiz-adv-x="634" 
 />
    <glyph glyph-name="exclam" unicode="!" horiz-adv-x="655" 
d="M350 147q35 0 56.5 -24.5t15.5 -59t-35 -59t-63.5 -24.5t-55 24.5t-14.5 59t33.5 59t62.5 24.5zM522 1544h99l-197 -1251h-98z" />
    <glyph glyph-name="quotedbl" unicode="&#x22;" horiz-adv-x="569" 
d="M461 1544l-101 -491h-55l57 491h99zM694 1544l-100 -491h-55l57 491h98z" />
    <glyph glyph-name="numbersign" unicode="#" 
d="M1171 467h-258l-149 -467h-94l147 467h-276l-142 -467h-98l141 467h-247l16 98h262l98 332h-252l17 98h266l135 435h103l-135 -435h278l135 435h103l-138 -435h226l-17 -98h-241l-105 -332h242zM672 897l-101 -332h279l100 332h-278z" />
    <glyph glyph-name="dollar" unicode="$" 
d="M723 82q130 29 229.5 130.5t118.5 225.5q25 151 -87 216t-157 87zM850 1466q-110 0 -200.5 -88.5t-106.5 -199.5q-24 -139 76 -199.5t141 -83.5zM743 786q-162 85 -214 136t-74.5 109.5t-10.5 141.5q24 163 142 271.5t280 120.5l35 215h92l-35 -219q94 -12 169 -68.5
t110 -144.5l-86 -62q-29 66 -80 118t-129 62l-96 -614q66 -37 130 -72t141 -109.5t52 -237.5t-162 -291.5t-298 -157.5l-37 -232h-92l34 228q-160 4 -262 92t-133 241l90 39q25 -123 112 -202t210 -72z" />
    <glyph glyph-name="percent" unicode="%" horiz-adv-x="1359" 
d="M823 1472q75 -87 56 -216q-19 -130 -123.5 -217t-235.5 -87t-207.5 85t-57.5 215q20 130 125 218.5t236.5 88.5t206.5 -87zM602 1473q-45 0 -89 -17.5t-80 -46.5t-60.5 -70t-30.5 -86t5 -84t38 -68.5t64.5 -46t83 -16.5t89.5 16.5t79.5 46t60 68.5t31 84t-5 86t-38 70
t-64.5 46.5t-83 17.5zM1413 1544l-1167 -1579l-58 37l1164 1577zM1293 505q74 -87 55 -218q-20 -130 -124.5 -215.5t-234.5 -85.5t-206.5 86.5t-57.5 214.5t123 216.5t237.5 88.5t207.5 -87zM904.5 443.5q-76.5 -62.5 -91.5 -153.5q-14 -91 41 -154.5t149 -63.5t169.5 64
t90.5 152q15 89 -42.5 153.5t-148.5 64.5t-167.5 -62.5z" />
    <glyph glyph-name="ampersand" unicode="&#x26;" horiz-adv-x="1314" 
d="M699.5 1383.5q-100.5 -97.5 -55 -200t64 -135t34.5 -67.5q45 33 159.5 101t137.5 206q12 78 -32.5 135.5t-125.5 57.5q-82 0 -182.5 -97.5zM223 33q-143 175 -119 344q40 247 255.5 379.5t304.5 181.5q-62 100 -92.5 177t-19.5 150q20 131 124 219.5t226 88.5t188.5 -85
t46.5 -202q-25 -168 -156 -255t-193 -126l299 -520l230 215l69 -41l-253 -246l186 -313h-107l-153 256q-178 -132 -435.5 -265t-400.5 42zM485 61q94 0 222.5 72t306.5 201l-305 526l-111 -65q-164 -94 -298 -212.5t-101.5 -278.5t112.5 -201.5t174 -41.5z" />
    <glyph glyph-name="quotesingle" unicode="'" horiz-adv-x="454" 
d="M520 1544l-100 -491h-55l57 491h98z" />
    <glyph glyph-name="parenleft" unicode="(" horiz-adv-x="491" 
d="M600 1544q-301 -681 -311 -1153.5t18 -701.5l-84 -51q-83 362 8 966q58 393 152 642t152 351z" />
    <glyph glyph-name="parenright" unicode=")" horiz-adv-x="491" 
d="M465 1597q44 -180 29.5 -664.5t-150 -839.5t-190.5 -455l-68 51q210 490 274 915q78 487 19 940z" />
    <glyph glyph-name="asterisk" unicode="*" horiz-adv-x="1267" 
d="M827 1544h101l-56 -307l308 102l14 -96l-309 -88l149 -244l-90 -59l-133 254l-217 -254l-72 57l226 246l-281 88l47 96l274 -102z" />
    <glyph glyph-name="plus" unicode="+" 
d="M752 1049h98l-76 -476h475l-14 -98h-475l-76 -475h-98l76 475h-476l15 98h475z" />
    <glyph glyph-name="comma" unicode="," horiz-adv-x="634" 
d="M426 123l-244 -463l-59 23l215 469z" />
    <glyph glyph-name="hyphenminus" unicode="-" horiz-adv-x="389" 
d="M500 700l-15 -92h-389l15 92h389z" />
    <glyph glyph-name="period" unicode="." horiz-adv-x="634" 
d="M340 147q35 0 56.5 -24.5t15.5 -59t-35 -59t-63.5 -24.5t-55 24.5t-14.5 59t33.5 59t62.5 24.5z" />
    <glyph glyph-name="slash" unicode="/" horiz-adv-x="1310" 
d="M1501 1653l-1399 -1944l-69 39l1403 1942z" />
    <glyph glyph-name="zero" unicode="0" 
d="M882.5 1565q96.5 0 169 -36t126 -95.5t87 -138t50 -166t17.5 -177.5t-11 -170t-41 -170t-73 -180t-102 -171t-131 -144.5t-159 -100t-184.5 -36.5t-172 36.5t-125.5 100t-85 144.5t-48.5 171t-14.5 180t13.5 170t42 170t73.5 177.5t102.5 166t130 138t155.5 95.5
t180.5 36zM647 72q123 0 267 103.5t231.5 339.5t87.5 398q0 163 -52.5 312.5t-141.5 198.5t-171 49q-123 0 -223 -74t-173 -180.5t-117 -225.5t-59 -217t-9 -222t45 -231.5t115.5 -179t199.5 -71.5z" />
    <glyph glyph-name="one" unicode="1" 
d="M616 1452l62 92h295l-244 -1544h-98l229 1452h-244z" />
    <glyph glyph-name="two" unicode="2" 
d="M867 1473q-153 0 -275.5 -102.5t-142.5 -262.5h-99q16 84 46 155.5t103 142.5t179 115t204 44q195 0 308.5 -129.5t84.5 -321.5q-29 -193 -171.5 -330t-200.5 -192l-528 -500h733l-14 -92h-953l676 633q51 49 110.5 105.5t178.5 195.5t73.5 296.5t-140.5 200t-172 42.5z
" />
    <glyph glyph-name="three" unicode="3" 
d="M591 1460.5q120 104.5 293 104.5t273 -115.5t72 -282.5q-18 -119 -95 -215t-192 -143q111 -45 162 -148t34 -213q-32 -206 -182 -337t-337 -131t-294.5 112.5t-78.5 286.5h98q-8 -135 66.5 -221t217.5 -86t263.5 105.5t144.5 252.5t-62.5 237.5t-234.5 90.5l15 92
q139 4 246 91.5t133 229.5q19 122 -57.5 212t-206.5 90t-221 -80t-120 -213h-98q41 176 161 280.5z" />
    <glyph glyph-name="four" unicode="4" 
d="M1235 385l-14 -92h-217l-48 -293h-98l47 293h-833l2 12l1124 1292h12l-192 -1212h217zM1063 1298h-12l-783 -901l-2 -12h654z" />
    <glyph glyph-name="five" unicode="5" 
d="M747 1051q89 0 179 -41t182.5 -153t57.5 -338q-34 -226 -220.5 -382.5t-423.5 -156.5q-141 0 -250.5 67.5t-165.5 188.5l97 36q47 -92 137 -146t194 -54q201 0 352 130t181 318t-81.5 313t-299.5 125q-124 0 -246 -69l303 655h588l-14 -92h-516l-195 -418q52 17 141 17z
" />
    <glyph glyph-name="six" unicode="6" 
d="M815 1061q109 0 200 -43t188.5 -162t64.5 -330t-213 -378q-180 -168 -415 -168t-371.5 155t-100.5 383q30 185 166 340l610 707l70 -60l-416 -481l4 -4q104 41 213 41zM647 72q92 0 179 34.5t158 96t120 143.5t63.5 174t-8 174t-75 142.5t-128 96.5t-168 36t-180.5 -36
t-158.5 -96.5t-119.5 -142.5t-63.5 -174t8 -174t74.5 -143.5t129 -96t169 -34.5z" />
    <glyph glyph-name="seven" unicode="7" 
d="M373 1452l14 92h1120l-1351 -1560l-68 59l1223 1409h-938z" />
    <glyph glyph-name="eight" unicode="8" 
d="M415 172q89 -100 231 -100t260.5 98.5t143.5 241.5t-64.5 243.5t-231.5 100.5t-261 -98.5t-143 -242t65 -243.5zM1158.5 1449.5q100.5 -115.5 72.5 -292.5q-16 -111 -90 -207t-183 -145q231 -121 189 -402q-27 -180 -179 -301.5t-337.5 -121.5t-297 121t-83.5 302
q47 283 315 402q-92 49 -135 145.5t-28 195.5t59.5 174t146 160t276 85t275 -115.5zM632 1380q-108 -93 -128 -223t58.5 -219.5t207.5 -89.5t236 91t128 220q21 128 -59 221t-207 93q-128 0 -236 -93z" />
    <glyph glyph-name="nine" unicode="9" 
d="M699 487q-108 0 -198.5 43t-152 117t-89 172.5t-9.5 210.5q37 225 225 380t415 155q228 0 359.5 -158.5t96.5 -388.5q-29 -170 -166 -330l-609 -704l-71 59l420 481l-5 4q-108 -41 -216 -41zM870.5 1473q-92.5 0 -180.5 -35t-158.5 -95.5t-121 -142.5t-64.5 -174
t9.5 -173t75.5 -142.5t129 -96t169 -34.5t179 34.5t158 96t119 142.5t62.5 173t-7 174t-74 142.5t-128 95.5t-168 35z" />
    <glyph glyph-name="colon" unicode=":" horiz-adv-x="634" 
d="M340 147q35 0 56.5 -24.5t15.5 -59t-35 -59t-63.5 -24.5t-55 24.5t-14.5 59t33.5 59t62.5 24.5zM471 967q35 0 55.5 -24.5t15.5 -59.5t-34 -59.5t-63.5 -24.5t-55 24.5t-16.5 59.5q6 35 34.5 59.5t63.5 24.5z" />
    <glyph glyph-name="semicolon" unicode=";" horiz-adv-x="634" 
d="M426 123l-244 -463l-59 23l215 469zM483.5 967q34.5 0 55 -24.5t15.5 -59.5t-33.5 -59.5t-63.5 -24.5t-55.5 24.5t-16.5 59.5q6 35 35 59.5t63.5 24.5z" />
    <glyph glyph-name="less" unicode="&#x3c;" 
d="M1171 84l-14 -94l-973 481l19 109l1120 456l-14 -94l-1008 -418z" />
    <glyph glyph-name="equal" unicode="=" 
d="M1262 649h-1049l16 99h1049zM1206 301h-1048l16 98h1049z" />
    <glyph glyph-name="greater" unicode="&#x3e;" 
d="M1137 524l-877 418l14 94l977 -456l-18 -109l-1124 -481l14 94z" />
    <glyph glyph-name="question" unicode="?" horiz-adv-x="1005" 
d="M324 1104q0 84 10 145q10 60 49 120.5t127 128t247 67.5t242.5 -104t59.5 -265q-32 -233 -175 -290.5t-207 -73.5q-147 -36 -217.5 -80t-85.5 -145t40 -162.5t155 -61.5q151 0 199.5 95t54.5 143h99q-16 -141 -121.5 -235.5t-248.5 -94.5q-140 0 -219 87t-59 218
q33 193 155.5 245t188.5 68q157 38 238.5 92.5t101.5 182.5t-43.5 208.5t-180.5 80.5t-204.5 -75t-103.5 -186q-10 -76 -8 -108h-94zM520 147q35 0 56.5 -24.5t15.5 -59t-35 -59t-63.5 -24.5t-55 24.5t-14.5 59t33.5 59t62.5 24.5z" />
    <glyph glyph-name="at" unicode="@" horiz-adv-x="1638" 
d="M1038 1159q-68 0 -148.5 -54t-147 -135t-112.5 -175.5t-56 -155.5q-17 -110 30.5 -179t145.5 -65q99 4 195 80t134 164l146 301q27 61 -21.5 140t-165.5 79zM991 410q-137 -101 -273 -101t-196 84.5t-41 202.5q38 241 211 445t387 204q72 0 131.5 -35.5t94.5 -101.5
l45 96h90l-316 -663q-32 -73 -30.5 -109.5t71.5 -36.5q132 0 278.5 174.5t170.5 341.5q39 246 -122 407t-405 161q-141 0 -275 -58.5t-243.5 -157t-183.5 -228.5t-96.5 -271t13.5 -268t116 -222.5t195 -151.5t271 -56t317 69.5t272 208.5h114q-109 -163 -306 -263.5
t-427 -100.5q-164 0 -296 62t-219 171t-124 254t-10 310t110.5 308.5t205.5 250t271.5 168t301.5 61.5q301 0 475.5 -187.5t130.5 -474.5q-39 -239 -172 -370.5t-225.5 -177.5t-160.5 -46q-136 0 -151 101z" />
    <glyph glyph-name="A" unicode="A" horiz-adv-x="1312" 
d="M397 508l-286 -508h-101l899 1595l394 -1595h-101l-127 508h-678zM870 1346l-421 -746h604z" />
    <glyph glyph-name="B" unicode="B" horiz-adv-x="1157" 
d="M514 92q82 0 165 6t161 53.5t129 118t65.5 156.5t-16 162t-98.5 112t-155 44t-165 8h-217l-104 -660h235zM719 1544q88 0 167 -14t139 -76q110 -113 79 -323q-32 -210 -230 -312q139 -29 210 -135t49 -254q-29 -197 -193 -319q-94 -70 -184 -90.5t-195 -20.5h-395
l244 1544h309zM567 844q78 0 145.5 5t141.5 52t108 107.5t46 138.5q28 176 -88 256q-53 37 -121 43t-135 6h-170l-97 -608h170z" />
    <glyph glyph-name="C" unicode="C" horiz-adv-x="1513" 
d="M887 72q212 0 358 91t197 144l-23 -135q-257 -192 -545 -192q-162 0 -297 62t-229 169.5t-136 252t-16 307.5t112.5 308.5t214.5 253t285 170t309 62.5q307 0 491 -201l-21 -135q-72 107 -203.5 175.5t-276.5 68.5q-144 0 -280.5 -57.5t-248 -156t-188 -227.5t-98.5 -267
q-45 -274 132 -480q84 -92 205 -152.5t258 -60.5z" />
    <glyph glyph-name="D" unicode="D" horiz-adv-x="1335" 
d="M688 1544q187 0 315 -41.5t230 -154.5t141 -262.5t12 -312.5q-57 -344 -327 -568q-204 -168 -366.5 -186.5t-248.5 -18.5h-278l244 1544h278zM457 92q152 0 286 39t256 143q243 206 289 496q23 147 -13 280.5t-130 233.5t-211 134t-262 34h-178l-215 -1360h178z" />
    <glyph glyph-name="E" unicode="E" horiz-adv-x="1038" 
d="M494 1452l-88 -561h622l-14 -92h-623l-112 -707h639l-15 -92h-737l244 1544h737l-14 -92h-639z" />
    <glyph glyph-name="F" unicode="F" horiz-adv-x="909" 
d="M494 1452l-88 -561h509l-14 -92h-510l-127 -799h-98l244 1544h622l-14 -92h-524z" />
    <glyph glyph-name="G" unicode="G" horiz-adv-x="1687" 
d="M864 -20q-162 0 -296 62t-225 169.5t-132 251t-15 306.5t111.5 308.5t212.5 254t284 171t345 62.5t340.5 -97.5t249.5 -263.5l-90 -63q-78 154 -216.5 243t-302.5 89t-301 -57.5t-248.5 -154t-188 -223.5t-98.5 -268t13 -268t115 -222.5t198 -151.5t254 -56
q254 0 492 170q113 86 170 184t82 225h-553l14 92h652q-21 -158 -110 -363t-342 -302.5t-415 -97.5z" />
    <glyph glyph-name="H" unicode="H" horiz-adv-x="1466" 
d="M1343 889l103 655h98l-244 -1544h-98l127 797h-938l-127 -797h-98l244 1544h98l-102 -655h937z" />
    <glyph glyph-name="I" unicode="I" horiz-adv-x="430" 
d="M264 0h-98l244 1544h98z" />
    <glyph glyph-name="J" unicode="J" horiz-adv-x="446" 
d="M-44 -324q-85 0 -145.5 46.5t-82.5 121.5l82 56q18 -55 63 -93t105 -38q104 0 148.5 75t59.5 185l240 1515h98l-239 -1515q-28 -168 -100.5 -260.5t-228.5 -92.5z" />
    <glyph glyph-name="K" unicode="K" horiz-adv-x="1165" 
d="M1241 1544h131l-872 -743l676 -801h-129l-625 737l-47 -41l-111 -696h-98l244 1544h98l-113 -721z" />
    <glyph glyph-name="L" unicode="L" horiz-adv-x="669" 
d="M279 92h393l-15 -92h-491l244 1544h98z" />
    <glyph glyph-name="M" unicode="M" horiz-adv-x="1837" 
d="M1663 1278h-4l-750 -1329l-325 1329h-4l-467 -1278h-95l584 1595l346 -1405l791 1405l80 -1595h-95z" />
    <glyph glyph-name="N" unicode="N" horiz-adv-x="1726" 
d="M1552 -51l-1077 1378l-211 -1327h-98l248 1565l1079 -1368l213 1347h98z" />
    <glyph glyph-name="O" unicode="O" horiz-adv-x="1748" 
d="M1121 1565q163 0 299 -62.5t228.5 -171t133.5 -253t15 -307.5t-113 -306t-214 -252t-282.5 -171t-318.5 -62t-298 62t-227 171t-133 252t-15 306t112.5 307.5t212.5 253t281.5 171t318.5 62.5zM1107 1473q-144 0 -280.5 -56.5t-247 -152t-186.5 -222.5t-98.5 -270
t12.5 -270t116 -222.5t200 -151.5t263 -56t280.5 56t247 151.5t187 223.5t99.5 270t-13 269t-117 222.5t-200 152t-263 56.5z" />
    <glyph glyph-name="P" unicode="P" horiz-adv-x="966" 
d="M682 1544q92 0 175 -14t144 -74q121 -120 91 -319q-14 -84 -100.5 -244t-436.5 -160h-174l-117 -733h-98l244 1544h272zM573 825q76 0 145.5 15.5t133.5 65.5q121 95 141 235q12 72 -6 139.5t-70 111.5t-121 52t-141 8h-161l-99 -627h178z" />
    <glyph glyph-name="Q" unicode="Q" horiz-adv-x="1748" 
d="M1112 1473q-145 0 -282.5 -56.5t-249 -152t-188 -222.5t-98.5 -271t14 -271t117 -222.5t202 -150.5t252 -55q235 0 469 161l-322 400h139l260 -340q231 212 273 467q23 145 -10 274t-112 226.5t-199 155t-265 57.5zM1124 1565q162 0 297 -62.5t227.5 -169t134.5 -250
t15 -306.5q-51 -308 -313 -558l168 -219h-133l-113 164q-255 -184 -552 -184q-151 0 -286 61t-227 168.5t-132 252t-13 309.5t112.5 309.5t212.5 252t283.5 170t318.5 62.5z" />
    <glyph glyph-name="R" unicode="R" horiz-adv-x="999" 
d="M602 1544q94 0 182 -10t160 -68q139 -113 105 -321t-174.5 -313t-333.5 -101l389 -731h-113l-387 731h-49l-117 -731h-98l244 1544h192zM520 823q72 0 143.5 10.5t137.5 61.5q125 89 147 244q14 86 -13.5 163.5t-105.5 114.5q-57 29 -130.5 32t-141.5 3h-63l-99 -629h125
z" />
    <glyph glyph-name="S" unicode="S" horiz-adv-x="1114" 
d="M338 149.5q80 -77.5 229 -77.5t278 106.5t153 262.5t-97 220t-166 89l-256 147q-147 98 -114 277q23 168 152.5 279.5t303.5 111.5q117 0 210 -58.5t132 -158.5l-78 -58q-41 84 -107.5 133.5t-182.5 49.5t-214 -86.5t-120 -222.5t85 -194.5t150 -80.5l271 -154
q157 -111 126 -303t-196 -322t-343 -130q-177 0 -281.5 91t-135.5 240l92 39q29 -123 109 -200.5z" />
    <glyph glyph-name="T" unicode="T" horiz-adv-x="921" 
d="M510 0h-98l229 1452h-399l14 92h897l-14 -92h-400z" />
    <glyph glyph-name="U" unicode="U" horiz-adv-x="1351" 
d="M671.5 -20q-116.5 0 -221 45t-169.5 135q-78 124 -63 243t26 179l151 962h99l-148 -934q-22 -146 -22 -202q0 -123 44 -192t137 -106.5t161 -37.5q252 0 395 154q68 73 94.5 176.5t42.5 207.5l148 934h98l-152 -962q-28 -164 -58 -249t-114 -173q-92 -90 -212 -135
t-236.5 -45z" />
    <glyph glyph-name="V" unicode="V" horiz-adv-x="1136" 
d="M602 225h4l666 1319h98l-813 -1595l-303 1595h98z" />
    <glyph glyph-name="W" unicode="W" horiz-adv-x="2263" 
d="M592 217l799 1405l356 -1405l637 1327h98l-772 -1595l-364 1427l-814 -1427l-264 1595h99z" />
    <glyph glyph-name="X" unicode="X" horiz-adv-x="1011" 
d="M285 1544h108l250 -663l459 663h108l-522 -756l299 -788h-106l-267 698l-483 -698h-106l546 788z" />
    <glyph glyph-name="Y" unicode="Y" horiz-adv-x="1144" 
d="M252 1544h108l332 -782l578 782h108l-653 -885l-104 -659h-99l105 659z" />
    <glyph glyph-name="Z" unicode="Z" horiz-adv-x="1163" 
d="M1126 92l-14 -92h-1087l1171 1452h-852l14 92h1024l-1171 -1452h915z" />
    <glyph glyph-name="bracketleft" unicode="[" horiz-adv-x="614" 
d="M182 -311h250l-16 -105h-348l309 1960h348l-16 -104h-250z" />
    <glyph glyph-name="backslash" unicode="\" horiz-adv-x="1310" 
d="M412 1690l833 -1651l-82 -39l-829 1653z" />
    <glyph glyph-name="bracketright" unicode="]" horiz-adv-x="614" 
d="M610 1440h-250l17 104h348l-309 -1960h-348l16 105h250z" />
    <glyph glyph-name="asciicircum" unicode="^" 
d="M209 616l616 928h107l325 -928h-94l-299 836l-559 -836h-96z" />
    <glyph glyph-name="underscore" unicode="_" horiz-adv-x="1024" 
d="M-41 -256l16 102h1024l-16 -102h-1024z" />
    <glyph glyph-name="grave" unicode="`" horiz-adv-x="641" 
d="M510 1462l160 -301l-84 -35l-207 297z" />
    <glyph glyph-name="a" unicode="a" horiz-adv-x="1146" 
d="M382.5 760q-122.5 -121 -149.5 -281q-25 -173 58.5 -293t252.5 -120q170 0 288.5 120.5t146.5 297.5q27 176 -60 286.5t-251 110.5q-163 0 -285.5 -121zM682 967q111 0 200 -47.5t136 -137.5h4l25 164h92l-150 -946h-92l27 170h-4q-138 -190 -420 -190q-80 0 -160 38.5
t-129 106.5t-67.5 159t6.5 249.5t173 296t359 137.5z" />
    <glyph glyph-name="b" unicode="b" horiz-adv-x="1146" 
d="M917.5 188.5q122.5 122.5 147.5 288.5q25 165 -61 284.5t-251 119.5t-286.5 -114.5t-147 -288t55.5 -293t251 -119.5q169 0 291.5 122.5zM770 967q108 0 187 -37t129.5 -102.5t69 -154.5t-6.5 -248.5t-176.5 -302t-362.5 -142.5q-170 0 -240.5 72.5t-88.5 117.5h-5
l-26 -170h-92l268 1690h92l-143 -908h4q74 90 178.5 137.5t212.5 47.5z" />
    <glyph glyph-name="c" unicode="c" horiz-adv-x="976" 
d="M913 111q-175 -131 -375 -131t-315 141.5t-82 351.5q33 209 195.5 351.5t360.5 142.5t321 -117l-21 -123q-114 154 -309 154q-165 0 -297 -121t-157.5 -285.5t67 -286.5t256.5 -122q102 0 199.5 46t175.5 124z" />
    <glyph glyph-name="d" unicode="d" horiz-adv-x="1146" 
d="M832.5 186.5q118.5 120.5 146.5 297.5q27 176 -60 286.5t-251 110.5t-286 -121t-149 -281q-25 -173 58.5 -293t252.5 -120q170 0 288.5 120.5zM682 967q111 0 200 -47.5t136 -137.5h4l143 908h92l-268 -1690h-92l27 170h-4q-138 -190 -420 -190q-80 0 -160 38.5
t-129 106.5t-67.5 159t6.5 249.5t173 296t359 137.5z" />
    <glyph glyph-name="e" unicode="e" horiz-adv-x="1044" 
d="M539 -20q-224 0 -327.5 143.5t-72.5 347.5t183.5 350t358.5 146t305.5 -145t66.5 -357h-822q-32 -179 59.5 -289t271.5 -110q96 0 192 59t161 156l70 -45q-84 -123 -203.5 -189.5t-242.5 -66.5zM666 881q-140 0 -263.5 -97t-156.5 -233h729q4 132 -82 231t-227 99z" />
    <glyph glyph-name="f" unicode="f" horiz-adv-x="491" 
d="M650 1630q-39 0 -76 -26.5t-65 -80t-44 -171.5l-66 -406h238l-12 -86h-238l-137 -860h-92l137 860h-105l13 86h104l68 424q25 165 70 227q86 119 233 119q43 0 80 -14l-15 -84q-54 12 -93 12z" />
    <glyph glyph-name="g" unicode="g" horiz-adv-x="1161" 
d="M396.5 759.5q-123.5 -121.5 -148.5 -287.5q-25 -167 58 -286.5t253 -119.5q171 0 289 121t145 297t-60 286.5t-250 110.5t-286.5 -121.5zM456 -539q-203 0 -316.5 108.5t-94.5 297.5h92q-16 -145 76 -232.5t240 -87.5q204 0 325 142q68 82 96.5 172t45.5 186l18 117h-4
q-78 -86 -184.5 -135t-211.5 -49q-208 0 -312.5 147t-70.5 351t190.5 346.5t366.5 142.5q211 0 320 -185h4l25 164h92l-143 -901q-16 -109 -46 -208t-111 -192t-188 -138.5t-209 -45.5z" />
    <glyph glyph-name="h" unicode="h" horiz-adv-x="1003" 
d="M728.5 967q132.5 0 185 -97.5t22.5 -298.5l-90 -571h-92l90 571q24 152 2.5 206t-62 79t-124.5 25q-266 0 -336 -414l-74 -467h-92l268 1690h92l-141 -891h4q53 78 134 123t213.5 45z" />
    <glyph glyph-name="i" unicode="i" horiz-adv-x="479" 
d="M285 0h-92l149 946h92zM452.5 1346q34.5 0 55 -25t15.5 -59t-33.5 -59t-63.5 -25t-55.5 24.5t-14.5 59.5q4 35 33 59.5t63.5 24.5z" />
    <glyph glyph-name="j" unicode="j" horiz-adv-x="479" 
d="M197 -553h-93l238 1499h92zM452.5 1346q34.5 0 55 -25t15.5 -59t-33.5 -59t-63.5 -25t-55.5 24.5t-14.5 59.5q4 35 33 59.5t63.5 24.5z" />
    <glyph glyph-name="k" unicode="k" horiz-adv-x="874" 
d="M336 545l452 401h119l-463 -409l447 -537h-121l-393 473l-62 -53l-65 -420h-92l268 1690h92z" />
    <glyph glyph-name="l" unicode="l" horiz-adv-x="407" 
d="M250 0h-92l268 1690h92z" />
    <glyph glyph-name="m" unicode="m" horiz-adv-x="1484" 
d="M653 967q84 0 145.5 -44t84.5 -128q53 86 133 129t210.5 43t177 -99t17.5 -274l-94 -594h-92l96 606q20 135 1 182.5t-56 70t-108 22.5q-233 0 -294 -336l-86 -545h-92l92 584q20 141 -8.5 219t-158.5 78t-199.5 -109.5t-89.5 -251.5l-82 -520h-92l149 946h92l-18 -119h4
q43 66 113.5 103t154.5 37z" />
    <glyph glyph-name="n" unicode="n" horiz-adv-x="1003" 
d="M728.5 967q132.5 0 185 -97.5t22.5 -298.5l-90 -571h-92l90 571q24 152 2.5 206t-62 79t-124.5 25q-266 0 -336 -414l-74 -467h-92l149 946h92l-22 -147h4q53 78 134 123t213.5 45z" />
    <glyph glyph-name="o" unicode="o" horiz-adv-x="1120" 
d="M1041.5 825.5q122.5 -141.5 89 -353t-200.5 -352t-374 -140.5t-328 145.5t-89 348.5t199.5 348t374.5 145q206 0 328.5 -141.5zM390 759q-133 -122 -158 -287t69 -285.5t266 -120.5t309 119.5t163 291.5q26 171 -74 287.5t-271 116.5t-304 -122z" />
    <glyph glyph-name="p" unicode="p" horiz-adv-x="1146" 
d="M754 881q-170 0 -288.5 -122.5t-150.5 -305.5q-25 -172 61.5 -279.5t251.5 -107.5t288 119t148 284q25 166 -57.5 289t-252.5 123zM796 967q81 0 160.5 -40t129 -107.5t67.5 -159t-6 -249t-172.5 -294.5t-360.5 -137q-111 0 -200.5 46t-132.5 138h-5l-114 -717h-92
l237 1499h92l-26 -170h4q140 191 419 191z" />
    <glyph glyph-name="q" unicode="q" horiz-adv-x="1146" 
d="M668 881q-170 0 -288.5 -122.5t-150.5 -305.5q-25 -172 61.5 -279.5t251.5 -107.5t288 119t148 284q25 166 -57.5 289t-252.5 123zM526 -20q-213 0 -316.5 136.5t-70.5 348.5t184.5 357t362.5 145q171 0 241 -73t89 -118h4l27 170h92l-238 -1499h-92l115 717h-4
q-74 -92 -180 -138t-214 -46z" />
    <glyph glyph-name="r" unicode="r" horiz-adv-x="569" 
d="M612 967q44 0 97 -23l-62 -82q-31 18 -63 19q-134 0 -180 -104.5t-58 -173t-20 -120.5l-76 -483h-92l149 946h92l-18 -123h4q81 144 227 144z" />
    <glyph glyph-name="s" unicode="s" horiz-adv-x="768" 
d="M408 835.5q-57 -45.5 -65 -102.5q-9 -57 20.5 -89t76.5 -54.5t103.5 -43t134 -72.5t55.5 -190t-123 -221t-226 -83q-124 0 -202 66.5t-88 182.5l94 29q12 -86 61.5 -139t141.5 -53t163 61t85 147q14 87 -29 124t-106 61q-143 54 -207 109.5t-48 157.5t103 171.5t177 69.5
t152 -43t83 -109l-86 -41q-16 49 -55 78t-99 29q-59 0 -116 -45.5z" />
    <glyph glyph-name="t" unicode="t" horiz-adv-x="428" 
d="M260 0h-92l137 860h-104l12 86h104l54 338h92l-53 -338h165l-12 -86h-166z" />
    <glyph glyph-name="u" unicode="u" horiz-adv-x="966" 
d="M427.5 -20q-131.5 0 -210.5 126q-35 59 -29.5 130t15.5 143l90 567h92l-84 -534q-25 -170 -3.5 -229.5t66 -88t163.5 -28.5t180.5 88t89.5 258l84 534h92l-90 -567q-10 -72 -28.5 -142.5t-74.5 -133.5t-138.5 -93t-214 -30z" />
    <glyph glyph-name="v" unicode="v" horiz-adv-x="886" 
d="M473 166l459 780h94l-590 -997l-276 997h94z" />
    <glyph glyph-name="w" unicode="w" horiz-adv-x="1540" 
d="M465 170l465 827l205 -827l450 776h94l-585 -997l-205 817l-461 -817l-268 997h94z" />
    <glyph glyph-name="x" unicode="x" horiz-adv-x="907" 
d="M190 946h111l242 -383l362 383h111l-422 -446l305 -500h-108l-269 434l-405 -434h-109l465 500z" />
    <glyph glyph-name="y" unicode="y" horiz-adv-x="942" 
d="M135 946h96l269 -856l497 856h95l-873 -1499h-94l313 537z" />
    <glyph glyph-name="z" unicode="z" horiz-adv-x="983" 
d="M983 86l-14 -86h-963l912 860h-650l13 86h841l-907 -860h768z" />
    <glyph glyph-name="braceleft" unicode="{" horiz-adv-x="614" 
d="M180 612q91 58 131.5 103.5t57.5 132.5l55 360q29 180 103 256t247 80l-14 -94q-90 0 -150.5 -35t-74.5 -129l-60 -381q-31 -200 -96.5 -254.5t-106.5 -79.5l-2 -10q71 -54 95.5 -122t1.5 -222l-62 -379q-20 -138 59.5 -151t114.5 -13l-14 -90q-171 4 -221.5 80.5
t-22.5 253.5l58 361q11 84 -16 136t-97 107z" />
    <glyph glyph-name="bar" unicode="|" horiz-adv-x="655" 
d="M532 1610h99l-324 -2048h-98z" />
    <glyph glyph-name="braceright" unicode="}" horiz-adv-x="614" 
d="M612 522q-89 -57 -132 -110.5t-54 -132.5l-57 -361q-28 -177 -104.5 -253.5t-246.5 -80.5l15 90q86 0 147.5 33.5t75.5 130.5l61 379q31 208 96.5 264t106.5 80l2 10q-72 54 -95.5 121t-0.5 213l59 381q21 141 -59 152.5t-113 11.5l15 94q171 -4 222.5 -79.5t20.5 -256.5
l-55 -360q-20 -115 30 -163t81 -73z" />
    <glyph glyph-name="asciitilde" unicode="~" 
d="M954 487q93 0 209 164l92 -47q-80 -100 -160.5 -161.5t-174.5 -61.5q-55 0 -107.5 24.5t-104.5 53.5t-105 53.5t-115 24.5t-115.5 -45.5t-104.5 -106.5l-90 47q33 33 119.5 122t195 89t248.5 -74q57 -29 107 -55.5t106 -26.5z" />
    <glyph glyph-name="Euro" 
d="M840 72q152 0 236 33t179 110l-20 -119q-102 -70 -185 -94t-223 -22q-260 0 -399 164t-141 423h-181l44 92h139q4 29 7 56t7 55l6 43h-164l43 92h144q80 287 278 473t460 187q262 0 403 -162l-48 -107q-104 145 -250 167q-54 9 -124 10q-213 0 -380 -148t-241 -420h817
l-43 -92h-796l-9 -51q-4 -28 -6 -52t-6 -51h746l-43 -92h-703q6 -219 121 -357t332 -138z" />
    <glyph glyph-name="Euro" unicode="&#x20ac;" 
d="M840 72q152 0 236 33t179 110l-20 -119q-102 -70 -185 -94t-223 -22q-260 0 -399 164t-141 423h-181l44 92h139q4 29 7 56t7 55l6 43h-164l43 92h144q80 287 278 473t460 187q262 0 403 -162l-48 -107q-104 145 -250 167q-54 9 -124 10q-213 0 -380 -148t-241 -420h817
l-43 -92h-796l-9 -51q-4 -28 -6 -52t-6 -51h746l-43 -92h-703q6 -219 121 -357t332 -138z" />
    <glyph glyph-name="Zcaron" horiz-adv-x="1163" 
d="M1126 92l-14 -92h-1087l1171 1452h-852l14 92h1024l-1171 -1452h915zM870 1671l-247 219l88 58l180 -156l233 156l64 -58z" />
    <glyph glyph-name="Zcaron" unicode="&#x17d;" horiz-adv-x="1163" 
d="M1126 92l-14 -92h-1087l1171 1452h-852l14 92h1024l-1171 -1452h915zM870 1671l-247 219l88 58l180 -156l233 156l64 -58z" />
    <glyph glyph-name="zcaron" horiz-adv-x="983" 
d="M983 86l-14 -86h-963l912 860h-650l13 86h841l-907 -860h768zM725 1145l-250 219l88 57l180 -155l234 155l63 -57z" />
    <glyph glyph-name="zcaron" unicode="&#x17e;" horiz-adv-x="983" 
d="M983 86l-14 -86h-963l912 860h-650l13 86h841l-907 -860h768zM725 1145l-250 219l88 57l180 -155l234 155l63 -57z" />
    <glyph glyph-name="nonbreakingspace" unicode="&#xa0;" horiz-adv-x="634" 
 />
    <glyph glyph-name="exclamdown" unicode="&#xa1;" horiz-adv-x="655" 
d="M481 967q35 0 55.5 -24.5t15.5 -59.5t-34 -59.5t-63.5 -24.5t-55 24.5t-16.5 59.5q6 35 34.5 59.5t63.5 24.5zM283 -594h-99l199 1251h98z" />
    <glyph glyph-name="cent" unicode="&#xa2;" 
d="M1200 1040q-103 144 -272 156l-129 -817q92 8 179 54t152 116h5l-19 -125q-166 -123 -330 -131l-43 -262h-92l43 264q-178 16 -279 156.5t-73 329.5t172 334t336 165l39 240h92l-39 -238q168 -8 279 -119zM836 1192q-149 -20 -261 -136.5t-138 -266.5t51.5 -269
t218.5 -139z" />
    <glyph glyph-name="sterling" unicode="&#xa3;" 
d="M1169 190q-156 -210 -326 -210q-72 0 -172 42q-99 42 -150 60t-107 18q-89 0 -232 -120l-41 79q57 57 138 96.5t157 37.5q149 114 170 243l2 60h-254l15 92h229l-121 282q-37 78 -57 147t-6 157t59 159.5t110.5 122.5t144.5 80t163 29q166 0 262.5 -120.5t63.5 -287.5
h-99q24 134 -48 225t-202 91t-233 -92t-123 -214q-10 -66 9.5 -125t47.5 -114q37 -84 75 -166t61 -174h278l-14 -92h-260l-7 -68q-19 -139 -157 -258l20 -6q27 -10 65 -25.5t108.5 -41t127.5 -25.5q58 0 121.5 53t106.5 115z" />
    <glyph glyph-name="currency" unicode="&#xa4;" 
d="M813 1126q98 0 171 -29.5t146 -88.5l101 86l61 -74l-94 -82q43 -88 57.5 -162t-1.5 -162t-52.5 -161.5t-107.5 -161.5l69 -82l-86 -74l-71 86q-92 -59 -174 -89t-180.5 -30t-171 30t-146.5 89l-101 -86l-61 74l94 82q-41 88 -56 161.5t1 161.5q14 88 51 162t109 162
l-70 82l86 74l72 -86q92 59 174 88.5t180 29.5zM982 322q143 121 175 292q28 176 -75.5 293t-282.5 121q-183 -4 -323.5 -121.5t-165.5 -289.5t80.5 -294t277 -122t314.5 121z" />
    <glyph glyph-name="yen" unicode="&#xa5;" 
d="M627 813h-330l14 92h275l-271 639h119l324 -772l565 772h119l-471 -639h274l-14 -92h-328l-115 -154h418l-14 -92h-418l-90 -567h-98l90 567h-418l14 92h418z" />
    <glyph glyph-name="brokenbar" unicode="&#xa6;" horiz-adv-x="655" 
d="M330 330h98l-80 -512h-98zM494 1354h98l-82 -512h-98z" />
    <glyph glyph-name="section" unicode="&#xa7;" 
d="M686 317q55 0 108.5 21.5t96.5 58.5t72.5 86t38 104.5t-5 105.5t-45 87t-78 59.5t-101.5 22.5t-109.5 -22.5t-98.5 -59.5t-74.5 -87t-39 -105.5t6 -104.5t47.5 -86t80 -58.5t102 -21.5zM578 -303q123 0 206.5 61.5t102.5 178.5q25 165 -91 209l-174 66
q-149 56 -222.5 134.5t-47.5 235.5q18 121 93 213t194 139q-181 96 -151 288q27 171 142 257t271 86q264 0 276.5 -142.5t6.5 -228.5h-99q20 129 -25.5 204t-169.5 75t-204 -66t-99 -184t44 -164.5t115.5 -66.5t106.5 -38q137 -47 205 -123t42 -249q-18 -119 -96 -205
t-189 -137q205 -84 168 -318q-23 -154 -140 -235.5t-290 -81.5q-172 0 -233.5 89t-30.5 263l2 20h98l-4 -26q-18 -125 26 -189.5t167 -64.5z" />
    <glyph glyph-name="dieresis" unicode="&#xa8;" horiz-adv-x="862" 
d="M459 1380q35 0 54 -23.5t14 -58.5t-32.5 -58t-62.5 -23t-54.5 23.5t-14.5 57.5t33 58t63 24zM842 1380q35 0 54 -23.5t14 -58.5t-32.5 -58t-62.5 -23t-54.5 23.5t-14.5 57.5t33 58t63 24z" />
    <glyph glyph-name="copyright" unicode="&#xa9;" horiz-adv-x="1638" 
d="M817 -20q-164 0 -299 62t-225 169.5t-130 253t-13.5 309.5t111.5 307.5t210 251t279.5 170t318.5 62.5t298 -62.5t224 -170t130 -251t13.5 -307.5t-111.5 -309.5t-210 -253t-278.5 -169.5t-317.5 -62zM833 78q144 0 279 54t243.5 148.5t183.5 221.5t97 271t-11.5 271
t-112 220.5t-197.5 147.5t-263 54t-279.5 -54t-244 -147.5t-183.5 -220t-97 -270.5t11.5 -271.5t113.5 -222t198 -148.5t262 -54zM892 324q-83 0 -159 34.5t-151 131t-42 292.5t169.5 324.5t337.5 128.5q147 0 235 -80t88 -219h-98q-2 94 -73 147.5t-158 53.5
q-160 0 -267.5 -101t-132.5 -251t54.5 -256.5t228.5 -106.5q96 0 184 57t117 152h98q-34 -138 -155.5 -222.5t-275.5 -84.5z" />
    <glyph glyph-name="ordfeminine" unicode="&#xaa;" horiz-adv-x="688" 
d="M578 1495q-99 0 -174 -68t-88 -159t36.5 -158.5t154.5 -67.5t179.5 68t90.5 163q15 95 -42.5 158.5t-156.5 63.5zM500 973q-68 0 -120 23.5t-85 63.5t-46 95t2.5 150.5t111 177.5t231.5 82q72 0 130 -29t87 -82h4l16 98h60l-90 -567h-60l17 102h-4q-43 -55 -114.5 -84.5
t-139.5 -29.5z" />
    <glyph glyph-name="guillemotleft" unicode="&#xab;" horiz-adv-x="813" 
d="M733 365l-67 -56l-244 346l352 346l51 -55l-293 -291zM487 365l-67 -56l-244 346l352 346l52 -55l-293 -291z" />
    <glyph glyph-name="logicalnot" unicode="&#xac;" 
d="M1163 649h-950l16 99h1049l-86 -545h-98z" />
    <glyph glyph-name="hyphen" unicode="&#xad;" horiz-adv-x="389" 
d="M500 700l-15 -92h-389l15 92h389z" />
    <glyph glyph-name="hyphen" unicode="&#x2010;" horiz-adv-x="389" 
d="M500 700l-15 -92h-389l15 92h389z" />
    <glyph glyph-name="registered" unicode="&#xae;" horiz-adv-x="1638" 
d="M817 -20q-164 0 -299 62t-225 169.5t-130 253t-13.5 309.5t111.5 307.5t210 251t279.5 170t318.5 62.5t298 -62.5t224 -170t130 -251t13.5 -307.5t-111.5 -309.5t-210 -253t-278.5 -169.5t-317.5 -62zM833 78q144 0 279 54t243.5 148.5t183.5 221.5t97 271t-11.5 271
t-112 220.5t-197.5 147.5t-263 54t-279.5 -54t-244 -147.5t-183.5 -220t-97 -270.5t11.5 -271.5t113.5 -222t198 -148.5t262 -54zM1100 1190q241 0 259.5 -88t9.5 -146q-35 -223 -308 -233l199 -399h-127l-185 399h-203l-63 -399h-98l137 866h379zM932 821q45 0 101.5 -1
t105.5 10.5t86 41.5t45 82t-22.5 95t-188.5 43h-256l-41 -271h170z" />
    <glyph glyph-name="macron" unicode="&#xaf;" horiz-adv-x="933" 
d="M997 1380l-14 -92h-625l15 92h624z" />
    <glyph glyph-name="degree" unicode="&#xb0;" horiz-adv-x="819" 
d="M356.5 1040q-75.5 90 -57.5 214q18 125 124 218t232 93t203.5 -90.5t56.5 -220t-127 -217t-231 -87.5t-200.5 90zM426 1099.5q53 -63.5 147 -63.5t169 64.5t87 156.5q16 91 -39.5 156.5t-147.5 65.5t-165.5 -64.5t-88.5 -158.5q-15 -93 38 -156.5z" />
    <glyph glyph-name="plusminus" unicode="&#xb1;" 
d="M752 1049h98l-62 -394h476l-17 -98h-475l-61 -393h-99l62 393h-475l16 98h475zM127 98h1049l-17 -98h-1048z" />
    <glyph glyph-name="twosuperior" unicode="&#xb2;" horiz-adv-x="761" 
d="M629 1495q-104 0 -176 -54.5t-88 -148.5h-70q23 113 82 167q116 106 253 106t210 -78.5t55 -195.5q-18 -118 -105.5 -199.5t-121.5 -112.5l-324 -283h455l-13 -69h-618l434 379q146 128 196 212.5t25.5 158.5t-85 96t-109.5 22z" />
    <glyph glyph-name="threesuperior" unicode="&#xb3;" horiz-adv-x="761" 
d="M625 1495q-84 0 -140.5 -41t-72.5 -119h-70q27 104 103.5 167t188.5 63t179 -69t53 -155q-28 -168 -188 -229q72 -27 106.5 -88.5t24.5 -127.5q-19 -125 -114.5 -203.5t-217.5 -78.5t-193 68t-55 172h70q-4 -80 42 -125t140 -45t168 56.5t88 144.5t-42 139t-150 51l12 70
q90 0 156.5 49t80.5 130t-35.5 126t-133.5 45z" />
    <glyph glyph-name="acute" unicode="&#xb4;" horiz-adv-x="641" 
d="M711 1423l-301 -297l-72 35l254 301z" />
    <glyph glyph-name="mu" unicode="&#xb5;" horiz-adv-x="966" 
d="M498 66q148 0 209.5 88t89.5 258l84 534h92l-90 -567q-10 -72 -28.5 -142.5t-74.5 -133.5t-138 -93t-138 -30q-96 0 -161.5 45.5t-80.5 121.5h-4l-111 -700h-92l238 1499h92l-74 -467q-26 -170 -2.5 -252t65.5 -121.5t124 -39.5z" />
    <glyph glyph-name="paragraph" unicode="&#xb6;" 
d="M885 1544h403l-14 -92h-82l-287 -1817h-98l287 1817h-189l-287 -1817h-98l178 1123q-154 0 -235.5 112t-53.5 291t143.5 281t332.5 102z" />
    <glyph glyph-name="periodcentered" unicode="&#xb7;" horiz-adv-x="634" 
d="M414 608q35 0 55 -24.5t15 -59.5t-33.5 -59.5t-63.5 -24.5t-55.5 24.5t-14.5 59.5q4 35 33 59.5t64 24.5z" />
    <glyph glyph-name="periodcentered" unicode="&#x22c5;" horiz-adv-x="634" 
d="M414 608q35 0 55 -24.5t15 -59.5t-33.5 -59.5t-63.5 -24.5t-55.5 24.5t-14.5 59.5q4 35 33 59.5t64 24.5z" />
    <glyph glyph-name="periodcentered" unicode="&#x2219;" horiz-adv-x="634" 
d="M414 608q35 0 55 -24.5t15 -59.5t-33.5 -59.5t-63.5 -24.5t-55.5 24.5t-14.5 59.5q4 35 33 59.5t64 24.5z" />
    <glyph glyph-name="cedilla" unicode="&#xb8;" horiz-adv-x="612" 
d="M172 -375l-72 39l238 295l106 -45z" />
    <glyph glyph-name="onesuperior" unicode="&#xb9;" horiz-adv-x="761" 
d="M508 1475l41 69h194l-145 -917h-70l136 848h-156z" />
    <glyph glyph-name="ordmasculine" unicode="&#xba;" horiz-adv-x="671" 
d="M731 1059q-107 -86 -241 -86t-214 88t-60.5 209t126.5 208t241 87t214.5 -84.5t60.5 -210t-127 -211.5zM387 1427q-80 -68 -92 -161q-13 -92 44.5 -158t158.5 -66t182.5 64.5t97.5 161.5t-45 162t-163 65q-103 0 -183 -68z" />
    <glyph glyph-name="guillemotright" unicode="&#xbb;" horiz-adv-x="813" 
d="M489 655l-202 291l67 55l246 -346l-354 -346l-51 56zM735 655l-203 291l68 55l246 -346l-354 -346l-52 56z" />
    <glyph glyph-name="onequarter" unicode="&#xbc;" horiz-adv-x="1904" 
d="M438 1475l41 69h195l-146 -917h-69l135 848h-156zM1737 238l-11 -70h-135l-26 -168h-70l27 168h-531l2 8l711 782h12l-114 -720h135zM1614 752h-10l-461 -506l-2 -8h391zM1638 1544l-1165 -1579l-59 37l1165 1579z" />
    <glyph glyph-name="onehalf" unicode="&#xbd;" horiz-adv-x="1904" 
d="M438 1475l41 69h195l-146 -917h-69l135 848h-156zM1285 832q116 106 253 106t211.5 -78.5t56.5 -191.5q-24 -143 -231 -316l-324 -282h455l-10 -70h-619l432 379q100 88 159 155t67 125q14 99 -42.5 154t-158.5 55t-174 -54t-88 -148h-70q23 111 83 166zM1548 1544
l-1165 -1579l-59 37l1165 1579z" />
    <glyph glyph-name="threequarters" unicode="&#xbe;" horiz-adv-x="1904" 
d="M1819 238l-11 -70h-135l-26 -168h-70l27 168h-531l2 8l711 782h12l-115 -720h136zM1696 752h-10l-461 -506l-2 -8h391zM653 1495q-84 0 -140 -41t-73 -119h-69q27 104 103.5 167t188.5 63t179 -70t53 -155q-27 -166 -188 -228q72 -27 106.5 -88.5t24.5 -127.5
q-19 -125 -114.5 -203.5t-217.5 -78.5t-193 68t-55 172h70q-4 -80 42 -125t140 -45t168 56.5t88 144.5t-42 139t-151 51l13 70q90 0 156.5 49t79.5 130t-36 126t-133 45zM1747 1544l-1165 -1579l-60 37l1166 1579z" />
    <glyph glyph-name="questiondown" unicode="&#xbf;" horiz-adv-x="1005" 
d="M822 568q79 -87 59 -218q-26 -190 -151.5 -243.5t-191.5 -69.5q-160 -39 -241 -93.5t-102 -180.5t43.5 -207.5t182.5 -81.5q117 0 204.5 74t103.5 186q10 76 8 108h94q0 -78 -9 -142q-9 -63 -49 -123t-128 -127.5t-247 -67.5q-158 0 -242 103t-60 265q38 232 178 290
t206 74q142 34 213 78.5t87 145.5q16 102 -38 163.5t-154 61.5t-171.5 -71t-84.5 -166h-99q16 140 121.5 234.5t247.5 94.5q141 0 220 -87zM661.5 967q34.5 0 55 -24.5t15.5 -59.5t-33.5 -59.5t-63.5 -24.5t-55.5 24.5t-16.5 59.5q6 35 35 59.5t63.5 24.5z" />
    <glyph glyph-name="Agrave" unicode="&#xc0;" horiz-adv-x="1312" 
d="M397 508l-286 -508h-101l899 1595l394 -1595h-101l-127 508h-678zM870 1346l-421 -746h604zM930 1989l160 -301l-84 -35l-207 297z" />
    <glyph glyph-name="Aacute" unicode="&#xc1;" horiz-adv-x="1312" 
d="M397 508l-286 -508h-101l899 1595l394 -1595h-101l-127 508h-678zM870 1346l-421 -746h604zM1130 1950l-301 -297l-71 35l254 301z" />
    <glyph glyph-name="Acircumflex" unicode="&#xc2;" horiz-adv-x="1312" 
d="M397 508l-286 -508h-101l899 1595l394 -1595h-101l-127 508h-678zM870 1346l-421 -746h604zM967 1948l247 -217l-88 -60l-180 158l-233 -158l-64 60z" />
    <glyph glyph-name="Atilde" unicode="&#xc3;" horiz-adv-x="1312" 
d="M397 508l-286 -508h-101l899 1595l394 -1595h-101l-127 508h-678zM870 1346l-421 -746h604zM717 1862q47 41 102 41t139 -39q35 -14 65.5 -27.5t62.5 -13.5t61 25.5t45 58.5l53 -45q-23 -55 -76 -94t-95 -39q-56 0 -142 40.5t-129 40.5t-66.5 -25.5t-40.5 -58.5l-55 46
q29 49 76 90z" />
    <glyph glyph-name="Adieresis" unicode="&#xc4;" horiz-adv-x="1312" 
d="M397 508l-286 -508h-101l899 1595l394 -1595h-101l-127 508h-678zM870 1346l-421 -746h604zM766 1907q35 0 55.5 -23.5t15.5 -58.5t-33 -58.5t-62.5 -23.5t-54 23.5t-15.5 58.5q6 35 32.5 58.5t61.5 23.5zM1149 1907q35 0 55.5 -23.5t15.5 -58.5t-33 -58.5t-62.5 -23.5
t-54 23.5t-15.5 58.5q6 35 32.5 58.5t61.5 23.5z" />
    <glyph glyph-name="Aring" unicode="&#xc5;" horiz-adv-x="1312" 
d="M397 508l-286 -508h-101l899 1595l394 -1595h-101l-127 508h-678zM870 1346l-421 -746h604zM915 1632q-74 0 -117.5 52.5t-31.5 126.5t73 126t134 52q74 0 118 -52.5t32 -126.5t-73 -126t-135 -52zM958.5 1907q-40.5 0 -72.5 -28t-38 -69t17.5 -68.5t64.5 -27.5
t72.5 27.5t38 68.5t-17.5 69t-64.5 28z" />
    <glyph glyph-name="AE" unicode="&#xc6;" horiz-adv-x="1929" 
d="M401 508l-280 -508h-111l867 1544h673l21 -92h-637l141 -561h621l24 -92h-620l174 -707h639l22 -92h-747l-125 508h-662zM860 1327l-405 -727h583z" />
    <glyph glyph-name="Ccedilla" unicode="&#xc7;" horiz-adv-x="1513" 
d="M887 72q212 0 358 91t197 144l-23 -135q-257 -192 -545 -192q-162 0 -297 62t-229 169.5t-136 252t-16 307.5t112.5 308.5t214.5 253t285 170t309 62.5q307 0 491 -201l-21 -135q-72 107 -203.5 175.5t-276.5 68.5q-144 0 -280.5 -57.5t-248 -156t-188 -227.5t-98.5 -267
q-45 -274 132 -480q84 -92 205 -152.5t258 -60.5zM623 -375l-72 39l237 295l107 -45z" />
    <glyph glyph-name="Egrave" unicode="&#xc8;" horiz-adv-x="1038" 
d="M494 1452l-88 -561h622l-14 -92h-623l-112 -707h639l-15 -92h-737l244 1544h737l-14 -92h-639zM793 1989l159 -301l-84 -35l-206 297z" />
    <glyph glyph-name="Eacute" unicode="&#xc9;" horiz-adv-x="1038" 
d="M494 1452l-88 -561h622l-14 -92h-623l-112 -707h639l-15 -92h-737l244 1544h737l-14 -92h-639zM1034 1950l-301 -297l-71 35l253 301z" />
    <glyph glyph-name="Ecircumflex" unicode="&#xca;" horiz-adv-x="1038" 
d="M494 1452l-88 -561h622l-14 -92h-623l-112 -707h639l-15 -92h-737l244 1544h737l-14 -92h-639zM829 1948l248 -217l-88 -60l-180 158l-234 -158l-63 60z" />
    <glyph glyph-name="Edieresis" unicode="&#xcb;" horiz-adv-x="1038" 
d="M494 1452l-88 -561h622l-14 -92h-623l-112 -707h639l-15 -92h-737l244 1544h737l-14 -92h-639zM629 1907q35 0 56 -23.5t15 -58.5t-33.5 -58.5t-62.5 -23.5t-54.5 23.5t-14.5 58.5q6 35 32.5 58.5t61.5 23.5zM1012 1907q35 0 55 -23.5t15 -58.5t-32.5 -58.5t-62.5 -23.5
t-54.5 23.5t-14.5 58.5q6 35 32.5 58.5t61.5 23.5z" />
    <glyph glyph-name="Igrave" unicode="&#xcc;" horiz-adv-x="430" 
d="M264 0h-98l244 1544h98zM489 1989l160 -301l-84 -35l-207 297z" />
    <glyph glyph-name="Iacute" unicode="&#xcd;" horiz-adv-x="430" 
d="M264 0h-98l244 1544h98zM690 1950l-301 -297l-72 35l254 301z" />
    <glyph glyph-name="Icircumflex" unicode="&#xce;" horiz-adv-x="430" 
d="M264 0h-98l244 1544h98zM524 1948l248 -217l-88 -60l-180 158l-234 -158l-63 60z" />
    <glyph glyph-name="Idieresis" unicode="&#xcf;" horiz-adv-x="430" 
d="M264 0h-98l244 1544h98zM325.5 1907q34.5 0 55 -23.5t15.5 -58.5t-32.5 -58.5t-62.5 -23.5t-54.5 23.5t-15.5 58.5q6 35 33 58.5t61.5 23.5zM708.5 1907q34.5 0 55 -23.5t15.5 -58.5t-32.5 -58.5t-62.5 -23.5t-54.5 23.5t-15.5 58.5q6 35 33 58.5t61.5 23.5z" />
    <glyph glyph-name="Eth" unicode="&#xd0;" horiz-adv-x="1335" 
d="M457 92q152 0 286 39t256 143q243 206 289 496q23 147 -13 280.5t-130 233.5t-211 134t-262 34h-178l-88 -563h354l-15 -92h-354l-112 -705h178zM688 1544q187 0 315 -41.5t230 -154.5t141 -262.5t12 -312.5q-57 -344 -327 -568q-204 -168 -366.5 -186.5t-248.5 -18.5
h-278l127 797h-166l14 92h166l103 655h278z" />
    <glyph glyph-name="Ntilde" unicode="&#xd1;" horiz-adv-x="1726" 
d="M1552 -51l-1077 1378l-211 -1327h-98l248 1565l1079 -1368l213 1347h98zM1288 1823q68 0 111 84l53 -45q-23 -55 -76 -94t-95 -39q-56 0 -142 40.5t-129 40.5t-66.5 -25.5t-40.5 -58.5l-55 46q29 49 76 90t102 41t139 -39q35 -14 65 -27.5t58 -13.5z" />
    <glyph glyph-name="Ograve" unicode="&#xd2;" horiz-adv-x="1748" 
d="M1121 1565q163 0 299 -62.5t228.5 -171t133.5 -253t15 -307.5t-113 -306t-214 -252t-282.5 -171t-318.5 -62t-298 62t-227 171t-133 252t-15 306t112.5 307.5t212.5 253t281.5 171t318.5 62.5zM1107 1473q-144 0 -280.5 -56.5t-247 -152t-186.5 -222.5t-98.5 -270
t12.5 -270t116 -222.5t200 -151.5t263 -56t280.5 56t247 151.5t187 223.5t99.5 270t-13 269t-117 222.5t-200 152t-263 56.5zM1149 1989l160 -301l-84 -35l-207 297z" />
    <glyph glyph-name="Oacute" unicode="&#xd3;" horiz-adv-x="1748" 
d="M1121 1565q163 0 299 -62.5t228.5 -171t133.5 -253t15 -307.5t-113 -306t-214 -252t-282.5 -171t-318.5 -62t-298 62t-227 171t-133 252t-15 306t112.5 307.5t212.5 253t281.5 171t318.5 62.5zM1107 1473q-144 0 -280.5 -56.5t-247 -152t-186.5 -222.5t-98.5 -270
t12.5 -270t116 -222.5t200 -151.5t263 -56t280.5 56t247 151.5t187 223.5t99.5 270t-13 269t-117 222.5t-200 152t-263 56.5zM1350 1950l-301 -297l-72 35l254 301z" />
    <glyph glyph-name="Ocircumflex" unicode="&#xd4;" horiz-adv-x="1748" 
d="M1121 1565q163 0 299 -62.5t228.5 -171t133.5 -253t15 -307.5t-113 -306t-214 -252t-282.5 -171t-318.5 -62t-298 62t-227 171t-133 252t-15 306t112.5 307.5t212.5 253t281.5 171t318.5 62.5zM1107 1473q-144 0 -280.5 -56.5t-247 -152t-186.5 -222.5t-98.5 -270
t12.5 -270t116 -222.5t200 -151.5t263 -56t280.5 56t247 151.5t187 223.5t99.5 270t-13 269t-117 222.5t-200 152t-263 56.5zM1184 1948l248 -217l-89 -60l-180 158l-233 -158l-64 60z" />
    <glyph glyph-name="Otilde" unicode="&#xd5;" horiz-adv-x="1748" 
d="M1121 1565q163 0 299 -62.5t228.5 -171t133.5 -253t15 -307.5t-113 -306t-214 -252t-282.5 -171t-318.5 -62t-298 62t-227 171t-133 252t-15 306t112.5 307.5t212.5 253t281.5 171t318.5 62.5zM1107 1473q-144 0 -280.5 -56.5t-247 -152t-186.5 -222.5t-98.5 -270
t12.5 -270t116 -222.5t200 -151.5t263 -56t280.5 56t247 151.5t187 223.5t99.5 270t-13 269t-117 222.5t-200 152t-263 56.5zM936 1862q47 41 101 41q54 -1 115 -27t90.5 -39.5t61.5 -13.5t61.5 25.5t45.5 58.5l53 -45q-23 -55 -76 -94t-95 -39q-56 0 -142 40.5t-129 40.5
t-66.5 -25.5t-40.5 -58.5l-55 46q29 49 76 90z" />
    <glyph glyph-name="Odieresis" unicode="&#xd6;" horiz-adv-x="1748" 
d="M1121 1565q163 0 299 -62.5t228.5 -171t133.5 -253t15 -307.5t-113 -306t-214 -252t-282.5 -171t-318.5 -62t-298 62t-227 171t-133 252t-15 306t112.5 307.5t212.5 253t281.5 171t318.5 62.5zM1107 1473q-144 0 -280.5 -56.5t-247 -152t-186.5 -222.5t-98.5 -270
t12.5 -270t116 -222.5t200 -151.5t263 -56t280.5 56t247 151.5t187 223.5t99.5 270t-13 269t-117 222.5t-200 152t-263 56.5zM985 1907q35 0 55.5 -23.5t15.5 -58.5t-33 -58.5t-62.5 -23.5t-54 23.5t-15.5 58.5q6 35 32.5 58.5t61.5 23.5zM1368 1907q35 0 55.5 -23.5
t15.5 -58.5t-33 -58.5t-62.5 -23.5t-54 23.5t-15.5 58.5q6 35 32.5 58.5t61.5 23.5z" />
    <glyph glyph-name="multiply" unicode="&#xd7;" 
d="M266 979l72 70l389 -463l537 463l51 -70l-531 -455l385 -458l-71 -66l-389 461l-535 -461l-53 66l534 458z" />
    <glyph glyph-name="Oslash" unicode="&#xd8;" horiz-adv-x="1748" 
d="M1540 1294q-166 179 -432 179q-145 0 -281.5 -56.5t-247 -152t-187 -222.5t-98.5 -265q-44 -270 105 -468zM446 252q176 -180 441 -180q143 0 279.5 56t247 151.5t186.5 223.5t98 266q43 275 -109 470zM870 -20q-310 0 -499 206l-215 -186l-45 59l213 185
q-176 228 -127 534q25 156 111.5 300.5t212.5 253t281.5 171t319.5 62.5q297 0 496 -203l217 186l51 -53l-219 -188q181 -228 130 -540q-26 -159 -113 -302t-214 -252t-282.5 -171t-317.5 -62z" />
    <glyph glyph-name="Ugrave" unicode="&#xd9;" horiz-adv-x="1351" 
d="M671.5 -20q-116.5 0 -221 45t-169.5 135q-78 124 -63 243t26 179l151 962h99l-148 -934q-22 -146 -22 -202q0 -123 44 -192t137 -106.5t161 -37.5q252 0 395 154q68 73 94.5 176.5t42.5 207.5l148 934h98l-152 -962q-28 -164 -58 -249t-114 -173q-92 -90 -212 -135
t-236.5 -45zM920 1989l159 -301l-84 -35l-207 297z" />
    <glyph glyph-name="Uacute" unicode="&#xda;" horiz-adv-x="1351" 
d="M671.5 -20q-116.5 0 -221 45t-169.5 135q-78 124 -63 243t26 179l151 962h99l-148 -934q-22 -146 -22 -202q0 -123 44 -192t137 -106.5t161 -37.5q252 0 395 154q68 73 94.5 176.5t42.5 207.5l148 934h98l-152 -962q-28 -164 -58 -249t-114 -173q-92 -90 -212 -135
t-236.5 -45zM1182 1950l-301 -297l-72 35l254 301z" />
    <glyph glyph-name="Ucircumflex" unicode="&#xdb;" horiz-adv-x="1351" 
d="M671.5 -20q-116.5 0 -221 45t-169.5 135q-78 124 -63 243t26 179l151 962h99l-148 -934q-22 -146 -22 -202q0 -123 44 -192t137 -106.5t161 -37.5q252 0 395 154q68 73 94.5 176.5t42.5 207.5l148 934h98l-152 -962q-28 -164 -58 -249t-114 -173q-92 -90 -212 -135
t-236.5 -45zM985 1948l248 -217l-88 -60l-180 158l-234 -158l-63 60z" />
    <glyph glyph-name="Udieresis" unicode="&#xdc;" horiz-adv-x="1351" 
d="M671.5 -20q-116.5 0 -221 45t-169.5 135q-78 124 -63 243t26 179l151 962h99l-148 -934q-22 -146 -22 -202q0 -123 44 -192t137 -106.5t161 -37.5q252 0 395 154q68 73 94.5 176.5t42.5 207.5l148 934h98l-152 -962q-28 -164 -58 -249t-114 -173q-92 -90 -212 -135
t-236.5 -45zM786.5 1907q34.5 0 55 -23.5t15.5 -58.5t-32.5 -58.5t-62.5 -23.5t-54.5 23.5t-15.5 58.5q6 35 33 58.5t61.5 23.5zM1169.5 1907q34.5 0 55 -23.5t15.5 -58.5t-32.5 -58.5t-62.5 -23.5t-54.5 23.5t-15.5 58.5q6 35 33 58.5t61.5 23.5z" />
    <glyph glyph-name="Yacute" unicode="&#xdd;" horiz-adv-x="1144" 
d="M252 1544h108l332 -782l578 782h108l-653 -885l-104 -659h-99l105 659zM1108 1950l-301 -297l-72 35l254 301z" />
    <glyph glyph-name="Thorn" unicode="&#xde;" horiz-adv-x="966" 
d="M631 1217q92 0 174 -14.5t144 -74.5q123 -120 91 -319q-14 -84 -59 -168t-119 -137q-129 -98 -360 -98h-174l-64 -406h-98l244 1544h98l-51 -327h174zM520 498q76 0 146 15t134 65q122 96 142 235q23 169 -78 250q-51 45 -119.5 53t-140.5 8h-162l-100 -626h178z" />
    <glyph glyph-name="germandbls" unicode="&#xdf;" horiz-adv-x="1093" 
d="M770 1716q141 0 220.5 -94.5t53.5 -237.5q-14 -92 -72.5 -168.5t-150.5 -109.5l-2 -4q165 -50 247 -203.5t52 -329.5q-35 -228 -225 -394.5t-422 -186.5l14 86q201 29 355 164.5t186 331.5q31 196 -77 328t-310 155l14 86q117 2 200 70.5t100 180.5t-44 176t-166 64
q-55 0 -114.5 -23.5t-96.5 -72.5t-52 -114.5t-25 -121.5l-205 -1298h-92l137 860h-100l12 86h100l62 385q25 181 112 268q57 59 136 88t153 29z" />
    <glyph glyph-name="agrave" unicode="&#xe0;" horiz-adv-x="1146" 
d="M382.5 760q-122.5 -121 -149.5 -281q-25 -173 58.5 -293t252.5 -120q170 0 288.5 120.5t146.5 297.5q27 176 -60 286.5t-251 110.5q-163 0 -285.5 -121zM682 967q111 0 200 -47.5t136 -137.5h4l25 164h92l-150 -946h-92l27 170h-4q-138 -190 -420 -190q-80 0 -160 38.5
t-129 106.5t-67.5 159t6.5 249.5t173 296t359 137.5zM733 1462l160 -301l-84 -35l-207 297z" />
    <glyph glyph-name="aacute" unicode="&#xe1;" horiz-adv-x="1146" 
d="M382.5 760q-122.5 -121 -149.5 -281q-25 -173 58.5 -293t252.5 -120q170 0 288.5 120.5t146.5 297.5q27 176 -60 286.5t-251 110.5q-163 0 -285.5 -121zM682 967q111 0 200 -47.5t136 -137.5h4l25 164h92l-150 -946h-92l27 170h-4q-138 -190 -420 -190q-80 0 -160 38.5
t-129 106.5t-67.5 159t6.5 249.5t173 296t359 137.5zM995 1423l-301 -297l-71 35l254 301z" />
    <glyph glyph-name="acircumflex" unicode="&#xe2;" horiz-adv-x="1146" 
d="M382.5 760q-122.5 -121 -149.5 -281q-25 -173 58.5 -293t252.5 -120q170 0 288.5 120.5t146.5 297.5q27 176 -60 286.5t-251 110.5q-163 0 -285.5 -121zM682 967q111 0 200 -47.5t136 -137.5h4l25 164h92l-150 -946h-92l27 170h-4q-138 -190 -420 -190q-80 0 -160 38.5
t-129 106.5t-67.5 159t6.5 249.5t173 296t359 137.5zM799 1421l248 -217l-86 -59l-181 158l-233 -158l-66 59z" />
    <glyph glyph-name="atilde" unicode="&#xe3;" horiz-adv-x="1146" 
d="M382.5 760q-122.5 -121 -149.5 -281q-25 -173 58.5 -293t252.5 -120q170 0 288.5 120.5t146.5 297.5q27 176 -60 286.5t-251 110.5q-163 0 -285.5 -121zM682 967q111 0 200 -47.5t136 -137.5h4l25 164h92l-150 -946h-92l27 170h-4q-138 -190 -420 -190q-80 0 -160 38.5
t-129 106.5t-67.5 159t6.5 249.5t173 296t359 137.5zM551 1335q47 41 104 41t138 -39q35 -14 65 -27.5t62 -13.5t62 26t46 58l51 -45q-23 -55 -76 -94t-95 -39q-54 0 -141 41t-130 41t-66.5 -25.5t-40.5 -58.5l-55 45q29 49 76 90z" />
    <glyph glyph-name="adieresis" unicode="&#xe4;" horiz-adv-x="1146" 
d="M382.5 760q-122.5 -121 -149.5 -281q-25 -173 58.5 -293t252.5 -120q170 0 288.5 120.5t146.5 297.5q27 176 -60 286.5t-251 110.5q-163 0 -285.5 -121zM682 967q111 0 200 -47.5t136 -137.5h4l25 164h92l-150 -946h-92l27 170h-4q-138 -190 -420 -190q-80 0 -160 38.5
t-129 106.5t-67.5 159t6.5 249.5t173 296t359 137.5zM602 1380q35 0 54.5 -23.5t14.5 -58.5t-33 -58t-62.5 -23t-54 23.5t-14.5 57.5t32.5 58t62.5 24zM985 1380q35 0 54.5 -23.5t14.5 -58.5t-33 -58t-62.5 -23t-54 23.5t-14.5 57.5t32.5 58t62.5 24z" />
    <glyph glyph-name="aring" unicode="&#xe5;" horiz-adv-x="1146" 
d="M382.5 760q-122.5 -121 -149.5 -281q-25 -173 58.5 -293t252.5 -120q170 0 288.5 120.5t146.5 297.5q27 176 -60 286.5t-251 110.5q-163 0 -285.5 -121zM682 967q111 0 200 -47.5t136 -137.5h4l25 164h92l-150 -946h-92l27 170h-4q-138 -190 -420 -190q-80 0 -160 38.5
t-129 106.5t-67.5 159t6.5 249.5t173 296t359 137.5zM750 1106q-74 0 -118 52t-33 126t71 126t135 52q74 0 118 -52t31 -126q-19 -116 -93.5 -147t-110.5 -31zM793 1380q-41 0 -74 -27.5t-39 -68.5t17.5 -68.5t64.5 -27.5t72.5 27.5t38 68.5t-16 68.5t-63.5 27.5z" />
    <glyph glyph-name="ae" unicode="&#xe6;" horiz-adv-x="1738" 
d="M1094.5 781.5q-124.5 -99.5 -156.5 -232.5h729q4 133 -84.5 232.5t-226.5 99.5q-137 0 -261.5 -99.5zM300.5 435q-104.5 -50 -122.5 -162t66.5 -159.5t205.5 -47.5t195 36.5t112 76.5t47 98t-13.5 98.5t-80 75t-181.5 34.5t-228.5 -50zM1224 -20q-128 0 -226.5 61
t-131.5 172h-4q-50 -118 -172 -175.5t-266 -57.5t-252 76t-86 222t162.5 219.5t296.5 73.5q86 0 157.5 -20.5t131.5 -79.5q48 284 -65.5 347t-201.5 63t-171 -26t-165 -60l17 94q164 78 348 78q133 0 218 -69t110 -193q72 119 193 190.5t239 71.5q219 0 320 -145.5
t71 -358.5h-821q-21 -166 62 -281.5t247 -115.5q111 0 208 60t165 153l69 -54q-88 -111 -206.5 -178t-246.5 -67z" />
    <glyph glyph-name="ccedilla" unicode="&#xe7;" horiz-adv-x="976" 
d="M913 111q-175 -131 -375 -131t-315 141.5t-82 351.5q33 209 195.5 351.5t360.5 142.5t321 -117l-21 -123q-114 154 -309 154q-165 0 -297 -121t-157.5 -285.5t67 -286.5t256.5 -122q102 0 199.5 46t175.5 124zM354 -375l-71 39l237 295l107 -45z" />
    <glyph glyph-name="egrave" unicode="&#xe8;" horiz-adv-x="1044" 
d="M539 -20q-224 0 -327.5 143.5t-72.5 347.5t183.5 350t358.5 146t305.5 -145t66.5 -357h-822q-32 -179 59.5 -289t271.5 -110q96 0 192 59t161 156l70 -45q-84 -123 -203.5 -189.5t-242.5 -66.5zM666 881q-140 0 -263.5 -97t-156.5 -233h729q4 132 -82 231t-227 99z
M682 1462l160 -301l-84 -35l-207 297z" />
    <glyph glyph-name="eacute" unicode="&#xe9;" horiz-adv-x="1044" 
d="M539 -20q-224 0 -327.5 143.5t-72.5 347.5t183.5 350t358.5 146t305.5 -145t66.5 -357h-822q-32 -179 59.5 -289t271.5 -110q96 0 192 59t161 156l70 -45q-84 -123 -203.5 -189.5t-242.5 -66.5zM666 881q-140 0 -263.5 -97t-156.5 -233h729q4 132 -82 231t-227 99z
M944 1423l-301 -297l-72 35l254 301z" />
    <glyph glyph-name="ecircumflex" unicode="&#xea;" horiz-adv-x="1044" 
d="M539 -20q-224 0 -327.5 143.5t-72.5 347.5t183.5 350t358.5 146t305.5 -145t66.5 -357h-822q-32 -179 59.5 -289t271.5 -110q96 0 192 59t161 156l70 -45q-84 -123 -203.5 -189.5t-242.5 -66.5zM666 881q-140 0 -263.5 -97t-156.5 -233h729q4 132 -82 231t-227 99z
M748 1421l247 -217l-86 -59l-180 158l-233 -158l-66 59z" />
    <glyph glyph-name="edieresis" unicode="&#xeb;" horiz-adv-x="1044" 
d="M539 -20q-224 0 -327.5 143.5t-72.5 347.5t183.5 350t358.5 146t305.5 -145t66.5 -357h-822q-32 -179 59.5 -289t271.5 -110q96 0 192 59t161 156l70 -45q-84 -123 -203.5 -189.5t-242.5 -66.5zM666 881q-140 0 -263.5 -97t-156.5 -233h729q4 132 -82 231t-227 99z
M551 1380q35 0 55 -23.5t14 -58.5t-33.5 -58t-62.5 -23t-54 23.5t-14 57.5t32.5 58t62.5 24zM934 1380q35 0 54.5 -23.5t13.5 -58.5t-33 -58t-62 -23t-54 23.5t-14 57.5t32.5 58t62.5 24z" />
    <glyph glyph-name="igrave" unicode="&#xec;" horiz-adv-x="479" 
d="M285 0h-92l149 946h92zM399 1462l160 -301l-84 -35l-207 297z" />
    <glyph glyph-name="iacute" unicode="&#xed;" horiz-adv-x="479" 
d="M285 0h-92l149 946h92zM662 1423l-302 -297l-71 35l254 301z" />
    <glyph glyph-name="icircumflex" unicode="&#xee;" horiz-adv-x="479" 
d="M285 0h-92l149 946h92zM465 1421l248 -217l-86 -59l-181 158l-233 -158l-66 59z" />
    <glyph glyph-name="idieresis" unicode="&#xef;" horiz-adv-x="479" 
d="M285 0h-92l149 946h92zM268 1380q35 0 54.5 -23.5t14.5 -58.5t-33 -58t-62.5 -23t-54 23.5t-14.5 57.5t32.5 58t62.5 24zM651 1380q35 0 54.5 -23.5t14.5 -58.5t-33 -58t-62.5 -23t-54 23.5t-14.5 57.5t32.5 58t62.5 24z" />
    <glyph glyph-name="eth" unicode="&#xf0;" horiz-adv-x="1120" 
d="M516 1696q146 -95 254 -195l346 178l41 -67l-328 -168q389 -396 309 -916q-40 -264 -209.5 -406t-376.5 -142t-325 145.5t-88 346.5t199 349t374 148t328 -144q-30 162 -77.5 258.5t-98.5 166t-125 147.5l-325 -168l-41 69l305 154q-82 82 -238 182zM390 759
q-133 -122 -158 -287t69 -285.5t266 -120.5t309 119.5t163 291.5q26 171 -74 287.5t-271 116.5t-304 -122z" />
    <glyph glyph-name="ntilde" unicode="&#xf1;" horiz-adv-x="1003" 
d="M728.5 967q132.5 0 185 -97.5t22.5 -298.5l-90 -571h-92l90 571q24 152 2.5 206t-62 79t-124.5 25q-266 0 -336 -414l-74 -467h-92l149 946h92l-22 -147h4q53 78 134 123t213.5 45zM479 1335q47 41 104 41t138 -39q35 -14 64.5 -27.5t62.5 -13.5t62.5 26t45.5 58l52 -45
q-23 -55 -76.5 -94t-95.5 -39q-54 0 -141 41t-141 41t-95 -84l-56 45q29 49 76 90z" />
    <glyph glyph-name="ograve" unicode="&#xf2;" horiz-adv-x="1120" 
d="M1041.5 825.5q122.5 -141.5 89 -353t-200.5 -352t-374 -140.5t-328 145.5t-89 348.5t199.5 348t374.5 145q206 0 328.5 -141.5zM390 759q-133 -122 -158 -287t69 -285.5t266 -120.5t309 119.5t163 291.5q26 171 -74 287.5t-271 116.5t-304 -122zM719 1462l160 -301
l-84 -35l-207 297z" />
    <glyph glyph-name="oacute" unicode="&#xf3;" horiz-adv-x="1120" 
d="M1041.5 825.5q122.5 -141.5 89 -353t-200.5 -352t-374 -140.5t-328 145.5t-89 348.5t199.5 348t374.5 145q206 0 328.5 -141.5zM390 759q-133 -122 -158 -287t69 -285.5t266 -120.5t309 119.5t163 291.5q26 171 -74 287.5t-271 116.5t-304 -122zM981 1423l-301 -297
l-72 35l254 301z" />
    <glyph glyph-name="ocircumflex" unicode="&#xf4;" horiz-adv-x="1120" 
d="M1041.5 825.5q122.5 -141.5 89 -353t-200.5 -352t-374 -140.5t-328 145.5t-89 348.5t199.5 348t374.5 145q206 0 328.5 -141.5zM390 759q-133 -122 -158 -287t69 -285.5t266 -120.5t309 119.5t163 291.5q26 171 -74 287.5t-271 116.5t-304 -122zM786 1421l248 -217
l-86 -59l-180 158l-233 -158l-66 59z" />
    <glyph glyph-name="otilde" unicode="&#xf5;" horiz-adv-x="1120" 
d="M1041.5 825.5q122.5 -141.5 89 -353t-200.5 -352t-374 -140.5t-328 145.5t-89 348.5t199.5 348t374.5 145q206 0 328.5 -141.5zM390 759q-133 -122 -158 -287t69 -285.5t266 -120.5t309 119.5t163 291.5q26 171 -74 287.5t-271 116.5t-304 -122zM537 1335q47 41 105 41
t136 -39q35 -14 64.5 -27.5t62.5 -13.5t62.5 26t46.5 58l51 -45q-23 -55 -76 -94t-101 -39t-135 41q-86 41 -141 41t-96 -84l-55 45q29 49 76 90z" />
    <glyph glyph-name="odieresis" unicode="&#xf6;" horiz-adv-x="1120" 
d="M1041.5 825.5q122.5 -141.5 89 -353t-200.5 -352t-374 -140.5t-328 145.5t-89 348.5t199.5 348t374.5 145q206 0 328.5 -141.5zM390 759q-133 -122 -158 -287t69 -285.5t266 -120.5t309 119.5t163 291.5q26 171 -74 287.5t-271 116.5t-304 -122zM588 1380
q35 0 54.5 -23.5t13.5 -58.5t-33 -58t-62 -23t-55 23.5t-14 57.5t33.5 58t62.5 24zM971 1380q35 0 54 -23.5t14 -58.5t-32.5 -58t-62.5 -23t-54.5 23.5t-14.5 57.5t33 58t63 24z" />
    <glyph glyph-name="divide" unicode="&#xf7;" 
d="M201 573h1048l-14 -98h-1049zM661.5 168q34.5 0 55 -24.5t15.5 -59.5t-33.5 -59.5t-63.5 -24.5t-55.5 24.5t-16.5 59.5q6 35 35 59.5t63.5 24.5zM801 1049q35 0 56 -25.5t15 -59.5t-34.5 -58.5t-63.5 -24.5t-55.5 24.5t-13.5 59.5q4 35 32.5 59.5t63.5 24.5z" />
    <glyph glyph-name="oslash" unicode="&#xf8;" horiz-adv-x="1120" 
d="M938 791q-98 90 -257 90q-158 0 -291 -122t-156 -277t45 -261zM324 164q90 -98 252 -98q163 0 300 119.5t160 279.5t-49 266zM699 967q193 0 313 -113l149 129l47 -59l-145 -127q97 -132 66 -334t-198.5 -342.5t-366.5 -140.5t-312 122l-143 -122l-46 55l142 123
q-93 137 -64 328q30 191 197.5 336t360.5 145z" />
    <glyph glyph-name="ugrave" unicode="&#xf9;" horiz-adv-x="966" 
d="M427.5 -20q-131.5 0 -210.5 126q-35 59 -29.5 130t15.5 143l90 567h92l-84 -534q-25 -170 -3.5 -229.5t66 -88t163.5 -28.5t180.5 88t89.5 258l84 534h92l-90 -567q-10 -72 -28.5 -142.5t-74.5 -133.5t-138.5 -93t-214 -30zM623 1462l159 -301l-84 -35l-206 297z" />
    <glyph glyph-name="uacute" unicode="&#xfa;" horiz-adv-x="966" 
d="M427.5 -20q-131.5 0 -210.5 126q-35 59 -29.5 130t15.5 143l90 567h92l-84 -534q-25 -170 -3.5 -229.5t66 -88t163.5 -28.5t180.5 88t89.5 258l84 534h92l-90 -567q-10 -72 -28.5 -142.5t-74.5 -133.5t-138.5 -93t-214 -30zM926 1423l-301 -297l-72 35l254 301z" />
    <glyph glyph-name="ucircumflex" unicode="&#xfb;" horiz-adv-x="966" 
d="M427.5 -20q-131.5 0 -210.5 126q-35 59 -29.5 130t15.5 143l90 567h92l-84 -534q-25 -170 -3.5 -229.5t66 -88t163.5 -28.5t180.5 88t89.5 258l84 534h92l-90 -567q-10 -72 -28.5 -142.5t-74.5 -133.5t-138.5 -93t-214 -30zM709 1421l247 -217l-86 -59l-180 158
l-233 -158l-66 59z" />
    <glyph glyph-name="udieresis" unicode="&#xfc;" horiz-adv-x="966" 
d="M427.5 -20q-131.5 0 -210.5 126q-35 59 -29.5 130t15.5 143l90 567h92l-84 -534q-25 -170 -3.5 -229.5t66 -88t163.5 -28.5t180.5 88t89.5 258l84 534h92l-90 -567q-10 -72 -28.5 -142.5t-74.5 -133.5t-138.5 -93t-214 -30zM512 1380q35 0 54.5 -23.5t14.5 -58.5t-33 -58
t-62.5 -23t-54 23.5t-14.5 57.5t32.5 58t62.5 24zM895 1380q35 0 54.5 -23.5t14.5 -58.5t-33 -58t-62.5 -23t-54 23.5t-14.5 57.5t32.5 58t62.5 24z" />
    <glyph glyph-name="yacute" unicode="&#xfd;" horiz-adv-x="942" 
d="M135 946h96l269 -856l497 856h95l-873 -1499h-94l313 537zM924 1423l-301 -297l-72 35l254 301z" />
    <glyph glyph-name="thorn" unicode="&#xfe;" horiz-adv-x="1146" 
d="M754 881q-170 0 -288.5 -122.5t-150.5 -305.5q-25 -172 61.5 -279.5t251.5 -107.5t288 119t148 284q25 166 -57.5 289t-252.5 123zM796 967q81 0 160.5 -40t129 -107.5t67.5 -159t-6 -249t-172.5 -294.5t-360.5 -137q-111 0 -200.5 46t-132.5 138h-5l-114 -717h-92
l356 2243h92l-145 -914h4q140 191 419 191z" />
    <glyph glyph-name="ydieresis" unicode="&#xff;" horiz-adv-x="942" 
d="M135 946h96l269 -856l497 856h95l-873 -1499h-94l313 537zM510 1380q35 0 54.5 -23.5t14.5 -58.5t-33 -58t-62.5 -23t-54 23.5t-14.5 57.5t32.5 58t62.5 24zM893 1380q35 0 54.5 -23.5t14.5 -58.5t-33 -58t-63 -23t-54 23.5t-14 57.5t32.5 58t62.5 24z" />
    <glyph glyph-name="OE" unicode="&#x152;" horiz-adv-x="2443" 
d="M1100 1565q245 0 415.5 -117t231.5 -305h4l64 401h737l-15 -92h-639l-88 -561h625l-14 -92h-625l-113 -707h639l-14 -92h-737l63 397h-4q-118 -189 -330 -303t-456 -114q-130 0 -264 59t-232 168t-138 255t-13 311t113.5 309.5t213.5 252t284.5 169t291.5 61.5z
M1113 1473q-142 0 -279.5 -56.5t-250 -152t-190 -222.5t-99.5 -269t13 -272.5t119 -226.5t205 -149t259 -53t279 57t253 157q222 199 270 486q23 141 -11 269t-113 223.5t-196 152t-259 56.5z" />
    <glyph glyph-name="oe" unicode="&#x153;" horiz-adv-x="1935" 
d="M1413 -20q-212 0 -282 107.5t-84 170.5q-83 -128 -214 -203t-255 -75q-123 0 -207 37.5t-141.5 104t-82 156t0.5 246.5t194.5 300t378.5 143q141 0 250.5 -76t144.5 -199q70 131 192 203t247 72q224 0 323 -142.5t66 -359.5h-818q-35 -162 56.5 -280.5t253.5 -118.5
q232 0 368 219l70 -47q-80 -125 -201 -191.5t-260 -66.5zM1294 783q-121 -98 -153 -232h725q4 132 -82 231t-228 99q-141 0 -262 -98zM396.5 761q-134.5 -120 -165.5 -296q-25 -164 74.5 -281.5t264.5 -117.5t303 120.5t162 286.5t-70 287t-264 121t-304.5 -120z" />
    <glyph glyph-name="Scaron" unicode="&#x160;" horiz-adv-x="1114" 
d="M338 149.5q80 -77.5 229 -77.5t278 106.5t153 262.5t-97 220t-166 89l-256 147q-147 98 -114 277q23 168 152.5 279.5t303.5 111.5q117 0 210 -58.5t132 -158.5l-78 -58q-41 84 -107.5 133.5t-182.5 49.5t-214 -86.5t-120 -222.5t85 -194.5t150 -80.5l271 -154
q157 -111 126 -303t-196 -322t-343 -130q-177 0 -281.5 91t-135.5 240l92 39q29 -123 109 -200.5zM842 1671l-248 219l88 58l180 -156l234 156l63 -58z" />
    <glyph glyph-name="scaron" unicode="&#x161;" horiz-adv-x="768" 
d="M408 835.5q-57 -45.5 -65 -102.5q-9 -57 20.5 -89t76.5 -54.5t103.5 -43t134 -72.5t55.5 -190t-123 -221t-226 -83q-124 0 -202 66.5t-88 182.5l94 29q12 -86 61.5 -139t141.5 -53t163 61t85 147q14 87 -29 124t-106 61q-143 54 -207 109.5t-48 157.5t103 171.5t177 69.5
t152 -43t83 -109l-86 -41q-16 49 -55 78t-99 29q-59 0 -116 -45.5zM567 1145l-250 219l89 57l180 -155l233 155l64 -57z" />
    <glyph glyph-name="Ydieresis" unicode="&#x178;" horiz-adv-x="1144" 
d="M252 1544h108l332 -782l578 782h108l-653 -885l-104 -659h-99l105 659zM706.5 1907q34.5 0 55 -23.5t15.5 -58.5t-32.5 -58.5t-62.5 -23.5t-54.5 23.5t-15.5 58.5q6 35 33 58.5t61.5 23.5zM1089.5 1907q34.5 0 55 -23.5t15.5 -58.5t-32.5 -58.5t-62.5 -23.5t-54.5 23.5
t-15.5 58.5q6 35 33 58.5t61.5 23.5z" />
    <glyph glyph-name="florin" unicode="&#x192;" 
d="M256 -195q49 0 83 9.5t70 57.5t85 189l294 842h-141l33 92h139l152 439q50 140 88 188q39 47 97 70.5t119 23.5t120 -30l-31 -84q-49 22 -105 22t-92.5 -23.5t-59 -60.5t-37.5 -83t-30 -91l-127 -371h238l-33 -92h-235l-271 -778q-23 -66 -48 -138.5t-90 -173
t-212 -100.5q-77 0 -158 35l31 86q72 -29 121 -29z" />
    <glyph glyph-name="circumflex" unicode="&#x2c6;" horiz-adv-x="872" 
d="M662 1421l247 -217l-86 -59l-180 158l-233 -158l-66 59z" />
    <glyph glyph-name="tilde" unicode="&#x2dc;" horiz-adv-x="899" 
d="M426 1335q47 41 104 41t138 -39q35 -14 64.5 -27.5t62.5 -13.5t62.5 26t45.5 58l51 -45q-23 -55 -76 -94t-95 -39q-54 0 -141 41t-141 41t-95 -84l-56 45q29 49 76 90z" />
    <glyph glyph-name="endash" unicode="&#x2013;" horiz-adv-x="1024" 
d="M1135 700l-15 -92h-1024l15 92h1024z" />
    <glyph glyph-name="emdash" unicode="&#x2014;" horiz-adv-x="2048" 
d="M1892 700l-14 -92h-1516l15 92h1515z" />
    <glyph glyph-name="quoteleft" unicode="&#x2018;" horiz-adv-x="530" 
d="M324 1100l243 465l58 -23l-213 -469z" />
    <glyph glyph-name="quoteright" unicode="&#x2019;" horiz-adv-x="530" 
d="M625 1538l-244 -465l-57 23l213 469z" />
    <glyph glyph-name="quotesinglbase" unicode="&#x201a;" horiz-adv-x="530" 
d="M401 123l-243 -463l-60 23l215 469z" />
    <glyph glyph-name="quotedblleft" unicode="&#x201c;" horiz-adv-x="798" 
d="M592 1100l244 465l57 -23l-213 -469zM324 1100l243 465l58 -23l-213 -469z" />
    <glyph glyph-name="quotedblright" unicode="&#x201d;" horiz-adv-x="798" 
d="M625 1538l-244 -465l-57 23l213 469zM893 1538l-244 -465l-57 23l213 469z" />
    <glyph glyph-name="quotedblbase" unicode="&#x201e;" horiz-adv-x="798" 
d="M401 123l-243 -463l-60 23l215 469zM670 123l-244 -463l-59 23l215 469z" />
    <glyph glyph-name="dagger" unicode="&#x2020;" 
d="M928 1544l-64 -407h371l-14 -93h-371l-223 -1409h-99l224 1409h-371l14 93h371l63 407h99z" />
    <glyph glyph-name="daggerdbl" unicode="&#x2021;" 
d="M928 1544l-64 -407h371l-14 -93h-371l-139 -876h370l-14 -92h-371l-69 -441h-99l70 441h-371l15 92h370l140 876h-371l14 93h371l63 407h99z" />
    <glyph glyph-name="bullet" unicode="&#x2022;" 
d="M991 501q-130 -114 -293 -114t-257 111.5t-69 272.5t154 274.5t294 113.5q164 0 256.5 -113t68.5 -272t-154 -273z" />
    <glyph glyph-name="ellipsis" unicode="&#x2026;" horiz-adv-x="2048" 
d="M366.5 154q34.5 0 55 -25t15.5 -59t-33.5 -59t-63.5 -25t-55.5 24.5t-16.5 59.5q6 35 35 59.5t63.5 24.5zM1048.5 154q34.5 0 55 -25t15.5 -59t-33.5 -59t-63.5 -25t-55.5 24.5t-16.5 59.5q6 35 35 59.5t63.5 24.5zM1730.5 154q34.5 0 55 -25t15.5 -59t-33.5 -59
t-63.5 -25t-55.5 24.5t-16.5 59.5q6 35 35 59.5t63.5 24.5z" />
    <glyph glyph-name="perthousand" unicode="&#x2030;" horiz-adv-x="2117" 
d="M2106 286q-21 -131 -126 -215.5t-234 -84.5t-206 85.5t-57 214.5q19 129 123 217.5t237.5 88.5t208.5 -87.5t54 -218.5zM1662.5 443.5q-76.5 -62.5 -90.5 -153.5t39.5 -154.5t148 -63.5t171 64t90.5 153t-43 153t-148 64t-167.5 -62.5zM823 1472q75 -87 56 -216
q-19 -130 -123.5 -217t-235.5 -87t-207.5 85t-57.5 215q20 130 125 218.5t236.5 88.5t206.5 -87zM602 1473q-45 0 -89 -17.5t-80 -46.5t-60.5 -70t-30.5 -86t5 -84t38 -68.5t64.5 -46t83 -16.5t89.5 16.5t79.5 46t60 68.5t31 84t-5 86t-38 70t-64.5 46.5t-83 17.5z
M1413 1544l-1167 -1579l-58 37l1164 1577zM1293 505q74 -87 55 -218q-20 -130 -124.5 -215.5t-234.5 -85.5t-206.5 86.5t-57.5 214.5t123 216.5t237.5 88.5t207.5 -87zM904.5 443.5q-76.5 -62.5 -91.5 -153.5q-14 -91 41 -154.5t149 -63.5t169.5 64t90.5 152
q15 89 -42.5 153.5t-148.5 64.5t-167.5 -62.5z" />
    <glyph glyph-name="guilsinglleft" unicode="&#x2039;" horiz-adv-x="567" 
d="M487 365l-67 -56l-244 346l352 346l52 -55l-293 -291z" />
    <glyph glyph-name="guilsinglright" unicode="&#x203a;" horiz-adv-x="567" 
d="M489 655l-202 291l67 55l246 -346l-354 -346l-51 56z" />
    <glyph glyph-name="trademark" unicode="&#x2122;" horiz-adv-x="1925" 
d="M1006 1458h-285l-123 -776h-86l123 776h-285l12 86h656zM1335 1544l176 -670h5l389 670h147l-135 -862h-86l123 776h-8l-461 -776h-4l-211 776h-8l-123 -776h-86l135 862h147z" />
    <glyph glyph-name="fraction" horiz-adv-x="264" 
d="M866 1544l-1165 -1579l-59 37l1165 1579z" />
    <glyph glyph-name="fi" horiz-adv-x="972" 
d="M778 0h-92l150 946h92zM946 1346q35 0 55.5 -25t15.5 -59t-34 -59t-63.5 -25t-55 24.5t-14.5 59.5q4 35 32.5 59.5t63.5 24.5zM650 1630q-39 0 -76 -26.5t-65 -80t-44 -171.5l-66 -406h238l-12 -86h-238l-137 -860h-92l137 860h-105l13 86h104l68 424q25 165 70 227
q86 119 233 119q43 0 80 -14l-15 -84q-54 12 -93 12z" />
    <glyph glyph-name="fl" horiz-adv-x="899" 
d="M650 1630q-39 0 -76 -26.5t-65 -80t-44 -171.5l-66 -406h238l-12 -86h-238l-137 -860h-92l137 860h-105l13 86h104l68 424q25 165 70 227q86 119 233 119q43 0 80 -14l-15 -84q-54 12 -93 12zM741 0h-92l269 1690h92z" />
    <glyph glyph-name="breve" horiz-adv-x="888" 
d="M598 1163q-141 0 -184 82t-41 135h90q18 -125 178.5 -125t222.5 125h88q-26 -100 -119.5 -158.5t-234.5 -58.5z" />
    <glyph glyph-name="dotaccent" horiz-adv-x="641" 
d="M540.5 1380q34.5 0 54 -23.5t14.5 -58.5t-32.5 -58t-62.5 -23t-54.5 23.5t-14.5 57.5t33 58t62.5 24z" />
    <glyph glyph-name="ring" horiz-adv-x="663" 
d="M508 1106q-74 0 -118 52t-33 126t72 126t134 52q74 0 118 -52t32 -126q-19 -115 -93.5 -146.5t-111.5 -31.5zM551 1380q-41 0 -74 -27.5t-39 -68.5t17.5 -68.5t64.5 -27.5t73 27.5t38 68.5t-16.5 68.5t-63.5 27.5z" />
    <glyph glyph-name="hungarumlaut" horiz-adv-x="913" 
d="M713 1423l-301 -297l-72 35l254 301zM985 1423l-301 -297l-72 35l254 301z" />
    <glyph glyph-name="ogonek" horiz-adv-x="657" 
d="M401 4v-4q-172 -110 -192 -215q-10 -61 26.5 -91t91.5 -30t126 25l-35 -90q-69 -19 -110 -19q-90 0 -147 55t-41 151q19 114 193 218h88z" />
    <glyph glyph-name="caron" horiz-adv-x="872" 
d="M618 1145l-249 219l88 57l180 -155l233 155l64 -57z" />
    <glyph glyph-name="Lslash" horiz-adv-x="669" 
d="M281 725l-185 -117l17 101l184 116l113 719h98l-102 -651l290 182l-16 -100l-291 -182l-110 -701h393l-15 -92h-491z" />
    <glyph glyph-name="dotlessi" horiz-adv-x="479" 
d="M285 0h-92l149 946h92z" />
    <glyph glyph-name="lslash" horiz-adv-x="468" 
d="M315 801l-172 -111l17 92l170 111l127 797h92l-117 -732l172 109l-16 -92l-170 -109l-137 -866h-93z" />
    <glyph glyph-name="minus" 
d="M201 573h1048l-14 -98h-1049z" />
    </font>
</defs>
</svg>
