<?xml version="1.0" standalone="no"?>
<!DOCTYPE svg PUBLIC "-//W3C//DTD SVG 1.1//EN" "http://www.w3.org/Graphics/SVG/1.1/DTD/svg11.dtd" >
<svg xmlns="http://www.w3.org/2000/svg">
<metadata>
Created by FontPrep 20130207 at Mon Apr 27 13:31:34 2015
 By Martin
Copyright (c) 1987, 1991, 1993 Adobe Systems Incorporated.  All Rights Reserved.Futura is a registered trademark of Fundicion Tipografica Neufville S. A.
</metadata>
<defs>
<font id="57779e0f838f0207f986f1759b188972" horiz-adv-x='1024' >
  <font-face 
    font-family="IOTA-Medium"
    font-weight="500"
    font-stretch="normal"
    units-per-em="2048"
    panose-1="2 0 5 4 2 0 0 2 0 3"
    ascent="1638"
    descent="-410"
    x-height="958"
    cap-height="1544"
    bbox="-334 -549 2279 2089"
    underline-thickness="153"
    underline-position="-232"
    unicode-range="U+0020-2122"
  />
<missing-glyph horiz-adv-x="1024" 
d="M102 0v1049h820v-1049h-820zM119 16h786v1016h-786v-1016z" />
    <glyph glyph-name=".notdef" horiz-adv-x="1024" 
d="M102 0v1049h820v-1049h-820zM119 16h786v1016h-786v-1016z" />
    <glyph glyph-name=".null" horiz-adv-x="0" 
 />
    <glyph glyph-name="nonmarkingreturn" horiz-adv-x="681" 
 />
    <glyph glyph-name="space" unicode=" " horiz-adv-x="591" 
 />
    <glyph glyph-name="exclam" unicode="!" horiz-adv-x="657" 
d="M330 205q49 0 84 -36t35 -84t-35 -83t-84 -35t-84 35t-35 83t35 84t84 36zM238 356v1188h184v-1188h-184z" />
    <glyph glyph-name="quotedbl" unicode="&#x22;" horiz-adv-x="899" 
d="M184 1544h201l-37 -672h-127zM514 1544h201l-37 -672h-127z" />
    <glyph glyph-name="numbersign" unicode="#" 
d="M1133 1073v-164h-220l-55 -315h207v-164h-240l-77 -430h-156l76 430h-252l-82 -430h-154l76 430h-205v164h236l55 315h-215v164h244l73 397h158l-74 -397h254l72 397h162l-72 -397h189zM502 909l-56 -315h252l56 315h-252z" />
    <glyph glyph-name="dollar" unicode="$" 
d="M897 438q0 166 -215 277v-555q92 20 154 100q61 80 61 178zM580 1761h102v-184q236 -23 350 -238l-162 -92q-59 113 -188 152v-481q184 -84 292 -192t108 -279t-118 -313t-282 -167v-194h-102v194q-180 4 -315 127q-134 123 -163 303l185 39q27 -135 95 -204t198 -85v615
l-74 37q-143 73 -219 155t-76 228q-1 146 107 264t262 131v184zM580 967v432q-82 -11 -136 -71t-55 -140q1 -147 191 -221z" />
    <glyph glyph-name="percent" unicode="%" horiz-adv-x="1449" 
d="M395 1577q147 0 253 -102q106 -101 108 -247q0 -146 -108 -250t-253 -104t-253 104t-108 248q0 146 107 249q107 102 254 102zM395 1454q-94 0 -166 -69q-71 -69 -71 -161t72 -159q72 -68 165 -68q94 0 166 68t72 160q0 93 -72 161t-166 68zM1130 1577l93 -53l-901 -1557
l-95 51zM1057 670q147 0 253 -102t107 -248t-107 -249t-253 -103t-253 102q-108 104 -108 249t107 248t254 103zM1057 547q-94 0 -166 -69t-72 -161q0 -91 72 -159t166 -68t166 68q71 68 71 160t-71 160q-72 69 -166 69z" />
    <glyph glyph-name="ampersand" unicode="&#x26;" horiz-adv-x="1417" 
d="M376 226q87 -87 199 -87q68 0 138 35q71 35 113 72t104 98l-342 418l-19 -12q-2 -2 -41 -29t-49 -34t-44 -34t-47 -40q-99 -99 -99 -200q0 -100 87 -187zM661 1425q-75 0 -125 -46t-50 -126t92 -184l51 -65l24 16q4 2 47 35t80 70q55 55 57 133q1 79 -49 123t-127 44z
M582 -33q-197 0 -335 129t-138 326q0 94 41 173t90 125t139 111l96 70q-170 178 -170 336q1 158 101 249t252 91t255 -88q105 -88 105 -222t-83 -224t-198 -173l322 -389l180 209l123 -127l-188 -221l276 -342h-238l-168 209q-203 -242 -462 -242z" />
    <glyph glyph-name="quotesingle" unicode="'" horiz-adv-x="567" 
d="M184 1544h201l-37 -672h-127z" />
    <glyph glyph-name="parenleft" unicode="(" horiz-adv-x="598" 
d="M305 626q0 -550 176 -909l-151 -112q-106 207 -160 483q-53 276 -53 544t52 542t161 483l151 -113q-176 -368 -176 -918z" />
    <glyph glyph-name="parenright" unicode=")" horiz-adv-x="598" 
d="M481 634q0 -268 -53 -546q-53 -276 -160 -483l-151 112q176 358 176 908t-176 919l151 113q109 -209 161 -482t52 -541z" />
    <glyph glyph-name="asterisk" unicode="*" horiz-adv-x="884" 
d="M377 1544h141v-194l166 98l72 -121l-174 -102l174 -103l-72 -118l-166 102v-197h-141v199l-178 -100l-70 116l174 101l-172 102l64 117l182 -101v201z" />
    <glyph glyph-name="plus" unicode="+" 
d="M504 1049h176v-437h436v-176h-436v-436h-176v436h-436v176h436v437z" />
    <glyph glyph-name="comma" unicode="," horiz-adv-x="591" 
d="M336 244l160 -64l-273 -547l-112 48z" />
    <glyph glyph-name="hyphenminus" unicode="-" horiz-adv-x="679" 
d="M117 733h448v-153h-448v153z" />
    <glyph glyph-name="period" unicode="." horiz-adv-x="591" 
d="M297 205q49 0 84 -36t35 -84t-35 -83t-84 -35t-84 35t-35 83t35 84t84 36z" />
    <glyph glyph-name="slash" unicode="/" horiz-adv-x="1128" 
d="M918 1778l147 -66l-854 -1970l-145 65z" />
    <glyph glyph-name="zero" unicode="0" 
d="M53 772q0 129 30 261t89 258t169 206t251 80t251 -80t169 -206q120 -256 118 -519q0 -368 -176 -612q-139 -193 -375 -193q-128 0 -238 80t-169 206t-89 258t-30 261zM592 1413q-98 -1 -171 -69t-111 -172q-72 -198 -72 -396t72 -397q38 -104 111 -172t171 -68t171 68
q118 110 166 377q17 100 17 190q0 202 -73 397q-38 104 -110 174q-73 68 -171 68z" />
    <glyph glyph-name="one" unicode="1" 
d="M520 1368h-268l106 176h347v-1544h-185v1368z" />
    <glyph glyph-name="two" unicode="2" 
d="M1090 176v-176h-998l676 829q137 164 137 281t-91 204t-210 87t-205 -83t-94 -200h-192q25 211 152 335q128 124 333 124t348 -132q144 -131 144 -319t-115 -329l-508 -621h623z" />
    <glyph glyph-name="three" unicode="3" 
d="M563 897q303 0 303 248q0 117 -76 191t-184 73q-110 0 -179 -60t-85 -161h-190q29 190 144 290q116 99 307 99t319 -115t129 -301q0 -238 -197 -348q219 -102 219 -383q0 -211 -139 -337q-138 -126 -340 -126t-340 115q-137 115 -145 299h186q12 -111 99 -179t207 -67
q120 0 204 87t84 224t-91 221q-92 82 -235 70v160z" />
    <glyph glyph-name="four" unicode="4" 
d="M961 393h176v-168h-176v-225h-185v225h-762l947 1385v-1217zM776 393v637h-4l-434 -637h438z" />
    <glyph glyph-name="five" unicode="5" 
d="M1081 1368h-485l-96 -317l108 6q216 0 356 -160q140 -161 140 -391t-165 -384t-407 -155q-145 0 -275 73t-196 198l144 135q37 -96 136 -163t206 -67q157 0 265 112t108 263t-110 261t-259 110q-84 0 -162 -36t-127 -101h-37l238 792h618v-176z" />
    <glyph glyph-name="six" unicode="6" 
d="M1106 464q0 -200 -150 -348t-356 -148t-362 146t-156 336t168 418l526 709l139 -94l-411 -557l4 -4q78 37 151 36q187 0 317 -147t130 -347zM594 139q131 0 229 93q99 94 99 228t-100 230t-228 96q-127 0 -227 -98q-101 -98 -101 -227t98 -225t230 -97z" />
    <glyph glyph-name="seven" unicode="7" 
d="M96 1368v176h1112l-962 -1577l-150 92l799 1309h-799z" />
    <glyph glyph-name="eight" unicode="8" 
d="M592 721q-119 0 -209 -85t-90 -203t92 -206t207 -88t207 88t92 206t-90 203t-209 85zM109 430q0 129 63 229t180 142q-203 113 -202 346q0 186 128 308t314 122t314 -122t128 -308q0 -233 -203 -346q117 -41 181 -141t63 -230q0 -209 -140 -336t-343 -127t-343 127
t-140 336zM592 1413q-104 0 -183 -78t-79 -180t83 -186t179 -84t179 84q83 85 83 187t-79 180t-183 77z" />
    <glyph glyph-name="nine" unicode="9" 
d="M555 594q-188 0 -318 143q-131 143 -131 343t150 348t356 148t363 -145q320 -300 -12 -755l-527 -709l-139 96l412 555l-4 5q-59 -29 -150 -29zM627 758q134 0 227 96q92 96 92 224t-95 228t-227 99q-132 0 -232 -96q-100 -95 -101 -229q0 -134 101 -228t235 -94z" />
    <glyph glyph-name="colon" unicode=":" horiz-adv-x="591" 
d="M297 205q49 0 84 -36t35 -84t-35 -83t-84 -35t-84 35t-35 83t35 84t84 36zM297 987q49 0 84 -36t35 -84t-35 -83q-35 -34 -84 -34t-84 34t-35 83q0 48 35 84t84 36z" />
    <glyph glyph-name="semicolon" unicode=";" horiz-adv-x="591" 
d="M319 244l160 -64l-272 -547l-113 48zM393 987q49 0 84 -36t35 -84t-35 -83q-35 -34 -84 -34t-84 34t-35 83q0 48 35 84t84 36z" />
    <glyph glyph-name="less" unicode="&#x3c;" 
d="M1116 1020v-193l-786 -303l786 -303v-192l-1048 424v143z" />
    <glyph glyph-name="equal" unicode="=" 
d="M68 788h1048v-176h-1048v176zM68 436h1048v-176h-1048v176z" />
    <glyph glyph-name="greater" unicode="&#x3e;" 
d="M68 827v193l1048 -424v-143l-1048 -424v192l786 303z" />
    <glyph glyph-name="question" unicode="?" horiz-adv-x="927" 
d="M467 377q-135 0 -231 95t-96 234t79 204q80 65 231 115q38 13 54 21t46 21t43 27t37 38t23 99q0 74 -52 123t-130 49t-130 -52t-52 -124q0 -20 12 -66h-192l-5 68q-8 145 105 247t265 101q152 0 259 -104q107 -103 107 -259t-111 -253q-66 -57 -254 -115
q-150 -45 -149 -150q0 -61 41 -104t105 -43t104 45t38 113h187q5 -133 -97 -231t-237 -99zM469 205q49 0 84 -36t35 -84t-35 -83t-84 -35t-84 35t-35 83t35 84t84 36z" />
    <glyph glyph-name="at" unicode="@" horiz-adv-x="1638" 
d="M756 475q128 0 194 81t81 204q15 122 -43 192t-172 70t-190 -96t-75 -204q0 -108 57 -177q57 -70 148 -70zM1137 514q0 -53 45 -53q74 0 148 124t73 269q0 254 -157 407q-158 153 -406 153t-425 -188q-177 -186 -177 -458t189 -454t455 -183q266 0 384 98l153 -123
q-92 -48 -152 -72q-165 -67 -399 -67q-334 -1 -564 229t-230 574t226 576t556 231q283 0 481 -178q229 -203 229 -471t-126 -434q-141 -188 -316 -179q-88 4 -110 127q-128 -127 -272 -127t-247 112t-104 267q0 195 117 341t301 147q159 -1 272 -146l29 127h145l-102 -526
q-16 -70 -16 -123z" />
    <glyph glyph-name="A" unicode="A" horiz-adv-x="1439" 
d="M1251 0l-530 1188l-531 -1188h-206l737 1610l737 -1610h-207z" />
    <glyph glyph-name="B" unicode="B" horiz-adv-x="1095" 
d="M324 1372v-512h49q159 0 245 53t86 204t-84 203q-85 52 -243 52h-53zM836 444q0 258 -394 263h-118v-535h147q365 0 365 272zM131 0v1544h188q408 0 520 -212q46 -86 46 -194t-45 -192t-121 -119v-4q133 -25 221 -139t88 -252q0 -216 -155 -324t-381 -108h-361z" />
    <glyph glyph-name="C" unicode="C" horiz-adv-x="1353" 
d="M853 1401q-245 1 -422 -185t-177 -444t175 -443t421 -185t422 159v-227q-182 -109 -406 -109q-334 -1 -570 231t-235 570q0 338 240 574t582 235q219 0 389 -104v-224q-174 152 -419 152z" />
    <glyph glyph-name="D" unicode="D" horiz-adv-x="1361" 
d="M131 0v1544h320q375 0 621 -198t245 -571q0 -375 -244 -575t-629 -200h-313zM324 1368v-1192h67q310 0 512 128q105 68 163 186t58 282q0 458 -451 565q-126 31 -282 31h-67z" />
    <glyph glyph-name="E" unicode="E" horiz-adv-x="1067" 
d="M147 0v1544h830v-176h-637v-432h618v-176h-618v-584h637v-176h-830z" />
    <glyph glyph-name="F" unicode="F" horiz-adv-x="970" 
d="M893 1368h-555v-434h536v-176h-536v-758h-193v1544h748v-176z" />
    <glyph glyph-name="G" unicode="G" horiz-adv-x="1597" 
d="M942 778h612v-61q0 -322 -204 -536t-527 -214q-322 0 -551 239q-229 240 -229 568q1 328 235 566t566 237q180 0 347 -79t282 -220l-136 -129q-86 115 -216 183t-269 69q-258 0 -437 -183q-179 -182 -179 -436t177 -446t423 -193q186 1 342 137t163 322h-399v176z" />
    <glyph glyph-name="H" unicode="H" horiz-adv-x="1382" 
d="M324 922h735v622h192v-1544h-192v741h-735v-741h-193v1544h193v-622z" />
    <glyph glyph-name="I" unicode="I" horiz-adv-x="475" 
d="M334 1544v-1544h-193v1544h193z" />
    <glyph glyph-name="J" unicode="J" horiz-adv-x="741" 
d="M428 1544h193v-981q0 -248 -73 -406q-88 -190 -345 -190q-133 0 -242 68l96 164q66 -51 151 -52t142 54q78 68 78 288v1055z" />
    <glyph glyph-name="K" unicode="K" horiz-adv-x="1228" 
d="M340 0h-193v1544h193v-670l655 670h252l-694 -694l707 -850h-261l-581 719l-78 -74v-645z" />
    <glyph glyph-name="L" unicode="L" horiz-adv-x="788" 
d="M340 1544v-1368h469v-176h-662v1544h193z" />
    <glyph glyph-name="M" unicode="M" horiz-adv-x="1742" 
d="M872 -33l-462 1053h-4l-181 -1020h-198l315 1610l530 -1217l531 1217l315 -1610h-198l-181 1020h-4z" />
    <glyph glyph-name="N" unicode="N" horiz-adv-x="1607" 
d="M129 0v1618l1159 -1215v1141h193v-1607l-1159 1214v-1151h-193z" />
    <glyph glyph-name="O" unicode="O" horiz-adv-x="1695" 
d="M848 1577q332 0 570 -237q238 -238 239 -574q0 -336 -236 -567q-235 -231 -573 -231t-574 230q-236 232 -236 569t240 573q238 236 570 237zM848 147q252 -1 434 181t182 442t-175 443t-441 183t-441 -182q-175 -184 -175 -444t182 -442t434 -181z" />
    <glyph glyph-name="P" unicode="P" horiz-adv-x="1013" 
d="M340 647v-647h-193v1544h222q342 0 482 -110t140 -339q-1 -228 -151 -338t-389 -110h-111zM340 1372v-553h61q295 0 375 135q35 58 35 146q0 173 -141 228q-115 44 -279 44h-51z" />
    <glyph glyph-name="Q" unicode="Q" horiz-adv-x="1695" 
d="M848 -33q-338 -1 -574 231t-236 569t240 573q238 236 570 237q332 0 570 -237q238 -236 239 -572q0 -336 -242 -565l240 -236h-234l-133 137q-201 -137 -440 -137zM1464 772q0 258 -175 441t-441 183t-441 -182q-175 -184 -175 -444t182 -441t434 -182q164 0 307 89
l-354 346h239l244 -242q86 74 133 195t47 237z" />
    <glyph glyph-name="R" unicode="R" horiz-adv-x="1112" 
d="M340 653v-653h-193v1544h234q276 0 407 -71q96 -55 150 -155t53 -214q0 -168 -102 -290t-268 -142l487 -672h-234l-454 653h-80zM340 1372v-559h61q295 0 375 135q35 59 35 148q0 276 -420 276h-51z" />
    <glyph glyph-name="S" unicode="S" horiz-adv-x="1099" 
d="M328 1178q0 -139 215 -222l110 -43q187 -74 285 -179q98 -106 98 -300t-141 -330t-339 -137q-198 0 -333 122q-133 122 -157 310l194 41q0 -127 86 -210t210 -83q124 -1 206 89t82 207t-71 183t-195 115l-107 45q-250 109 -310 251q-26 62 -26 141q0 180 134 290t321 109
q266 -1 397 -234l-153 -92q-86 145 -248 146q-100 1 -179 -61t-79 -158z" />
    <glyph glyph-name="T" unicode="T" horiz-adv-x="933" 
d="M563 1368v-1368h-192v1368h-367v176h926v-176h-367z" />
    <glyph glyph-name="U" unicode="U" horiz-adv-x="1370" 
d="M121 1544h192v-911q0 -485 373 -486q373 0 373 486v911h192v-977q1 -260 -153 -430t-412 -170t-412 170t-153 430v977z" />
    <glyph glyph-name="V" unicode="V" horiz-adv-x="1310" 
d="M197 1544l460 -1143l459 1143h211l-670 -1626l-671 1626h211z" />
    <glyph glyph-name="W" unicode="W" horiz-adv-x="2103" 
d="M184 1544l432 -1106l437 1139l436 -1139l432 1106h209l-641 -1605l-436 1132l-437 -1132l-641 1605h209z" />
    <glyph glyph-name="X" unicode="X" horiz-adv-x="1175" 
d="M485 809l-426 735h220l315 -563l336 563h219l-444 -735l469 -809h-216l-364 633l-379 -633h-215z" />
    <glyph glyph-name="Y" unicode="Y" horiz-adv-x="1173" 
d="M684 0h-192v672l-504 872h221l379 -659l379 659h221l-504 -872v-672z" />
    <glyph glyph-name="Z" unicode="Z" horiz-adv-x="1130" 
d="M1114 176v-176h-1096l783 1368h-672v176h985l-782 -1368h782z" />
    <glyph glyph-name="bracketleft" unicode="[" horiz-adv-x="636" 
d="M313 1485v-1708h201v-172h-389v2052h389v-172h-201z" />
    <glyph glyph-name="backslash" unicode="\" horiz-adv-x="1128" 
d="M63 1778h173l827 -1778h-172z" />
    <glyph glyph-name="bracketright" unicode="]" horiz-adv-x="636" 
d="M324 -223v1708h-201v172h389v-2052h-389v172h201z" />
    <glyph glyph-name="asciicircum" unicode="^" 
d="M68 631l409 913h230l409 -913h-192l-332 741l-334 -741h-190z" />
    <glyph glyph-name="underscore" unicode="_" horiz-adv-x="1024" 
d="M1024 -231v-154h-1024v154h1024z" />
    <glyph glyph-name="grave" unicode="`" horiz-adv-x="737" 
d="M156 1413l170 90l256 -340l-90 -55z" />
    <glyph glyph-name="a" unicode="a" horiz-adv-x="1138" 
d="M544 131q142 0 225 100q83 101 83 247t-84 246t-224 99q-140 0 -223 -101q-83 -102 -83 -244t81 -245q83 -102 225 -102zM1026 958v-958h-184v150h-4q-123 -182 -330 -182t-331 150q-124 152 -124 362t125 358t330 149q205 0 330 -188h4v159h184z" />
    <glyph glyph-name="b" unicode="b" horiz-adv-x="1138" 
d="M287 478q0 -142 82 -244t224 -103q142 0 225 100q83 101 83 247t-84 246t-224 99q-140 0 -223 -101q-83 -102 -83 -244zM113 0v1778h184v-979h4q125 188 330 188t330 -148q125 -147 125 -359t-124 -362t-331 -151q-207 0 -330 183h-4v-150h-184z" />
    <glyph glyph-name="c" unicode="c" horiz-adv-x="903" 
d="M570 815q-146 0 -239 -100q-93 -99 -93 -241t93 -238t239 -96t261 126v-235q-113 -63 -264 -64q-215 1 -365 145t-149 362q0 218 151 366t374 147q144 0 253 -63v-238q-115 129 -261 129z" />
    <glyph glyph-name="d" unicode="d" horiz-adv-x="1138" 
d="M544 131q142 0 225 100q83 101 83 247t-84 246t-224 99q-140 0 -223 -101q-83 -102 -83 -244t81 -245q83 -102 225 -102zM842 0v150h-4q-123 -182 -331 -182t-331 150q-123 152 -123 362t125 358t330 149q205 0 330 -188h4v979h184v-1778h-184z" />
    <glyph glyph-name="e" unicode="e" horiz-adv-x="999" 
d="M969 449h-731q0 -127 80 -223q80 -95 194 -95t178 46q63 46 123 140l156 -88q-68 -125 -186 -193t-259 -69q-215 1 -343 143t-128 366t121 368t343 143q222 0 337 -142t115 -368v-28zM248 588h536q-16 112 -86 176t-177 64t-182 -68q-75 -66 -91 -172z" />
    <glyph glyph-name="f" unicode="f" horiz-adv-x="563" 
d="M476 1630q-34 0 -60 -19q-61 -44 -67 -177q-1 -25 -1 -64v-412h254v-172h-254v-786h-184v786h-84v172h84v467q0 377 309 377q68 1 129 -24v-187q-92 39 -126 39z" />
    <glyph glyph-name="g" unicode="g" horiz-adv-x="1136" 
d="M542 131q142 0 225 100q83 101 83 247t-84 246t-224 99q-140 0 -224 -101q-84 -102 -82 -244q0 -142 81 -245q83 -102 225 -102zM1024 958v-940q0 -272 -102 -419t-365 -148q-203 0 -331 117t-132 317h185q1 -127 79 -199t222 -71q144 0 201 92q58 92 59 260v183h-4
q-123 -182 -331 -182t-331 150q-123 152 -123 362t125 358t332 149q207 0 328 -192h4v163h184z" />
    <glyph glyph-name="h" unicode="h" horiz-adv-x="1071" 
d="M127 1778h184v-949h4q41 76 120 117t169 41q188 1 264 -109t76 -307v-571h-184v549q0 141 -40 208t-166 67t-173 -64q-25 -33 -40 -63q-30 -60 -30 -257v-440h-184v1778z" />
    <glyph glyph-name="i" unicode="i" horiz-adv-x="520" 
d="M352 958v-958h-184v958h184zM260 1526q53 0 90 -38t37 -91t-37 -89t-90 -36t-90 36t-37 89t37 91t90 38z" />
    <glyph glyph-name="j" unicode="j" horiz-adv-x="520" 
d="M352 958v-1507h-184v1507h184zM260 1526q53 0 90 -38t37 -91t-37 -89t-90 -36t-90 36t-37 89t37 91t90 38z" />
    <glyph glyph-name="k" unicode="k" horiz-adv-x="946" 
d="M324 1778v-1180l360 360h244l-410 -397l451 -561h-240l-342 436l-63 -63v-373h-185v1778h185z" />
    <glyph glyph-name="l" unicode="l" horiz-adv-x="454" 
d="M319 1778v-1778h-184v1778h184z" />
    <glyph glyph-name="m" unicode="m" horiz-adv-x="1570" 
d="M305 958v-120h4q43 66 111 108t143 41q176 0 277 -170q45 78 124 124t171 46q317 0 317 -414v-573h-184v543q0 201 -83 256q-37 25 -101 25t-110 -34q-95 -67 -95 -319v-471h-185v508q0 178 -40 242q-44 74 -146 74q-60 0 -106 -32q-97 -66 -97 -321v-471h-184v958h184z
" />
    <glyph glyph-name="n" unicode="n" horiz-adv-x="1071" 
d="M311 958v-129h4q41 76 120 117t169 41q188 1 264 -109t76 -307v-571h-184v549q0 141 -40 208t-166 67t-173 -64q-25 -33 -40 -63q-30 -60 -30 -257v-440h-184v958h184z" />
    <glyph glyph-name="o" unicode="o" horiz-adv-x="1105" 
d="M553 987q215 0 363 -147q148 -146 148 -362t-148 -363t-363 -147t-363 146q-148 148 -149 363q0 215 148 363q149 147 364 147zM553 811q-135 0 -231 -98q-96 -99 -96 -235t96 -235t231 -99t231 98q96 100 96 236t-96 234t-231 99z" />
    <glyph glyph-name="p" unicode="p" horiz-adv-x="1138" 
d="M287 478q0 -142 82 -244t224 -103q142 0 225 100q83 101 83 247t-84 246t-224 99q-140 0 -223 -101q-83 -102 -83 -244zM297 958v-159h4q125 188 330 188t330 -148q125 -147 125 -359t-124 -362t-331 -151q-207 0 -330 183h-4v-699h-184v1507h184z" />
    <glyph glyph-name="q" unicode="q" horiz-adv-x="1138" 
d="M544 131q142 0 225 100q83 101 83 247t-84 246t-224 99q-140 0 -223 -101q-83 -102 -83 -244t81 -245q83 -102 225 -102zM1026 958v-1507h-184v699h-4q-123 -182 -331 -182t-331 150q-123 152 -123 362t125 358t330 149q205 0 330 -188h4v159h184z" />
    <glyph glyph-name="r" unicode="r" horiz-adv-x="718" 
d="M324 958v-155h6q76 184 262 184q80 0 151 -47l-84 -168q-41 39 -113 39q-190 0 -215 -220q-7 -52 -7 -120v-471h-185v958h185z" />
    <glyph glyph-name="s" unicode="s" horiz-adv-x="786" 
d="M389 823q-39 -1 -70 -27t-31 -69q1 -78 157 -141q65 -27 131 -61t111 -95q46 -61 46 -145q0 -135 -97 -227q-98 -92 -220 -91t-216 59t-128 156l157 72q68 -123 174 -123q61 0 104 38q42 38 42 85t-15 69t-53 48l-180 96q-92 47 -138 99t-46 156t83 184t199 81
q181 0 263 -168l-150 -80q-41 84 -123 84z" />
    <glyph glyph-name="t" unicode="t" horiz-adv-x="491" 
d="M338 786v-786h-184v786h-101v172h101v367h184v-367h180v-172h-180z" />
    <glyph glyph-name="u" unicode="u" horiz-adv-x="1048" 
d="M119 958h184v-530q0 -289 221 -289t221 289v530h185v-550q0 -205 -100 -323t-306 -118q-205 0 -305 118t-100 323v550z" />
    <glyph glyph-name="v" unicode="v" horiz-adv-x="911" 
d="M180 958l275 -598l276 598h207l-483 -991l-482 991h207z" />
    <glyph glyph-name="w" unicode="w" horiz-adv-x="1470" 
d="M176 958l279 -610l282 664l281 -664l278 610h209l-487 -991l-281 641l-282 -641l-488 991h209z" />
    <glyph glyph-name="x" unicode="x" horiz-adv-x="1001" 
d="M399 520l-344 438h217l228 -309l248 309h223l-353 -438l412 -520h-215l-315 389l-305 -389h-224z" />
    <glyph glyph-name="y" unicode="y" horiz-adv-x="991" 
d="M412 164l-439 794h215l324 -608l301 608h207l-776 -1507h-209z" />
    <glyph glyph-name="z" unicode="z" horiz-adv-x="1013" 
d="M985 172v-172h-981l649 786h-538v172h897l-650 -786h623z" />
    <glyph glyph-name="braceleft" unicode="{" horiz-adv-x="684" 
d="M252 1014v372q0 113 60 192t114 79h160v-172h-82q-53 0 -62 -62q-2 -20 -2 -65v-377q0 -104 -44 -209t-111 -143q35 -22 76 -77q79 -105 79 -273v-377q0 -46 2 -66t16 -40t46 -21h82v-172h-160q-53 0 -114 79q-60 79 -60 191v373q0 239 -154 309v150q154 70 154 309z" />
    <glyph glyph-name="bar" unicode="|" horiz-adv-x="1167" 
d="M672 1778v-1778h-176v1778h176z" />
    <glyph glyph-name="braceright" unicode="}" horiz-adv-x="684" 
d="M432 246v-373q0 -113 -60 -191t-114 -79h-160v172h82q31 0 45 20q15 21 17 41t2 66v377q0 168 59 247t96 103q-25 14 -55 46t-64 117q-36 85 -36 189v377q0 45 -2 65q-2 21 -16 41t-46 21h-82v172h160q54 0 114 -79t60 -192v-372q0 -239 154 -309v-150
q-154 -70 -154 -309z" />
    <glyph glyph-name="asciitilde" unicode="~" 
d="M805 332q-66 0 -153 52q-86 52 -160 104t-116 52t-84 -39q-42 -40 -95 -128l-129 92q131 191 216 230q46 22 106 22t128 -33t113 -72q120 -104 174 -104q68 0 130 104q13 22 44 72l137 -102q-131 -250 -311 -250z" />
    <glyph glyph-name="Euro" 
d="M858 1577q196 0 348 -84l-43 -174q-135 82 -337 82t-323 -132q-120 -132 -153 -327h731l-28 -119h-719q-2 -16 -2 -28v-25q0 -47 8 -98h661l-28 -119h-613q37 -174 156 -292t320 -118q98 0 169 22t158 81v-207q-131 -72 -321 -72q-266 0 -452 151q-185 151 -232 435h-158
l29 119h114q-4 78 -4 92v31l2 28h-139l29 119h123q51 311 242 473t462 162z" />
    <glyph glyph-name="Euro" unicode="&#x20ac;" 
d="M858 1577q196 0 348 -84l-43 -174q-135 82 -337 82t-323 -132q-120 -132 -153 -327h731l-28 -119h-719q-2 -16 -2 -28v-25q0 -47 8 -98h661l-28 -119h-613q37 -174 156 -292t320 -118q98 0 169 22t158 81v-207q-131 -72 -321 -72q-266 0 -452 151q-185 151 -232 435h-158
l29 119h114q-4 78 -4 92v31l2 28h-139l29 119h123q51 311 242 473t462 162z" />
    <glyph glyph-name="Zcaron" horiz-adv-x="1130" 
d="M1114 176v-176h-1096l783 1368h-672v176h985l-782 -1368h782zM238 1995l118 94l207 -197l209 197l121 -94l-330 -297z" />
    <glyph glyph-name="Zcaron" unicode="&#x17d;" horiz-adv-x="1130" 
d="M1114 176v-176h-1096l783 1368h-672v176h985l-782 -1368h782zM238 1995l118 94l207 -197l209 197l121 -94l-330 -297z" />
    <glyph glyph-name="zcaron" horiz-adv-x="1013" 
d="M985 172v-172h-981l649 786h-538v172h897l-650 -786h623zM180 1409l119 94l207 -196l209 196l121 -94l-330 -297z" />
    <glyph glyph-name="zcaron" unicode="&#x17e;" horiz-adv-x="1013" 
d="M985 172v-172h-981l649 786h-538v172h897l-650 -786h623zM180 1409l119 94l207 -196l209 196l121 -94l-330 -297z" />
    <glyph glyph-name="nbspace" unicode="&#xa0;" horiz-adv-x="591" 
 />
    <glyph glyph-name="exclamdown" unicode="&#xa1;" horiz-adv-x="657" 
d="M330 1040q49 0 84 -36t35 -83q0 -48 -35 -83t-84 -35t-84 35t-35 83q0 47 35 83t84 36zM238 662h184v-1190h-184v1190z" />
    <glyph glyph-name="cent" unicode="&#xa2;" 
d="M729 1442v-156q158 -10 250 -63v-236h-4q-96 125 -246 129v-672q150 20 250 127v-239q-98 -47 -215 -58l-35 -2v-174h-98v183q-186 29 -306 165t-120 328q0 191 119 335t307 173v160h98zM385 775q-1 -111 67 -205t179 -119v653q-102 -12 -174 -114t-72 -215z" />
    <glyph glyph-name="sterling" unicode="&#xa3;" 
d="M57 616v119h205q-119 225 -119 369q0 195 155 334q154 139 360 139t338 -132t145 -347l-185 -70v57q0 129 -86 221t-212 91t-228 -99t-102 -202t51 -196q18 -34 50 -87t44 -78h303v-119h-254q29 -98 29 -176t-29 -176l152 -53q10 -4 44 -18l51 -21q57 -20 92 -20
q67 0 105 47t70 104l154 -94q-45 -111 -127 -177q-83 -66 -185 -65q-102 0 -276 67t-237 66q-128 0 -181 -133l-161 82q57 109 131 168t184 64q61 205 -16 335h-265z" />
    <glyph glyph-name="currency" unicode="&#xa4;" 
d="M1114 614q0 -160 -86 -290l84 -91l-123 -122l-94 90q-133 -99 -303 -99t-303 99l-94 -90l-123 122l84 91q-86 130 -86 290t86 291l-84 90l123 123l94 -90q133 98 303 98t303 -98l94 90l123 -123l-84 -90q86 -131 86 -291zM590 266q148 0 254 102t106 252q0 148 -101 245
t-256 97t-259 -98t-100 -246t106 -250t250 -102z" />
    <glyph glyph-name="yen" unicode="&#xa5;" 
d="M688 532v-532h-192v532h-484v119h484v21l-111 192h-373v119h303l-323 561h221l379 -659l379 659h221l-324 -561h303v-119h-370l-113 -192v-21h483v-119h-483z" />
    <glyph glyph-name="brokenbar" unicode="&#xa6;" horiz-adv-x="1167" 
d="M672 711v-711h-176v711h176zM672 1778v-711h-176v711h176z" />
    <glyph glyph-name="section" unicode="&#xa7;" 
d="M920 716q0 54 -26 91t-52 54q-27 17 -78 42l-377 191q-55 -36 -89 -94t-34 -114t30 -96t60 -60t84 -44l359 -178q55 37 89 95q34 59 34 113zM82 874q0 164 197 314q-91 102 -91 240t118 244t278 106t276 -92t127 -252h-178q-4 84 -74 133q-69 49 -155 49t-146 -60
t-61 -141q0 -80 45 -124t129 -87l272 -137q72 -37 102 -54t83 -59q98 -77 98 -184q0 -108 -49 -200t-133 -154q108 -102 108 -264t-129 -272t-319 -110t-321 120q-130 118 -130 321v31h182q-4 -127 75 -215q80 -88 192 -88q112 -1 189 65t77 158t-62 138q-62 47 -101 68
q-40 21 -46 25l-289 142q-121 59 -174 106t-72 97q-18 50 -18 136z" />
    <glyph glyph-name="dieresis" unicode="&#xa8;" horiz-adv-x="962" 
d="M265 1421q52 0 88 -36t36 -88t-36 -88q-36 -35 -88 -35t-88 36t-36 87q0 52 36 88t88 36zM697 1421q52 0 88 -36t36 -88t-36 -88q-36 -35 -88 -35t-88 36t-36 87q0 52 36 88t88 36z" />
    <glyph glyph-name="copyright" unicode="&#xa9;" horiz-adv-x="1638" 
d="M819 -33q-338 1 -572 235t-235 570q0 336 234 570t573 234t573 -234t234 -570t-234 -570t-573 -235zM1495 772q-1 282 -199 478t-478 196t-478 -195t-197 -479q0 -284 198 -478q198 -196 476 -196t478 196t200 478zM848 1112q-156 0 -235 -97t-79 -239t84 -235
q84 -94 234 -95q205 0 252 183h125q-19 -143 -125 -229t-252 -85q-201 -1 -325 133t-124 334t121 331q121 130 326 130q142 0 246 -82t133 -223h-125q-37 174 -256 174z" />
    <glyph glyph-name="ordfeminine" unicode="&#xaa;" horiz-adv-x="684" 
d="M344 1063q92 0 146 59q54 60 54 150t-54 148t-145 58t-145 -60q-54 -62 -54 -147t52 -147q54 -62 146 -61zM659 1559v-574h-120v88h-4q-80 -109 -214 -109t-216 92q-81 91 -81 217t82 215t213 89l220 -113v95h120zM659 754h-634v98h634v-98z" />
    <glyph glyph-name="guillemotleft" unicode="&#xab;" horiz-adv-x="1071" 
d="M637 655l305 -391l-115 -84l-372 475l372 492l115 -84zM244 655l305 -391l-115 -84l-373 475l373 492l115 -84z" />
    <glyph glyph-name="logicalnot" unicode="&#xac;" 
d="M940 236v376h-872v176h1048v-552h-176z" />
    <glyph glyph-name="hyphen" unicode="&#xad;" horiz-adv-x="679" 
d="M117 733h448v-153h-448v153z" />
    <glyph glyph-name="hyphen" unicode="&#x2010;" horiz-adv-x="679" 
d="M117 733h448v-153h-448v153z" />
    <glyph glyph-name="registered" unicode="&#xae;" horiz-adv-x="1638" 
d="M819 -33q-338 1 -572 235t-235 570q0 336 234 570t573 234t573 -234t234 -570t-234 -570t-573 -235zM1495 772q-1 282 -199 478t-478 196t-478 -195t-197 -479q0 -284 198 -478q198 -196 476 -196t478 196t200 478zM639 731v-418h-131v906h381q311 0 311 -240
q0 -125 -69 -183t-173 -65l230 -418h-150l-231 418h-168zM864 1087h-225v-225h139q14 0 53 -1q42 -1 112 3q126 7 126 101q0 78 -52 100q-53 22 -153 22z" />
    <glyph glyph-name="macron" unicode="&#xaf;" horiz-adv-x="1024" 
d="M143 1421h740v-139h-740v139z" />
    <glyph glyph-name="degree" unicode="&#xb0;" horiz-adv-x="819" 
d="M717 1270q0 -127 -90 -217t-217 -90t-217 90t-91 217q0 127 89 217t217 90t219 -90q90 -90 90 -217zM408 1475q-86 1 -144 -59t-59 -147q0 -87 58 -145q57 -58 145 -59q88 0 147 58q59 59 59 145t-60 146t-146 61z" />
    <glyph glyph-name="plusminus" unicode="&#xb1;" 
d="M68 0v176h1048v-176h-1048zM504 1151h176v-354h436v-176h-436v-355h-176v355h-436v176h436v354z" />
    <glyph glyph-name="twosuperior" unicode="&#xb2;" horiz-adv-x="708" 
d="M680 737v-119h-649l440 498q78 90 78 162q1 72 -59 120t-132 48t-122 -43t-54 -113h-137q14 125 98 200t217 75q132 0 226 -79t94 -196t-68 -194l-317 -359h385z" />
    <glyph glyph-name="threesuperior" unicode="&#xb3;" horiz-adv-x="708" 
d="M334 1180q88 0 140 34t52 102q0 66 -51 104t-118 38t-111 -28t-43 -87h-137q37 233 294 234q125 0 211 -69t86 -181q0 -137 -135 -209q150 -66 150 -229q0 -125 -94 -202t-224 -77t-221 70q-90 70 -94 180h131q20 -131 184 -131q76 0 131 45t55 121t-58 123
q-60 47 -148 43v119z" />
    <glyph glyph-name="acute" unicode="&#xb4;" horiz-adv-x="737" 
d="M412 1503l170 -90l-336 -305l-90 55z" />
    <glyph glyph-name="mu" unicode="&#xb5;" horiz-adv-x="1048" 
d="M119 958h184v-530q0 -289 221 -289t221 289v530h185v-550q0 -205 -100 -323t-306 -118q-115 0 -221 90v-606h-184v1507z" />
    <glyph glyph-name="paragraph" unicode="&#xb6;" 
d="M1102 1544v-172h-125v-1685h-172v1685h-127v-1685h-172v893q-176 0 -291 116t-129 317q-14 199 114 365t324 166h578z" />
    <glyph glyph-name="periodcentered" unicode="&#xb7;" horiz-adv-x="591" 
d="M297 643q49 0 84 -36t35 -84t-35 -83q-35 -34 -84 -34t-84 34t-35 83q0 48 35 84t84 36z" />
    <glyph glyph-name="periodcentered" unicode="&#x22c5;" horiz-adv-x="591" 
d="M297 643q49 0 84 -36t35 -84t-35 -83q-35 -34 -84 -34t-84 34t-35 83q0 48 35 84t84 36z" />
    <glyph glyph-name="periodcentered" unicode="&#x2219;" horiz-adv-x="591" 
d="M297 643q49 0 84 -36t35 -84t-35 -83q-35 -34 -84 -34t-84 34t-35 83q0 48 35 84t84 36z" />
    <glyph glyph-name="cedilla" unicode="&#xb8;" horiz-adv-x="675" 
d="M500 -94l-215 -277l-109 56l178 280z" />
    <glyph glyph-name="onesuperior" unicode="&#xb9;" horiz-adv-x="708" 
d="M309 1425h-176l70 119h237v-926h-131v807z" />
    <glyph glyph-name="ordmasculine" unicode="&#xba;" horiz-adv-x="663" 
d="M333 1577q140 0 236 -88q97 -88 97 -218t-96 -218t-237 -88q-140 0 -237 88q-96 88 -96 218t96 218q97 88 237 88zM332 1470q-90 0 -150 -58t-61 -140q0 -82 61 -142q60 -60 150 -59q90 0 151 58q61 57 61 141t-60 142q-62 58 -152 58zM666 754h-666v98h666v-98z" />
    <glyph glyph-name="guillemotright" unicode="&#xbb;" horiz-adv-x="1071" 
d="M129 264l305 391l-305 408l115 84l372 -492l-372 -475zM522 264l305 391l-305 408l115 84l373 -492l-373 -475z" />
    <glyph glyph-name="onequarter" unicode="&#xbc;" horiz-adv-x="1775" 
d="M258 1425h-176l70 119h237v-926h-131v807zM1593 254h101v-119h-101v-135h-131v135h-497l628 834v-715zM1462 254v336h-6l-252 -336h258zM1292 1577l105 -53l-901 -1557l-105 58z" />
    <glyph glyph-name="onehalf" unicode="&#xbd;" horiz-adv-x="1775" 
d="M258 618v807h-176l70 119h237v-926h-131zM1694 119v-119h-650l441 498q78 90 78 162q1 72 -59 120t-132 47q-72 0 -122 -43t-54 -112h-137q14 126 98 200t217 74q132 0 226 -79t94 -195t-68 -195l-317 -358h385zM1186 1577l104 -53l-901 -1557l-104 58z" />
    <glyph glyph-name="threequarters" unicode="&#xbe;" horiz-adv-x="1775" 
d="M1593 254h101v-119h-101v-135h-131v135h-497l628 834v-715zM1462 254v336h-6l-252 -336h258zM377 1180q88 0 140 34t52 102q0 66 -51 104t-118 38q-66 0 -110 -28t-44 -87h-137q37 233 294 234q125 0 211 -69t86 -181q0 -137 -135 -209q150 -66 150 -229q0 -125 -94 -202
q-95 -77 -225 -77t-220 70t-94 180h131q20 -131 184 -131q76 0 131 45q56 45 56 121t-60 123t-147 43v119zM1407 1577l104 -53l-901 -1557l-104 58z" />
    <glyph glyph-name="questiondown" unicode="&#xbf;" horiz-adv-x="927" 
d="M458 651q136 0 232 -95t96 -235t-83 -205q-67 -54 -204 -103t-166 -80l-31 -31q-28 -29 -29 -104t51 -124t131 -49q78 0 130 52t52 124q0 20 -12 66h192l4 -68q7 -145 -105 -246t-264 -101t-259 104t-107 259t111 253q66 57 254 114q150 45 149 150q0 61 -41 104t-105 43
q-64 -1 -104 -45q-41 -44 -39 -112h-186q-8 131 95 230q102 99 238 99zM457 1040q49 0 84 -36t35 -83q0 -48 -36 -83q-34 -35 -83 -35t-84 35t-35 83q0 47 35 83t84 36z" />
    <glyph glyph-name="Agrave" unicode="&#xc0;" horiz-adv-x="1439" 
d="M1251 0l-530 1188l-531 -1188h-206l737 1610l737 -1610h-207zM508 1999l170 90l256 -340l-90 -55z" />
    <glyph glyph-name="Aacute" unicode="&#xc1;" horiz-adv-x="1439" 
d="M1075 387h-708l-177 -387h-206l737 1610l737 -1610h-207zM995 563l-274 625l-275 -625h549zM764 2089l170 -90l-336 -305l-90 55z" />
    <glyph glyph-name="Acircumflex" unicode="&#xc2;" horiz-adv-x="1439" 
d="M1075 387h-708l-177 -387h-206l737 1610l737 -1610h-207zM995 563l-274 625l-275 -625h549zM393 1792l326 297l330 -297l-121 -94l-209 196l-207 -196z" />
    <glyph glyph-name="Atilde" unicode="&#xc3;" horiz-adv-x="1439" 
d="M1251 0l-530 1188l-531 -1188h-206l737 1610l737 -1610h-207zM558 2007q75 0 181 -54t148 -55q68 0 131 99l96 -80q-82 -168 -242 -168q-59 0 -172 52t-157 52q-68 0 -117 -94l-96 82q48 81 101 123q52 43 127 43z" />
    <glyph glyph-name="Adieresis" unicode="&#xc4;" horiz-adv-x="1439" 
d="M1075 387h-708l-177 -387h-206l737 1610l737 -1610h-207zM995 563l-274 625l-275 -625h549zM505 2007q52 0 88 -36t36 -88t-36 -88t-88 -36t-88 36t-36 88t36 88t88 36zM937 2007q52 0 88 -36t36 -88t-36 -88t-88 -36t-88 36t-36 88t36 88t88 36z" />
    <glyph glyph-name="Aring" unicode="&#xc5;" horiz-adv-x="1439" 
d="M1075 387h-708l-177 -387h-206l737 1610l737 -1610h-207zM995 563l-274 625l-275 -625h549zM721 2089q78 0 132 -54t54 -132t-54 -131q-54 -54 -132 -54t-131 54t-53 131q0 78 53 132t131 54zM722 1810q38 0 66 27t27 66q0 39 -28 67q-27 28 -65 27q-38 0 -66 -28
q-28 -29 -28 -67t28 -65t66 -27z" />
    <glyph glyph-name="AE" unicode="&#xc6;" horiz-adv-x="2041" 
d="M1090 387h-703l-176 -387h-211l741 1544h676l78 -176h-633l187 -432h616l82 -176h-619l248 -584h637l78 -176h-831zM1018 563l-266 598l-283 -598h549z" />
    <glyph glyph-name="Ccedilla" unicode="&#xc7;" horiz-adv-x="1353" 
d="M853 1401q-245 1 -422 -185t-177 -444t175 -443t421 -185t422 159v-227q-182 -109 -406 -109q-334 -1 -570 231t-235 570q0 338 240 574t582 235q219 0 389 -104v-224q-174 152 -419 152zM840 -94l-215 -277l-109 56l178 280z" />
    <glyph glyph-name="Egrave" unicode="&#xc8;" horiz-adv-x="1067" 
d="M147 0v1544h830v-176h-637v-432h618v-176h-618v-584h637v-176h-830zM322 1999l170 90l256 -340l-91 -55z" />
    <glyph glyph-name="Eacute" unicode="&#xc9;" horiz-adv-x="1067" 
d="M147 0v1544h830v-176h-637v-432h618v-176h-618v-584h637v-176h-830zM602 2089l170 -90l-336 -305l-90 55z" />
    <glyph glyph-name="Ecircumflex" unicode="&#xca;" horiz-adv-x="1067" 
d="M147 0v1544h830v-176h-637v-432h618v-176h-618v-584h637v-176h-830zM207 1792l325 297l330 -297l-121 -94l-209 196l-206 -196z" />
    <glyph glyph-name="Edieresis" unicode="&#xcb;" horiz-adv-x="1067" 
d="M147 0v1544h830v-176h-637v-432h618v-176h-618v-584h637v-176h-830zM343 2007q52 0 88 -36t36 -88t-36 -88t-88 -36t-88 36t-36 88t36 88t88 36zM775 2007q52 0 88 -36t36 -88t-36 -88t-88 -36t-88 36t-36 88t36 88t88 36z" />
    <glyph glyph-name="Igrave" unicode="&#xcc;" horiz-adv-x="475" 
d="M334 1544v-1544h-193v1544h193zM25 1999l170 90l256 -340l-91 -55z" />
    <glyph glyph-name="Iacute" unicode="&#xcd;" horiz-adv-x="475" 
d="M334 1544v-1544h-193v1544h193zM281 2089l170 -90l-336 -305l-90 55z" />
    <glyph glyph-name="Icircumflex" unicode="&#xce;" horiz-adv-x="475" 
d="M334 1544v-1544h-193v1544h193zM-90 1792l326 297l329 -297l-121 -94l-208 196l-207 -196z" />
    <glyph glyph-name="Idieresis" unicode="&#xcf;" horiz-adv-x="475" 
d="M334 1544v-1544h-193v1544h193zM22 2007q52 0 88 -36t36 -88t-36 -88t-88 -36t-89 36q-35 36 -35 88t35 88q37 36 89 36zM454 2007q52 0 88 -36t36 -88t-36 -88t-88 -36t-88 36t-36 88t36 88t88 36z" />
    <glyph glyph-name="Eth" unicode="&#xd0;" horiz-adv-x="1361" 
d="M131 922v622h320q375 0 621 -198t245 -571q0 -375 -244 -575t-629 -200h-313v741h-131v181h131zM324 1368v-446h274v-181h-274v-565h67q310 0 512 128q105 68 163 186t58 282q0 458 -451 565q-126 31 -282 31h-67z" />
    <glyph glyph-name="Ntilde" unicode="&#xd1;" horiz-adv-x="1607" 
d="M129 0v1618l1159 -1215v1141h193v-1607l-1159 1214v-1151h-193zM642 2007q75 0 181 -54t148 -55q68 0 131 99l96 -80q-82 -168 -242 -168q-59 0 -172 52t-157 52q-68 0 -117 -94l-96 82q48 81 101 123q52 43 127 43z" />
    <glyph glyph-name="Ograve" unicode="&#xd2;" horiz-adv-x="1695" 
d="M848 1577q332 0 570 -237q238 -238 239 -574q0 -336 -236 -567q-235 -231 -573 -231t-574 230q-236 232 -236 569t240 573q238 236 570 237zM848 147q252 -1 434 181t182 442t-175 443t-441 183t-441 -182q-175 -184 -175 -444t182 -442t434 -181zM635 1999l170 90
l256 -340l-90 -55z" />
    <glyph glyph-name="Oacute" unicode="&#xd3;" horiz-adv-x="1695" 
d="M848 1577q332 0 570 -237q238 -238 239 -574q0 -336 -236 -567q-235 -231 -573 -231t-574 230q-236 232 -236 569t240 573q238 236 570 237zM848 147q252 -1 434 181t182 442t-175 443t-441 183t-441 -182q-175 -184 -175 -444t182 -442t434 -181zM891 2089l170 -90
l-336 -305l-90 55z" />
    <glyph glyph-name="Ocircumflex" unicode="&#xd4;" horiz-adv-x="1695" 
d="M848 1577q332 0 570 -237q238 -238 239 -574q0 -336 -236 -567q-235 -231 -573 -231t-574 230q-236 232 -236 569t240 573q238 236 570 237zM848 147q252 -1 434 181t182 442t-175 443t-441 183t-441 -182q-175 -184 -175 -444t182 -442t434 -181zM520 1792l326 297
l330 -297l-121 -94l-209 196l-207 -196z" />
    <glyph glyph-name="Otilde" unicode="&#xd5;" horiz-adv-x="1695" 
d="M848 1577q332 0 570 -237q238 -238 239 -574q0 -336 -236 -567q-235 -231 -573 -231t-574 230q-236 232 -236 569t240 573q238 236 570 237zM848 147q252 -1 434 181t182 442t-175 443t-441 183t-441 -182q-175 -184 -175 -444t182 -442t434 -181zM685 2007q75 0 181 -54
t148 -55q68 0 131 99l96 -80q-82 -168 -242 -168q-59 0 -172 52t-157 52q-68 0 -117 -94l-96 82q48 81 101 123q52 43 127 43z" />
    <glyph glyph-name="Odieresis" unicode="&#xd6;" horiz-adv-x="1695" 
d="M848 1577q332 0 570 -237q238 -238 239 -574q0 -336 -236 -567q-235 -231 -573 -231t-574 230q-236 232 -236 569t240 573q238 236 570 237zM848 147q252 -1 434 181t182 442t-175 443t-441 183t-441 -182q-175 -184 -175 -444t182 -442t434 -181zM632 2007q52 0 88 -36
t36 -88t-36 -88t-88 -36t-88 36t-36 88t36 88t88 36zM1064 2007q52 0 88 -36t36 -88t-36 -88t-88 -36t-88 36t-36 88t36 88t88 36z" />
    <glyph glyph-name="multiply" unicode="&#xd7;" 
d="M68 924l122 125l402 -400l401 400l123 -125l-399 -400l399 -399l-123 -125l-401 399l-402 -399l-122 125l399 399z" />
    <glyph glyph-name="Oslash" unicode="&#xd8;" horiz-adv-x="1695" 
d="M1657 772q0 -342 -236 -573t-573 -232q-287 0 -533 195l-204 -205l-84 86l202 203q-190 210 -190 534t239 560t570 237q146 0 288 -53t246 -152l205 205l82 -84l-205 -205q193 -244 193 -516zM232 788q0 -242 133 -417l884 876q-156 154 -401 150q-266 1 -441 -183
t-175 -426zM1464 772q0 215 -135 387l-872 -868q151 -143 397 -143t428 180q182 182 182 444z" />
    <glyph glyph-name="Ugrave" unicode="&#xd9;" horiz-adv-x="1370" 
d="M121 1544h192v-911q0 -485 373 -486q373 0 373 486v911h192v-977q1 -260 -153 -430t-412 -170t-412 170t-153 430v977zM449 1999l169 90l256 -340l-90 -55z" />
    <glyph glyph-name="Uacute" unicode="&#xda;" horiz-adv-x="1370" 
d="M121 1544h192v-911q0 -485 373 -486q373 0 373 486v911h192v-977q1 -260 -153 -430t-412 -170t-412 170t-153 430v977zM729 2089l170 -90l-336 -305l-90 55z" />
    <glyph glyph-name="Ucircumflex" unicode="&#xdb;" horiz-adv-x="1370" 
d="M121 1544h192v-911q0 -485 373 -486q373 0 373 486v911h192v-977q1 -260 -153 -430t-412 -170t-412 170t-153 430v977zM358 1792l326 297l330 -297l-121 -94l-209 196l-207 -196z" />
    <glyph glyph-name="Udieresis" unicode="&#xdc;" horiz-adv-x="1370" 
d="M121 1544h192v-911q0 -485 373 -486q373 0 373 486v911h192v-977q1 -260 -153 -430t-412 -170t-412 170t-153 430v977zM470 2007q52 0 88 -36t36 -88t-36 -88t-88 -36t-88 36t-36 88t36 88t88 36zM902 2007q52 0 88 -36t36 -88t-36 -88t-88 -36t-88 36t-36 88t36 88
t88 36z" />
    <glyph glyph-name="Yacute" unicode="&#xdd;" horiz-adv-x="1173" 
d="M684 0h-192v672l-504 872h221l379 -659l379 659h221l-504 -872v-672zM713 2089l170 -90l-336 -305l-90 55z" />
    <glyph glyph-name="Thorn" unicode="&#xde;" horiz-adv-x="1013" 
d="M340 360v-360h-193v1544h193v-287h29q342 -1 482 -111t140 -338q-1 -228 -151 -338t-389 -110h-111zM340 1085v-553h61q294 0 375 136q35 59 35 146q0 172 -141 227q-115 44 -279 44h-51z" />
    <glyph glyph-name="germandbls" unicode="&#xdf;" horiz-adv-x="1187" 
d="M578 139q160 0 280 115q120 116 119 280q0 164 -112 262t-287 111v180q116 0 196 82t80 198q0 115 -78 189t-185 74t-174 -60q-37 -32 -65 -125t-28 -164v-1281h-185v791h-82v172h82v303q0 537 455 536q190 0 317 -125t127 -317q0 -229 -196 -342q147 -48 233 -188
t86 -302q1 -240 -173 -406t-410 -155v172z" />
    <glyph glyph-name="agrave" unicode="&#xe0;" horiz-adv-x="1138" 
d="M544 131q142 0 225 100q83 101 83 247t-84 246t-224 99q-140 0 -223 -101q-83 -102 -83 -244t81 -245q83 -102 225 -102zM1026 958v-958h-184v150h-4q-123 -182 -330 -182t-331 150q-124 152 -124 362t125 358t330 149q205 0 330 -188h4v159h184zM356 1413l170 90
l256 -340l-90 -55z" />
    <glyph glyph-name="aacute" unicode="&#xe1;" horiz-adv-x="1138" 
d="M544 131q142 0 225 100q83 101 83 247t-84 246t-224 99q-140 0 -223 -101q-83 -102 -83 -244t81 -245q83 -102 225 -102zM1026 958v-958h-184v150h-4q-123 -182 -330 -182t-331 150q-124 152 -124 362t125 358t330 149q205 0 330 -188h4v159h184zM612 1503l170 -90
l-336 -305l-90 55z" />
    <glyph glyph-name="acircumflex" unicode="&#xe2;" horiz-adv-x="1138" 
d="M544 131q142 0 225 100q83 101 83 247t-84 246t-224 99q-140 0 -223 -101q-83 -102 -83 -244t81 -245q83 -102 225 -102zM1026 958v-958h-184v150h-4q-123 -182 -330 -182t-331 150q-124 152 -124 362t125 358t330 149q205 0 330 -188h4v159h184zM242 1206l325 297
l330 -297l-121 -94l-209 197l-207 -197z" />
    <glyph glyph-name="atilde" unicode="&#xe3;" horiz-adv-x="1138" 
d="M544 131q142 0 225 100q83 101 83 247t-84 246t-224 99q-140 0 -223 -101q-83 -102 -83 -244t81 -245q83 -102 225 -102zM1026 958v-958h-184v150h-4q-123 -182 -330 -182t-331 150q-124 152 -124 362t125 358t330 149q205 0 330 -188h4v159h184zM407 1421q75 0 181 -54
t147 -54q68 0 131 98l97 -80q-82 -168 -242 -168q-59 0 -170 54q-115 51 -160 51q-68 0 -117 -94l-96 81q91 166 229 166z" />
    <glyph glyph-name="adieresis" unicode="&#xe4;" horiz-adv-x="1138" 
d="M544 131q142 0 225 100q83 101 83 247t-84 246t-224 99q-140 0 -223 -101q-83 -102 -83 -244t81 -245q83 -102 225 -102zM1026 958v-958h-184v150h-4q-123 -182 -330 -182t-331 150q-124 152 -124 362t125 358t330 149q205 0 330 -188h4v159h184zM353 1421q52 0 88 -36
t36 -88t-36 -88q-36 -35 -88 -35t-88 36t-36 87q0 52 36 88t88 36zM785 1421q52 0 88 -36t36 -88t-36 -88q-36 -35 -88 -35t-88 36q-35 36 -35 87q0 52 35 88q36 36 88 36z" />
    <glyph glyph-name="aring" unicode="&#xe5;" horiz-adv-x="1138" 
d="M544 131q142 0 225 100q83 101 83 247t-84 246t-224 99q-140 0 -223 -101q-83 -102 -83 -244t81 -245q83 -102 225 -102zM1026 958v-958h-184v150h-4q-123 -182 -330 -182t-331 150q-124 152 -124 362t125 358t330 149q205 0 330 -188h4v159h184zM569 1503q78 0 132 -54
q55 -54 55 -132t-54 -131t-133 -53q-78 0 -131 53t-53 131t53 132t131 54zM664 1317q0 39 -28 67t-66 27q-38 0 -66 -28q-28 -29 -27 -67q-1 -38 27 -64t66 -27q38 1 66 27t28 65z" />
    <glyph glyph-name="ae" unicode="&#xe6;" horiz-adv-x="1652" 
d="M905 588h537q-16 112 -86 176t-177 64t-183 -67q-75 -67 -91 -173zM453 446q-86 0 -157 -42t-71 -120t74 -115q74 -38 161 -38t162 40q74 40 74 119q0 80 -78 118t-165 38zM1622 449h-731q0 -127 81 -223q80 -96 194 -95q114 0 177 46t123 140l156 -88
q-68 -125 -186 -193t-258 -69q-215 0 -369 178q-57 -86 -157 -132t-210 -46q-158 0 -274 81t-115 232q1 150 105 236t273 86t276 -88v66q0 248 -252 247q-166 0 -262 -30v164q306 60 481 -14q94 -40 135 -118q127 158 355 158t344 -142q114 -142 114 -368v-28z" />
    <glyph glyph-name="ccedilla" unicode="&#xe7;" horiz-adv-x="903" 
d="M570 815q-146 0 -239 -100q-93 -99 -93 -241t93 -238t239 -96t261 126v-235q-113 -63 -264 -64q-215 1 -365 145t-149 362q0 218 151 366t374 147q144 0 253 -63v-238q-115 129 -261 129zM614 -94l-215 -277l-108 56l178 280z" />
    <glyph glyph-name="egrave" unicode="&#xe8;" horiz-adv-x="999" 
d="M969 449h-731q0 -127 80 -223q80 -95 194 -95t178 46q63 46 123 140l156 -88q-68 -125 -186 -193t-259 -69q-215 1 -343 143t-128 366t121 368t343 143q222 0 337 -142t115 -368v-28zM248 588h536q-16 112 -86 176t-177 64t-182 -68q-75 -66 -91 -172zM287 1413l170 90
l256 -340l-90 -55z" />
    <glyph glyph-name="eacute" unicode="&#xe9;" horiz-adv-x="999" 
d="M969 449h-731q0 -127 80 -223q80 -95 194 -95t178 46q63 46 123 140l156 -88q-68 -125 -186 -193t-259 -69q-215 1 -343 143t-128 366t121 368t343 143q222 0 337 -142t115 -368v-28zM248 588h536q-16 112 -86 176t-177 64t-182 -68q-75 -66 -91 -172zM543 1503l170 -90
l-336 -305l-90 55z" />
    <glyph glyph-name="ecircumflex" unicode="&#xea;" horiz-adv-x="999" 
d="M969 449h-731q0 -127 80 -223q80 -95 194 -95t178 46q63 46 123 140l156 -88q-68 -125 -186 -193t-259 -69q-215 1 -343 143t-128 366t121 368t343 143q222 0 337 -142t115 -368v-28zM248 588h536q-16 112 -86 176t-177 64t-182 -68q-75 -66 -91 -172zM172 1206l326 297
l329 -297l-120 -94l-209 197l-207 -197z" />
    <glyph glyph-name="edieresis" unicode="&#xeb;" horiz-adv-x="999" 
d="M969 449h-731q0 -127 80 -223q80 -95 194 -95t178 46q63 46 123 140l156 -88q-68 -125 -186 -193t-259 -69q-215 1 -343 143t-128 366t121 368t343 143q222 0 337 -142t115 -368v-28zM248 588h536q-16 112 -86 176t-177 64t-182 -68q-75 -66 -91 -172zM284 1421
q52 0 88 -36t36 -88t-36 -88q-36 -35 -88 -35t-88 36t-36 87q0 52 36 88t88 36zM716 1421q52 0 88 -36t36 -88t-36 -88q-36 -35 -88 -35t-88 36t-36 87q0 52 36 88t88 36z" />
    <glyph glyph-name="igrave" unicode="&#xec;" horiz-adv-x="520" 
d="M352 958v-958h-184v958h184zM47 1413l170 90l256 -340l-90 -55z" />
    <glyph glyph-name="iacute" unicode="&#xed;" horiz-adv-x="520" 
d="M352 958v-958h-184v958h184zM303 1503l170 -90l-336 -305l-90 55z" />
    <glyph glyph-name="icircumflex" unicode="&#xee;" horiz-adv-x="520" 
d="M352 958v-958h-184v958h184zM-68 1206l326 297l330 -297l-121 -94l-209 197l-207 -197z" />
    <glyph glyph-name="idieresis" unicode="&#xef;" horiz-adv-x="520" 
d="M352 958v-958h-184v958h184zM44 1421q52 0 88 -36t36 -88t-36 -88q-36 -35 -88 -35t-88 36t-36 87q0 52 36 88t88 36zM476 1421q52 0 88 -36t36 -88t-36 -88q-36 -35 -88 -35t-88 36t-36 87q0 52 36 88t88 36z" />
    <glyph glyph-name="eth" unicode="&#xf0;" horiz-adv-x="1105" 
d="M553 811q-135 0 -231 -98q-96 -99 -96 -235t96 -235t231 -99t231 98q96 100 96 236t-96 234t-231 99zM1065 473q0 -225 -146 -365q-145 -140 -363 -140t-366 146q-148 148 -149 363q0 215 148 363t364 147q68 0 135 -29l4 5q-195 301 -289 385l-323 -187l-103 113
l324 186l-207 228l160 90l207 -228l299 170l100 -110l-297 -172q193 -236 338 -480q164 -260 164 -485z" />
    <glyph glyph-name="ntilde" unicode="&#xf1;" horiz-adv-x="1071" 
d="M311 958v-129h4q41 76 120 117t169 41q188 1 264 -109t76 -307v-571h-184v549q0 141 -40 208t-166 67t-173 -64q-25 -33 -40 -63q-30 -60 -30 -257v-440h-184v958h184zM374 1421q75 0 181 -54t147 -54q68 0 132 98l96 -80q-82 -168 -242 -168q-59 0 -170 54
q-115 51 -160 51q-67 0 -116 -94l-97 81q55 86 104 126q50 40 125 40z" />
    <glyph glyph-name="ograve" unicode="&#xf2;" horiz-adv-x="1105" 
d="M553 987q215 0 363 -147q148 -146 148 -362t-148 -363t-363 -147t-363 146q-148 148 -149 363q0 215 148 363q149 147 364 147zM553 811q-135 0 -231 -98q-96 -99 -96 -235t96 -235t231 -99t231 98q96 100 96 236t-96 234t-231 99zM340 1413l170 90l256 -340l-90 -55z
" />
    <glyph glyph-name="oacute" unicode="&#xf3;" horiz-adv-x="1105" 
d="M553 987q215 0 363 -147q148 -146 148 -362t-148 -363t-363 -147t-363 146q-148 148 -149 363q0 215 148 363q149 147 364 147zM553 811q-135 0 -231 -98q-96 -99 -96 -235t96 -235t231 -99t231 98q96 100 96 236t-96 234t-231 99zM596 1503l170 -90l-336 -305l-90 55z
" />
    <glyph glyph-name="ocircumflex" unicode="&#xf4;" horiz-adv-x="1105" 
d="M553 987q215 0 363 -147q148 -146 148 -362t-148 -363t-363 -147t-363 146q-148 148 -149 363q0 215 148 363q149 147 364 147zM553 811q-135 0 -231 -98q-96 -99 -96 -235t96 -235t231 -99t231 98q96 100 96 236t-96 234t-231 99zM225 1206l326 297l330 -297l-121 -94
l-209 197l-207 -197z" />
    <glyph glyph-name="otilde" unicode="&#xf5;" horiz-adv-x="1105" 
d="M553 987q215 0 363 -147q148 -146 148 -362t-148 -363t-363 -147t-363 146q-148 148 -149 363q0 215 148 363q149 147 364 147zM553 811q-135 0 -231 -98q-96 -99 -96 -235t96 -235t231 -99t231 98q96 100 96 236t-96 234t-231 99zM390 1421q75 0 181 -54t148 -54
q68 0 131 98l96 -80q-82 -168 -241 -168q-59 0 -170 54q-115 51 -160 51q-68 0 -117 -94l-96 81q91 166 228 166z" />
    <glyph glyph-name="odieresis" unicode="&#xf6;" horiz-adv-x="1105" 
d="M553 987q215 0 363 -147q148 -146 148 -362t-148 -363t-363 -147t-363 146q-148 148 -149 363q0 215 148 363q149 147 364 147zM553 811q-135 0 -231 -98q-96 -99 -96 -235t96 -235t231 -99t231 98q96 100 96 236t-96 234t-231 99zM337 1421q52 0 88 -36t36 -88t-36 -88
q-36 -35 -88 -35t-88 36t-36 87q0 52 36 88t88 36zM769 1421q52 0 88 -36t36 -88t-36 -88q-36 -35 -88 -35t-88 36t-36 87q0 52 36 88t88 36z" />
    <glyph glyph-name="divide" unicode="&#xf7;" 
d="M68 436v176h1048v-176h-1048zM592 254q53 0 90 -38t37 -91t-37 -89t-90 -36t-90 36t-37 89t37 91t90 38zM592 1049q53 0 90 -38t37 -91q0 -54 -37 -90t-90 -36t-90 36t-37 90t37 91q37 38 90 38z" />
    <glyph glyph-name="oslash" unicode="&#xf8;" horiz-adv-x="1105" 
d="M1065 477q-1 -215 -149 -362t-350 -147t-347 118l-125 -131l-63 63l125 127q-115 160 -115 332q0 215 148 363t350 147q202 0 340 -119l135 138l63 -66l-133 -131q121 -162 121 -332zM540 811q-122 0 -218 -98q-96 -99 -96 -221t65 -218l457 469q-86 68 -208 68zM561 143
q127 -1 223 99t96 226t-71 208l-455 -467q80 -66 207 -66z" />
    <glyph glyph-name="ugrave" unicode="&#xf9;" horiz-adv-x="1048" 
d="M119 958h184v-530q0 -289 221 -289t221 289v530h185v-550q0 -205 -100 -323t-306 -118q-205 0 -305 118t-100 323v550zM311 1413l170 90l256 -340l-90 -55z" />
    <glyph glyph-name="uacute" unicode="&#xfa;" horiz-adv-x="1048" 
d="M119 958h184v-530q0 -289 221 -289t221 289v530h185v-550q0 -205 -100 -323t-306 -118q-205 0 -305 118t-100 323v550zM567 1503l170 -90l-336 -305l-90 55z" />
    <glyph glyph-name="ucircumflex" unicode="&#xfb;" horiz-adv-x="1048" 
d="M119 958h184v-530q0 -289 221 -289t221 289v530h185v-550q0 -205 -100 -323t-306 -118q-205 0 -305 118t-100 323v550zM197 1206l325 297l330 -297l-121 -94l-209 197l-207 -197z" />
    <glyph glyph-name="udieresis" unicode="&#xfc;" horiz-adv-x="1048" 
d="M119 958h184v-530q0 -289 221 -289t221 289v530h185v-550q0 -205 -100 -323t-306 -118q-205 0 -305 118t-100 323v550zM308 1421q52 0 88 -36t36 -88t-36 -88q-36 -35 -88 -35t-88 36t-36 87q0 52 36 88t88 36zM740 1421q52 0 88 -36t36 -88t-36 -88q-36 -35 -88 -35
t-88 36t-36 87q0 52 36 88t88 36z" />
    <glyph glyph-name="yacute" unicode="&#xfd;" horiz-adv-x="991" 
d="M412 164l-439 794h215l324 -608l301 608h207l-776 -1507h-209zM539 1503l170 -90l-336 -305l-90 55z" />
    <glyph glyph-name="thorn" unicode="&#xfe;" horiz-adv-x="1138" 
d="M297 1778v-979h4q125 188 330 188t330 -148q125 -147 125 -359t-124 -362t-331 -151q-207 0 -330 183h-4v-699h-184v2327h184zM287 478q0 -142 82 -244t224 -103q142 0 225 100q83 101 83 247t-84 246t-224 99q-140 0 -223 -101q-83 -102 -83 -244z" />
    <glyph glyph-name="ydieresis" unicode="&#xff;" horiz-adv-x="991" 
d="M412 164l-439 794h215l324 -608l301 608h207l-776 -1507h-209zM280 1421q52 0 88 -36t36 -88t-36 -88q-36 -35 -88 -35t-89 35q-35 36 -35 88t35 88q37 36 89 36zM712 1421q52 0 88 -36t36 -88t-36 -88q-36 -35 -88 -35t-88 36t-36 87q0 52 36 88t88 36z" />
    <glyph glyph-name="OE" unicode="&#x152;" horiz-adv-x="2340" 
d="M1470 0v258h-4q-104 -139 -267 -216t-351 -75q-338 -1 -574 231t-236 569t240 573q239 236 570 237q188 -8 354 -85t264 -218h4v270h809v-176h-634v-432h616v-176h-616v-584h634v-176h-809zM848 147q252 -1 434 181t182 442t-175 443t-441 183t-441 -182
q-175 -184 -175 -444t182 -442t434 -181z" />
    <glyph glyph-name="oe" unicode="&#x153;" horiz-adv-x="1837" 
d="M1083 588h537q-16 112 -86 176t-177 64t-183 -68q-76 -66 -91 -172zM553 811q-135 0 -231 -98q-96 -99 -96 -235t96 -235t231 -99t231 98q96 100 96 236t-96 234t-231 99zM1806 449h-731q0 -127 81 -223q80 -96 194 -95q114 0 178 46q63 46 123 140l155 -88
q-68 -125 -186 -193t-249 -69t-239 55t-169 156q-68 -102 -179 -158t-231 -53q-215 -1 -363 147t-149 363q0 215 148 363t364 147q119 -4 231 -61t179 -154q133 207 395 215q219 0 334 -142t114 -368v-28z" />
    <glyph glyph-name="Scaron" unicode="&#x160;" horiz-adv-x="1099" 
d="M328 1178q0 -139 215 -222l110 -43q187 -74 285 -179q98 -106 98 -300t-141 -330t-339 -137q-198 0 -333 122q-133 122 -157 310l194 41q0 -127 86 -210t210 -83q124 -1 206 89t82 207t-71 183t-195 115l-107 45q-250 109 -310 251q-26 62 -26 141q0 180 134 290t321 109
q266 -1 397 -234l-153 -92q-86 145 -248 146q-100 1 -179 -61t-79 -158zM223 1995l119 94l207 -197l209 197l121 -94l-330 -297z" />
    <glyph glyph-name="scaron" unicode="&#x161;" horiz-adv-x="786" 
d="M389 823q-39 -1 -70 -27t-31 -69q1 -78 157 -141q65 -27 131 -61t111 -95q46 -61 46 -145q0 -135 -97 -227q-98 -92 -220 -91t-216 59t-128 156l157 72q68 -123 174 -123q61 0 104 38q42 38 42 85t-15 69t-53 48l-180 96q-92 47 -138 99t-46 156t83 184t199 81
q181 0 263 -168l-150 -80q-41 84 -123 84zM66 1409l118 94l207 -196l209 196l121 -94l-330 -297z" />
    <glyph glyph-name="Ydieresis" unicode="&#x178;" horiz-adv-x="1173" 
d="M684 0h-192v672l-504 872h221l379 -659l379 659h221l-504 -872v-672zM372 2007q52 0 88 -36t36 -88t-36 -88t-88 -36t-88 36t-36 88t36 88t88 36zM804 2007q52 0 88 -36t36 -88t-36 -88t-88 -36t-88 36t-36 88t36 88t88 36z" />
    <glyph glyph-name="florin" unicode="&#x192;" 
d="M78 -305h-49l30 176h39q122 0 199 77q29 30 51 91q23 61 31 103t20 122l109 631h-133l18 139h144l43 254q33 203 122 314q90 111 281 110q72 0 123 -14l-33 -172q-35 14 -83 14q-91 0 -141 -55q-47 -50 -77 -219l-45 -232h264l-18 -139h-268l-113 -621
q-43 -267 -107 -374t-155 -156t-252 -49z" />
    <glyph glyph-name="circumflex" unicode="&#x2c6;" horiz-adv-x="962" 
d="M154 1206l325 297l330 -297l-121 -94l-209 197l-207 -197z" />
    <glyph glyph-name="tilde" unicode="&#x2dc;" horiz-adv-x="1044" 
d="M360 1421q74 0 180 -54t148 -54q68 0 131 98l96 -80q-82 -168 -241 -168q-59 0 -170 54q-115 51 -160 51q-68 0 -117 -94l-96 81q91 166 229 166z" />
    <glyph glyph-name="endash" unicode="&#x2013;" horiz-adv-x="1024" 
d="M0 733h1024v-153h-1024v153z" />
    <glyph glyph-name="emdash" unicode="&#x2014;" horiz-adv-x="2048" 
d="M0 733h2048v-153h-2048v153z" />
    <glyph glyph-name="quoteleft" unicode="&#x2018;" horiz-adv-x="567" 
d="M285 967l-162 63l272 547l115 -47z" />
    <glyph glyph-name="quoteright" unicode="&#x2019;" horiz-adv-x="567" 
d="M283 1577l161 -64l-272 -546l-115 47z" />
    <glyph glyph-name="quotesinglbase" unicode="&#x201a;" horiz-adv-x="567" 
d="M336 244l160 -64l-273 -547l-112 48z" />
    <glyph glyph-name="quotedblleft" unicode="&#x201c;" horiz-adv-x="899" 
d="M625 967l-162 63l272 547l115 -47zM285 967l-162 63l272 547l115 -47z" />
    <glyph glyph-name="quotedblright" unicode="&#x201d;" horiz-adv-x="899" 
d="M274 1577l162 -64l-272 -546l-115 47zM614 1577l162 -64l-272 -546l-115 47z" />
    <glyph glyph-name="quotedblbase" unicode="&#x201e;" horiz-adv-x="899" 
d="M328 244l159 -64l-272 -547l-113 48zM668 244l159 -64l-272 -547l-113 48z" />
    <glyph glyph-name="dagger" unicode="&#x2020;" 
d="M500 1778h184v-564h371v-176h-371v-1218h-184v1218h-371v176h371v564z" />
    <glyph glyph-name="daggerdbl" unicode="&#x2021;" 
d="M500 1778h184v-490h371v-176h-371v-250h371v-176h-371v-864h-184v864h-371v176h371v250h-371v176h371v490z" />
    <glyph glyph-name="bullet" unicode="&#x2022;" 
d="M592 387q-160 0 -273 113q-113 112 -113 272t113 274t273 114t274 -114t113 -274q1 -160 -113 -272t-274 -113z" />
    <glyph glyph-name="ellipsis" unicode="&#x2026;" horiz-adv-x="2048" 
d="M1024 205q49 0 84 -36t35 -84t-35 -83t-84 -35t-84 35t-35 83t35 84t84 36zM1708 205q49 0 84 -36t35 -84t-35 -83t-84 -35t-84 35t-35 83t35 84t84 36zM340 205q49 0 84 -36t35 -84t-35 -83t-84 -35t-84 35t-35 83t35 84t84 36z" />
    <glyph glyph-name="perthousand" unicode="&#x2030;" horiz-adv-x="2273" 
d="M406 1577q147 0 253 -102q107 -101 107 -247t-108 -250t-252 -104t-253 104q-108 104 -108 248q0 146 107 248t254 103zM406 1454q-94 0 -166 -69t-72 -161t72 -159q72 -68 166 -68t166 68t71 160q1 93 -71 161t-166 68zM1141 1577l92 -53l-901 -1557l-94 51zM1067 670
q147 0 253 -102t107 -248t-107 -249t-253 -103t-253 102q-108 104 -108 249t107 248t254 103zM1067 547q-94 0 -166 -69t-72 -161q0 -91 72 -159t166 -68t166 68t72 160t-72 160q-72 69 -166 69zM1870 670q148 0 254 -102t106 -248t-108 -249t-252 -103q-145 0 -253 102
q-108 104 -108 249t107 248t254 103zM1870 547q-94 0 -166 -69t-72 -161q0 -91 72 -159t166 -68t166 68t72 160t-72 160q-72 69 -166 69z" />
    <glyph glyph-name="guilsinglleft" unicode="&#x2039;" horiz-adv-x="688" 
d="M227 655l305 -391l-114 -84l-373 475l373 492l114 -84z" />
    <glyph glyph-name="guilsinglright" unicode="&#x203a;" horiz-adv-x="688" 
d="M156 264l305 391l-305 408l114 84l373 -492l-373 -475z" />
    <glyph glyph-name="trademark" unicode="&#x2122;" horiz-adv-x="1925" 
d="M1855 1544v-862h-131v731h-4l-295 -731h-79l-287 731h-4v-731h-131v862h215l247 -608l256 608h213zM766 1544v-131h-283v-731h-131v731h-282v131h696z" />
    <glyph glyph-name="CR" horiz-adv-x="591" 
 />
    <glyph glyph-name="Lslash" horiz-adv-x="788" 
d="M340 1544v-581l242 170v-197l-242 -162v-598h469v-176h-662v655l-165 -118v198l165 111v698h193z" />
    <glyph glyph-name="breve" horiz-adv-x="1003" 
d="M145 1421h148q66 -154 209 -153q80 0 128 38t83 115h145q-25 -127 -125 -208t-230 -81t-232 81q-101 81 -126 208z" />
    <glyph glyph-name="caron" horiz-adv-x="966" 
d="M156 1409l118 94l207 -196l209 196l121 -94l-330 -297z" />
    <glyph glyph-name="dotaccent" horiz-adv-x="737" 
d="M370 1421q52 0 88 -36t36 -88t-36 -88q-36 -35 -88 -35t-88 36t-36 87q0 52 36 88t88 36z" />
    <glyph glyph-name="dotlessi" horiz-adv-x="520" 
d="M352 958v-958h-184v958h184z" />
    <glyph glyph-name="fi" horiz-adv-x="1048" 
d="M881 958v-958h-185v958h185zM788 1526q52 0 90 -38t38 -91t-38 -89q-36 -36 -90 -36t-90 36q-37 36 -36 89q0 53 36 91q37 38 90 38zM476 1630q-34 0 -60 -19q-61 -44 -67 -177q-1 -25 -1 -64v-412h254v-172h-254v-786h-184v786h-84v172h84v467q0 377 309 377
q68 1 129 -24v-187q-92 39 -126 39z" />
    <glyph glyph-name="fl" horiz-adv-x="1017" 
d="M883 1778v-1778h-185v1778h185zM476 1630q-34 0 -60 -19q-61 -44 -67 -177q-1 -25 -1 -64v-412h254v-172h-254v-786h-184v786h-84v172h84v467q0 377 309 377q68 1 129 -24v-187q-92 39 -126 39z" />
    <glyph glyph-name="fraction" horiz-adv-x="337" 
d="M567 1577l105 -53l-901 -1557l-105 58z" />
    <glyph glyph-name="hungarumlaut" horiz-adv-x="962" 
d="M715 1485l170 -90l-336 -305l-90 55zM334 1503l170 -90l-336 -305l-90 55z" />
    <glyph glyph-name="lslash" horiz-adv-x="522" 
d="M367 1778v-648l168 132v-193l-168 -125v-944h-185v844l-166 -125v190l166 117v752h185z" />
    <glyph glyph-name="minus" 
d="M68 436v176h1048v-176h-1048z" />
    <glyph glyph-name="ogonek" horiz-adv-x="696" 
d="M432 -33v-4q-125 -88 -125 -174q0 -96 115 -96q66 0 102 26l-14 -118q-55 -35 -134 -35t-142 45q-62 45 -62 123q0 133 166 233h94z" />
    <glyph glyph-name="ring" horiz-adv-x="737" 
d="M369 1503q78 0 132 -54t54 -132t-54 -131t-132 -53t-131 53t-54 131q0 78 54 132t131 54zM276 1316q0 -38 28 -64t66 -27q38 1 66 27t27 65q0 39 -28 67q-27 28 -65 27q-38 0 -66 -28q-28 -29 -28 -67z" />
    </font>
</defs>
</svg>
