<?xml version="1.0" standalone="no"?>
<!DOCTYPE svg PUBLIC "-//W3C//DTD SVG 1.1//EN" "http://www.w3.org/Graphics/SVG/1.1/DTD/svg11.dtd" >
<svg xmlns="http://www.w3.org/2000/svg">
<metadata>
Created by FontPrep 20130207 at Mon Apr 27 13:26:21 2015
 By Martin
(c) 1989, 1995, 2002 Adobe Systems Incorporated. All rights reserved.
</metadata>
<defs>
<font id="a3894d49b0c62da6d619d8a85ab36753" horiz-adv-x='1024' >
  <font-face 
    font-family="AvenirLTStd-Light"
    font-weight="300"
    font-stretch="normal"
    units-per-em="2048"
    panose-1="2 11 4 2 2 2 3 2 2 4"
    ascent="1548"
    descent="-500"
    x-height="946"
    cap-height="1450"
    bbox="-342 -512 2048 1908"
    underline-thickness="102"
    underline-position="-102"
    unicode-range="U+0020-FB02"
  />
<missing-glyph horiz-adv-x="1024" 
d="M102 1239v-1044l349 522zM164 102h696l-348 523zM573 717l349 -522v1044zM512 809l348 522h-696zM0 0v1434h1024v-1434h-1024z" />
    <glyph glyph-name="f_i" unicode="fi" horiz-adv-x="1062" 
d="M233 0v836h-196v110h196v309q0 166 86 242q87 76 185 76t153 -25l-24 -106q-41 20 -111 20q-166 0 -166 -252v-264h222v-110h-222v-836h-123zM725 1321q0 39 27 65q28 26 66 27q38 0 65 -27q27 -28 27 -66t-28 -65q-26 -27 -65 -27t-65 28q-26 26 -27 65zM756 0v946h123
v-946h-123z" />
    <glyph glyph-name="f_l" unicode="fl" horiz-adv-x="1062" 
d="M756 0v1548h123v-1548h-123zM233 0v836h-196v110h196v309q0 166 86 242q87 76 185 76t153 -25l-24 -106q-41 20 -111 20q-166 0 -166 -252v-264h222v-110h-222v-836h-123z" />
    <glyph glyph-name=".notdef" horiz-adv-x="1024" 
d="M102 1239v-1044l349 522zM164 102h696l-348 523zM573 717l349 -522v1044zM512 809l348 522h-696zM0 0v1434h1024v-1434h-1024z" />
    <glyph glyph-name=".null" horiz-adv-x="0" 
 />
    <glyph glyph-name="nonmarkingreturn" horiz-adv-x="681" 
 />
    <glyph glyph-name="space" unicode=" " horiz-adv-x="532" 
 />
    <glyph glyph-name="exclam" unicode="!" horiz-adv-x="757" 
d="M281 86q0 41 28 70q29 28 70 28t70 -28t29 -70q0 -41 -30 -70q-28 -28 -69 -28t-70 28q-28 29 -28 70zM440 1450v-1069h-123v1069h123z" />
    <glyph glyph-name="quotedbl" unicode="&#x22;" 
d="M612 983v467h123v-467h-123zM330 983v467h123v-467h-123z" />
    <glyph glyph-name="numbersign" unicode="#" 
d="M653 567l43 320h-282l-43 -320h282zM27 469v98h235l45 320h-221v98h236l61 465h106l-63 -465h285l63 465h107l-64 -465h221v-98h-235l-43 -320h221v-98h-236l-61 -469h-106l61 469h-285l-61 -469h-107l62 469h-221z" />
    <glyph glyph-name="dollar" unicode="$" 
d="M477 -162v137q-115 1 -227 57t-182 158l116 80q49 -82 127 -131t166 -53v594l-145 53q-132 49 -184 149t-52 195q0 162 117 273t264 125v137h98v-137q250 0 379 -183l-112 -82q-47 72 -119 113t-148 41v-578l144 -49q109 -39 185 -129t77 -248q0 -158 -120 -266
q-120 -109 -286 -119v-137h-98zM231 1090q-1 -106 53 -163q54 -58 158 -96l35 -12v545q-102 -18 -174 -93t-72 -181zM846 379q0 164 -182 231l-89 33v-557q117 4 194 87t77 206z" />
    <glyph glyph-name="percent" unicode="%" horiz-adv-x="1669" 
d="M324 -12l933 1532l95 -58l-936 -1532zM997 328q0 -102 71 -172t171 -70t171 70t71 172t-71 172t-171 70t-171 -70t-71 -172zM887 328q0 144 103 248q102 104 248 104t250 -103t103 -249q0 -146 -103 -248q-102 -104 -248 -104t-250 103q-103 104 -103 249zM188 1122
q0 -102 71 -172t171 -70t171 70t71 172t-71 172t-171 70t-171 -70t-71 -172zM78 1122q0 144 103 248t249 104t248 -102q104 -104 104 -250t-103 -248q-103 -104 -249 -104t-249 103q-103 104 -103 249z" />
    <glyph glyph-name="ampersand" unicode="&#x26;" horiz-adv-x="1441" 
d="M256 389q0 -135 94 -219t234 -84q198 0 348 223l-402 418q-168 -102 -221 -174q-53 -71 -53 -164zM834 1184q0 70 -58 126q-58 54 -147 54t-153 -57t-64 -148q0 -47 30 -105t55 -90q26 -32 70 -85q113 59 167 102t77 88t23 115zM563 -37q-188 0 -315 117t-127 292
t106 276q57 54 99 84t127 81q-55 68 -85 107q-30 40 -61 108t-31 129q0 152 106 241t250 89q142 0 239 -86t97 -227t-104 -235q-55 -47 -96 -73t-123 -71l352 -373l209 377h140l-263 -463l330 -346h-182l-217 233q-94 -127 -200 -193t-251 -67z" />
    <glyph glyph-name="quotesingle" unicode="'" horiz-adv-x="532" 
d="M205 983v467h123v-467h-123z" />
    <glyph glyph-name="parenleft" unicode="(" horiz-adv-x="532" 
d="M119 594q1 240 75 478t209 427l105 -65q-129 -162 -198 -392t-68 -452q0 -426 266 -848l-96 -61q-141 195 -217 435q-76 238 -76 478z" />
    <glyph glyph-name="parenright" unicode=")" horiz-adv-x="532" 
d="M291 590q0 426 -266 848l96 61q141 -195 217 -435t76 -478q0 -240 -75 -478t-210 -427l-104 65q129 162 197 391q69 229 69 453z" />
    <glyph glyph-name="asterisk" unicode="*" horiz-adv-x="909" 
d="M506 1450v-311l295 98l30 -98l-294 -97l186 -249l-76 -60l-192 256l-183 -256l-82 60l187 249l-299 103l28 92l302 -98v311h98z" />
    <glyph glyph-name="plus" unicode="+" horiz-adv-x="1363" 
d="M160 571v99h473v473h98v-473h473v-99h-473v-473h-98v473h-473z" />
    <glyph glyph-name="comma" unicode="," horiz-adv-x="532" 
d="M102 -283l136 467h143l-158 -467h-121z" />
    <glyph glyph-name="hyphen" unicode="-" horiz-adv-x="681" 
d="M88 430v111h506v-111h-506z" />
    <glyph glyph-name="period" unicode="." horiz-adv-x="532" 
d="M168 86q0 41 29 70q29 28 69 28t70 -28q29 -28 29 -70q0 -41 -29 -70q-29 -28 -70 -28q-42 0 -70 28t-28 70z" />
    <glyph glyph-name="slash" unicode="/" horiz-adv-x="757" 
d="M18 -37l623 1561l107 -37l-621 -1561z" />
    <glyph glyph-name="zero" unicode="0" 
d="M532 86q88 0 154 46t100 113q35 67 57 159q51 216 27 475q-27 328 -184 439q-66 46 -154 46t-154 -46t-100 -113t-62 -185t-28 -291q0 -174 28 -296q28 -123 63 -189t101 -112q64 -46 152 -46zM53 725q0 107 10 201t42 198t82 178q49 74 139 124q90 48 206 48t206 -48
q89 -50 140 -123q130 -193 134 -578q0 -227 -42 -365t-92 -213t-140 -123t-206 -48q-118 0 -206 48q-88 50 -139 123q-50 75 -82 179t-42 198t-10 201z" />
    <glyph glyph-name="one" unicode="1" 
d="M535 0v1278h-3l-262 -215l-75 94l358 293h104v-1450h-122z" />
    <glyph glyph-name="two" unicode="2" 
d="M84 0v143l545 576q63 69 99 111t72 117t36 147q0 122 -81 196t-200 74t-198 -66t-101 -172l-143 15q35 164 151 249q117 85 290 85q173 -1 295 -101t122 -266t-97 -300q-51 -71 -90 -114t-112 -119l-453 -464h762v-111h-897z" />
    <glyph glyph-name="three" unicode="3" 
d="M541 86q137 0 221 89t84 233t-114 218q-114 75 -269 74h-53v123h61q133 0 228 69t95 196q0 128 -73 202q-75 74 -179 74q-203 0 -290 -170l-117 66q115 215 391 215q176 -1 290 -97t114 -276q0 -121 -68 -212t-190 -124v-4q137 -25 223 -128t86 -243q0 -180 -117 -298
t-332 -118q-337 0 -448 285l133 43q41 -109 114 -163t210 -54z" />
    <glyph glyph-name="four" unicode="4" 
d="M674 467v848h-4l-512 -848h516zM674 0v356h-627v146l580 948h170v-983h221v-111h-221v-356h-123z" />
    <glyph glyph-name="five" unicode="5" 
d="M924 1450v-111h-598l-7 -460q80 41 211 41q203 0 327 -140t124 -349q0 -210 -142 -333t-321 -123q-305 0 -434 246l127 64q37 -83 124 -141t193 -58t212 93t106 252t-106 269t-254 109q-150 0 -291 -98l12 739h717z" />
    <glyph glyph-name="six" unicode="6" 
d="M532 766q-141 0 -240 -99t-99 -246t94 -241q93 -94 245 -94t246 94t94 240t-99 247q-100 99 -241 99zM563 872q193 0 319 -129t126 -321t-134 -320q-134 -127 -342 -127q-207 0 -341 127t-134 324q0 70 25 146t45 115q20 38 63 110l394 653h155l-395 -639h4q74 61 215 61
z" />
    <glyph glyph-name="seven" unicode="7" 
d="M907 1450v-111l-577 -1339h-137l587 1339h-696v111h823z" />
    <glyph glyph-name="eight" unicode="8" 
d="M846 407q0 137 -90 225t-224 89q-134 -1 -223 -89q-90 -88 -90 -225t87 -229t226 -92t227 92q87 92 87 229zM532 1364q-114 0 -188 -74t-74 -188q0 -115 74 -193t188 -78t189 78q74 78 74 193q0 114 -75 188t-188 74zM135 1098q0 168 113 272q112 104 284 104t285 -104
t113 -272q0 -104 -65 -198t-167 -122v-2q133 -29 208 -133t75 -240q0 -193 -127 -311t-322 -117q-196 0 -322 118t-126 310q0 135 75 239t208 134v2q-102 28 -167 122t-65 198z" />
    <glyph glyph-name="nine" unicode="9" 
d="M532 684q141 0 241 99q99 99 99 246t-94 241t-246 94t-246 -94t-93 -240q0 -146 99 -246t240 -100zM502 578q-193 0 -319 129t-126 321t134 320q134 127 341 127t341 -127t135 -324q0 -70 -25 -146t-45 -115q-20 -38 -64 -110l-393 -653h-155l395 639h-4
q-74 -61 -215 -61z" />
    <glyph glyph-name="colon" unicode=":" horiz-adv-x="532" 
d="M168 86q0 41 29 70q29 28 69 28t70 -28q29 -28 29 -70q0 -41 -29 -70q-29 -28 -70 -28q-42 0 -70 28t-28 70zM168 860q0 41 29 70q29 28 69 28t70 -28q29 -28 29 -70t-29 -70t-70 -28q-42 0 -70 28t-28 70z" />
    <glyph glyph-name="semicolon" unicode=";" horiz-adv-x="532" 
d="M168 860q0 41 29 70q29 28 69 28t70 -28q29 -28 29 -70t-29 -70t-70 -28q-42 0 -70 28t-28 70zM102 -283l136 467h143l-158 -467h-121z" />
    <glyph glyph-name="less" unicode="&#x3c;" horiz-adv-x="1363" 
d="M1196 1149v-102l-917 -426l917 -426v-103l-1028 479v99z" />
    <glyph glyph-name="equal" unicode="=" horiz-adv-x="1363" 
d="M160 424v98h1044v-98h-1044zM160 719v98h1044v-98h-1044z" />
    <glyph glyph-name="greater" unicode="&#x3e;" horiz-adv-x="1363" 
d="M168 92v103l917 426l-917 426v102l1028 -479v-99z" />
    <glyph glyph-name="question" unicode="?" horiz-adv-x="948" 
d="M383 86q0 41 29 70q30 28 70 28t69 -28t29 -70q0 -41 -29 -70q-29 -28 -70 -28t-69 28t-29 70zM418 381v172q0 132 112 244q47 45 95 90q114 109 113 230q-1 122 -65 191q-65 68 -172 68t-178 -64t-94 -173l-133 16q27 154 136 243q110 89 270 89t265 -94t105 -264
t-116 -281q-48 -47 -98 -90q-118 -103 -117 -246v-131h-123z" />
    <glyph glyph-name="at" unicode="@" horiz-adv-x="1638" 
d="M1106 379q108 0 220 162t112 331q0 224 -174 370t-430 146t-444 -197q-188 -198 -189 -468q1 -270 193 -466t462 -196q152 0 296 76t224 195h119q-92 -168 -268 -268t-371 -101q-330 0 -548 221q-218 222 -218 542t220 540t528 221q308 0 510 -176q200 -175 200 -431
t-150 -434t-329 -178q-55 0 -91 36t-36 102h-4q-45 -54 -118 -96t-146 -42q-133 0 -205 86t-72 215q0 229 135 411t349 183q168 0 217 -170h4l49 131h123l-199 -594q-23 -68 -22 -98q0 -53 53 -53zM520 580q0 -93 47 -147t125 -54q135 0 241 159q105 159 105 306
q0 209 -166 209q-98 0 -181 -80t-127 -190t-44 -203z" />
    <glyph glyph-name="A" unicode="A" horiz-adv-x="1402" 
d="M1034 508l-327 795l-338 -795h665zM10 0l633 1450h139l611 -1450h-152l-158 385h-768l-163 -385h-142z" />
    <glyph glyph-name="B" unicode="B" horiz-adv-x="1290" 
d="M334 700v-577h309q113 0 191 28q78 27 114 73q62 80 64 177q0 150 -102 225t-246 74h-330zM334 1327v-504h280q98 0 169 25q71 24 105 64q60 70 60 155q0 260 -315 260h-299zM199 0v1450h417q335 0 427 -186q40 -80 40 -196q1 -116 -67 -197t-193 -105v-4
q143 -10 233 -108t91 -232q0 -135 -46 -219q-76 -139 -279 -186q-77 -17 -160 -17h-463z" />
    <glyph glyph-name="C" unicode="C" horiz-adv-x="1441" 
d="M862 -37q-338 0 -548 214t-210 548t210 548t536 214t504 -227l-111 -93q-66 97 -170 147t-219 50q-278 0 -446 -181t-168 -457t168 -458t446 -182q120 0 238 57t190 168l111 -84q-193 -264 -531 -264z" />
    <glyph glyph-name="D" unicode="D" horiz-adv-x="1517" 
d="M315 1327v-1204h279q305 0 495 151q189 152 189 451t-189 451t-495 151h-279zM180 0v1450h449q153 0 279 -36t206 -89t139 -128q99 -126 130 -255q30 -129 30 -191q0 -298 -160 -498q-59 -75 -139 -128t-206 -89t-279 -36h-449z" />
    <glyph glyph-name="E" unicode="E" horiz-adv-x="1214" 
d="M199 0v1450h886v-123h-751v-516h704v-123h-704v-565h784v-123h-919z" />
    <glyph glyph-name="F" unicode="F" horiz-adv-x="1138" 
d="M199 0v1450h868v-123h-733v-516h682v-123h-682v-688h-135z" />
    <glyph glyph-name="G" unicode="G" horiz-adv-x="1593" 
d="M1395 782v-688q-229 -131 -550 -131t-531 214t-210 548t210 548t537 214t525 -201l-98 -102q-66 80 -186 130t-238 50q-278 0 -446 -181t-168 -457t168 -458t437 -182t415 86v487h-349v123h484z" />
    <glyph glyph-name="H" unicode="H" horiz-adv-x="1478" 
d="M199 0v1450h135v-639h811v639h135v-1450h-135v688h-811v-688h-135z" />
    <glyph glyph-name="I" unicode="I" horiz-adv-x="532" 
d="M199 0v1450h135v-1450h-135z" />
    <glyph glyph-name="J" unicode="J" horiz-adv-x="987" 
d="M788 1450v-1024q0 -248 -95 -352q-40 -45 -118 -78t-184 -33q-154 0 -249 79t-128 218l136 25q49 -199 241 -199q262 0 262 307v1057h135z" />
    <glyph glyph-name="K" unicode="K" horiz-adv-x="1251" 
d="M199 0v1450h135v-639h12l703 639h186l-733 -664l774 -786h-195l-735 750h-12v-750h-135z" />
    <glyph glyph-name="L" unicode="L" horiz-adv-x="1024" 
d="M199 0v1450h135v-1327h676v-123h-811z" />
    <glyph glyph-name="M" unicode="M" horiz-adv-x="1820" 
d="M184 0v1450h203l528 -1217l529 1217h192v-1450h-135v1278h-4l-553 -1278h-59l-561 1278h-5v-1278h-135z" />
    <glyph glyph-name="N" unicode="N" horiz-adv-x="1593" 
d="M199 0v1450h174l882 -1270h5v1270h135v-1450h-174l-883 1270h-4v-1270h-135z" />
    <glyph glyph-name="O" unicode="O" horiz-adv-x="1708" 
d="M240 725q0 -275 168 -457t446 -182t446 181t168 457t-168 458t-446 182t-446 -182t-168 -457zM104 725q0 334 210 548t540 214t540 -214t210 -548t-210 -548t-540 -214t-540 214t-210 548z" />
    <glyph glyph-name="P" unicode="P" horiz-adv-x="1175" 
d="M334 1327v-516h307q131 0 219 61q88 62 88 194t-92 197t-223 64h-299zM199 0v1450h417q175 0 310 -77q72 -40 114 -119t43 -187q0 -187 -126 -283t-310 -96h-313v-688h-135z" />
    <glyph glyph-name="Q" unicode="Q" horiz-adv-x="1708" 
d="M240 748q0 -265 176 -445t444 -180t424 182t156 445q0 262 -162 438t-438 176t-439 -175q-161 -176 -161 -441zM1665 123v-123h-799q-311 0 -536 209q-226 209 -226 533t203 534q203 211 533 211t532 -211t203 -533q0 -199 -99 -377t-264 -239v-4h453z" />
    <glyph glyph-name="R" unicode="R" horiz-adv-x="1214" 
d="M199 0v1450h381q516 0 516 -381q0 -326 -371 -373l422 -696h-154l-407 688h-252v-688h-135zM334 1327v-516h287q100 0 172 26q71 25 105 67q60 75 62 164q1 88 -62 166q-34 42 -106 68t-171 25h-287z" />
    <glyph glyph-name="S" unicode="S" horiz-adv-x="1138" 
d="M569 86q139 0 233 78q93 78 93 207q0 94 -55 155q-54 61 -138 88t-181 62t-180 73q-83 39 -138 125t-56 216q-1 184 135 290t330 107q256 0 396 -182l-117 -84q-102 143 -283 143q-139 0 -232 -72t-93 -202q0 -167 148 -239q67 -32 211 -75t240 -100q68 -41 108 -118
t40 -187q0 -188 -132 -298t-318 -110q-315 0 -471 219l129 86q109 -182 331 -182z" />
    <glyph glyph-name="T" unicode="T" horiz-adv-x="1175" 
d="M520 0v1327h-495v123h1126v-123h-496v-1327h-135z" />
    <glyph glyph-name="U" unicode="U" horiz-adv-x="1400" 
d="M1229 1450v-895q0 -243 -115 -411q-58 -85 -164 -133t-250 -48q-400 0 -500 369q-28 102 -28 223v895h135v-860q0 -253 109 -386q40 -50 114 -84t170 -34t170 34t115 84q105 128 109 386v860h135z" />
    <glyph glyph-name="V" unicode="V" horiz-adv-x="1214" 
d="M535 0l-541 1450h145l467 -1272l471 1272h144l-551 -1450h-135z" />
    <glyph glyph-name="W" unicode="W" horiz-adv-x="1933" 
d="M432 0l-422 1450h140l360 -1284h4l367 1284h172l366 -1284h4l361 1284h139l-422 -1450h-166l-366 1290h-4l-367 -1290h-166z" />
    <glyph glyph-name="X" unicode="X" horiz-adv-x="1251" 
d="M2 0l545 762l-496 688h160l418 -590l411 590h162l-491 -688l538 -762h-168l-458 655l-459 -655h-162z" />
    <glyph glyph-name="Y" unicode="Y" horiz-adv-x="1175" 
d="M520 0v625l-532 825h162l438 -688l448 688h152l-533 -825v-625h-135z" />
    <glyph glyph-name="Z" unicode="Z" horiz-adv-x="1138" 
d="M47 0v106l848 1221h-836v123h1010v-111l-854 -1216h877v-123h-1045z" />
    <glyph glyph-name="bracketleft" unicode="[" horiz-adv-x="532" 
d="M459 1499v-98h-185v-1622h185v-98h-307v1818h307z" />
    <glyph glyph-name="backslash" unicode="\" horiz-adv-x="757" 
d="M117 1524l622 -1561l-108 -37l-621 1561z" />
    <glyph glyph-name="bracketright" unicode="]" horiz-adv-x="532" 
d="M74 -319v98h184v1622h-184v98h307v-1818h-307z" />
    <glyph glyph-name="asciicircum" unicode="^" horiz-adv-x="1363" 
d="M168 524l467 926h94l467 -926h-115l-399 815l-397 -815h-117z" />
    <glyph glyph-name="underscore" unicode="_" horiz-adv-x="1024" 
d="M0 -256v102h1024v-102h-1024z" />
    <glyph glyph-name="grave" unicode="`" horiz-adv-x="491" 
d="M152 1450l213 -295h-103l-274 295h164z" />
    <glyph glyph-name="a" unicode="a" horiz-adv-x="1062" 
d="M788 475h-135q-174 0 -292 -50t-117 -163q0 -82 66 -129t149 -47q180 0 255 93t74 233v63zM899 629v-232q0 -258 19 -397h-115q-12 70 -12 154h-5q-102 -178 -331 -179q-137 0 -236 71q-98 71 -98 210q0 317 524 317h143v58q0 117 -72 173q-73 56 -194 56
q-164 0 -289 -106l-71 84q66 61 165 97t195 36q178 0 278 -84t99 -258z" />
    <glyph glyph-name="b" unicode="b" horiz-adv-x="1251" 
d="M248 473q0 -159 114 -273t283 -114q168 0 270 112q103 112 103 276t-102 275t-271 111t-283 -114t-114 -273zM137 0v1548h123v-768h4q52 92 158 142t221 49q217 -1 357 -141t140 -357t-140 -357t-357 -141q-115 -1 -220 49t-159 142h-4v-166h-123z" />
    <glyph glyph-name="c" unicode="c" horiz-adv-x="985" 
d="M605 -25q-214 1 -354 141t-140 357t140 357t352 140t358 -163l-99 -74q-117 127 -254 127q-170 0 -272 -112t-102 -275t102 -275t261 -112t265 131l94 -78q-137 -164 -351 -164z" />
    <glyph glyph-name="d" unicode="d" horiz-adv-x="1251" 
d="M1004 473q0 159 -115 273t-283 114t-270 -112t-102 -275t102 -275t270 -112t283 114t115 273zM991 0v166h-4q-53 -92 -159 -141t-220 -50q-217 1 -357 141t-140 357t140 357t357 141q115 0 220 -49t159 -142h4v768h123v-1548h-123z" />
    <glyph glyph-name="e" unicode="e" horiz-adv-x="1138" 
d="M233 553h672q0 127 -96 217t-231 90q-92 0 -165 -40t-109 -96q-71 -110 -71 -171zM590 -25q-215 -1 -347 139t-132 357t133 358t340 141q208 0 326 -131q118 -132 118 -311v-86h-795q-1 -81 35 -150t73 -110q89 -96 257 -96q88 0 177 46t134 122l90 -76
q-135 -203 -409 -203z" />
    <glyph glyph-name="f" unicode="f" horiz-adv-x="606" 
d="M233 0v836h-196v110h196v309q0 166 86 242q87 76 185 76t153 -25l-24 -106q-41 20 -111 20q-166 0 -166 -252v-264h222v-110h-222v-836h-123z" />
    <glyph glyph-name="g" unicode="g" horiz-adv-x="1251" 
d="M995 485q0 156 -109 266q-110 109 -266 109t-265 -110t-109 -265t110 -265t265 -110q156 0 265 110q109 109 109 265zM1114 946v-885q0 -135 -35 -237t-86 -160t-143 -106q-92 -47 -238 -49q-145 -1 -272 53t-199 145l97 90q127 -178 372 -178q381 0 381 434v131h-4
q-117 -184 -358 -184q-209 0 -358 142q-148 142 -148 343t148 343t358 143q242 0 358 -185h4v160h123z" />
    <glyph glyph-name="h" unicode="h" horiz-adv-x="1138" 
d="M164 0v1548h123v-768h4q39 82 126 136t197 55q360 0 361 -408v-563h-123v557q0 303 -238 303q-143 0 -235 -100t-92 -287v-473h-123z" />
    <glyph glyph-name="i" unicode="i" horiz-adv-x="491" 
d="M154 1321q0 39 26 65t66 27q40 0 66 -27q26 -28 26 -66t-27 -65t-65 -27t-66 27q-26 27 -26 66zM184 0v946h123v-946h-123z" />
    <glyph glyph-name="j" unicode="j" horiz-adv-x="491" 
d="M154 1321q0 39 26 65t66 27q40 0 66 -27q26 -28 26 -66t-27 -65t-65 -27t-66 27q-26 27 -26 66zM307 946v-1112q0 -160 -58 -243t-212 -83q-49 0 -98 19l18 108q43 -16 78 -16q90 0 120 54t29 151v1122h123z" />
    <glyph glyph-name="k" unicode="k" horiz-adv-x="985" 
d="M164 0v1548h123v-1032l467 428h180l-488 -432l545 -512h-186l-518 500v-500h-123z" />
    <glyph glyph-name="l" unicode="l" horiz-adv-x="491" 
d="M184 0v1548h123v-1548h-123z" />
    <glyph glyph-name="m" unicode="m" horiz-adv-x="1744" 
d="M1221 971q360 0 360 -408v-563h-123v557q0 303 -237 303q-79 0 -139 -32t-91 -83q-57 -94 -57 -213v-532h-123v569q0 135 -50 213t-147 78q-143 0 -235 -100t-92 -287v-473h-123v680l-10 266h122q4 -150 9 -166h6q39 82 126 136t191 54t182 -50q78 -51 109 -154
q43 100 130 152t192 53z" />
    <glyph glyph-name="n" unicode="n" horiz-adv-x="1138" 
d="M975 0h-123v557q0 303 -238 303q-143 0 -235 -100t-92 -287v-473h-123v680l-10 266h122q4 -150 9 -166h6q39 82 126 136t197 55q360 0 361 -408v-563z" />
    <glyph glyph-name="o" unicode="o" horiz-adv-x="1216" 
d="M233 473q1 -163 103 -275t272 -112t273 112q102 112 102 276t-102 275q-103 111 -273 111t-272 -112t-103 -275zM111 473q0 217 140 357t357 140q218 0 358 -140t140 -357t-140 -357t-358 -140t-357 140q-140 140 -140 357z" />
    <glyph glyph-name="p" unicode="p" horiz-adv-x="1251" 
d="M248 473q0 -159 114 -273t283 -114q168 0 270 112q103 112 103 276t-102 275t-271 111t-283 -114t-114 -273zM137 -467v1413h123v-166h4q52 92 158 142t221 49q217 -1 357 -141t140 -357t-140 -357t-357 -141q-115 -1 -220 49t-159 142h-4v-633h-123z" />
    <glyph glyph-name="q" unicode="q" horiz-adv-x="1251" 
d="M1004 473q0 159 -115 273t-283 114t-270 -112t-102 -275t102 -275t270 -112t283 114t115 273zM991 -467v633h-4q-53 -92 -159 -141t-220 -50q-217 1 -357 141t-140 357t140 357t357 141q115 0 220 -49t159 -142h4v166h123v-1413h-123z" />
    <glyph glyph-name="r" unicode="r" horiz-adv-x="681" 
d="M596 848q-154 0 -232 -92t-77 -240v-516h-123v680l-10 266h122q4 -150 9 -166q106 190 301 191q31 0 71 -10l-14 -121q-25 8 -47 8z" />
    <glyph glyph-name="s" unicode="s" horiz-adv-x="872" 
d="M440 86q86 0 152 48t66 123t-58 113q-57 38 -140 54t-166 38t-140 79q-58 57 -58 171t98 187q98 72 226 72q244 0 334 -178l-111 -66q-74 133 -223 133q-74 0 -137 -41t-63 -111t56 -105q56 -36 140 -51q84 -16 167 -36t140 -80t57 -168q0 -139 -99 -216t-243 -77
q-272 0 -381 193l109 74q37 -74 113 -115q75 -41 161 -41z" />
    <glyph glyph-name="t" unicode="t" horiz-adv-x="681" 
d="M627 946v-110h-271v-617q0 -63 35 -98t97 -35t139 33l10 -111q-90 -33 -160 -33q-125 0 -184 68t-60 176v617h-204v110h204v273h123v-273h271z" />
    <glyph glyph-name="u" unicode="u" horiz-adv-x="1138" 
d="M154 383v563h122v-557q0 -303 238 -303q143 0 236 100q92 100 92 287v473h123v-680l10 -266h-123q-4 150 -8 166h-6q-39 -82 -126 -136t-198 -55q-360 0 -360 408z" />
    <glyph glyph-name="v" unicode="v" horiz-adv-x="948" 
d="M418 0l-387 946h139l315 -813l308 813h125l-373 -946h-127z" />
    <glyph glyph-name="w" unicode="w" horiz-adv-x="1441" 
d="M328 0l-297 946h135l229 -792h4l265 792h116l281 -792h4l223 792h123l-278 -946h-127l-283 774h-4l-264 -774h-127z" />
    <glyph glyph-name="x" unicode="x" horiz-adv-x="985" 
d="M12 0l394 512l-338 434h157l262 -358l261 358h153l-334 -434l406 -512h-160l-330 428l-323 -428h-148z" />
    <glyph glyph-name="y" unicode="y" horiz-adv-x="948" 
d="M170 -492q-51 0 -121 19l12 115q76 -23 123 -23t82 43t64 115l86 219l-385 950h137l313 -796l305 796h132l-488 -1239q-78 -199 -260 -199z" />
    <glyph glyph-name="z" unicode="z" horiz-adv-x="872" 
d="M55 0v74l568 762h-539v110h709v-74l-566 -761h590v-111h-762z" />
    <glyph glyph-name="braceleft" unicode="{" horiz-adv-x="681" 
d="M561 1499v-98h-47q-59 1 -86 -57t-27 -144v-289q0 -96 -38 -191t-105 -128v-4q65 -34 105 -129q39 -95 38 -191v-291q0 -84 27 -141t86 -57h47v-98h-102q-86 1 -133 67t-47 180v299q0 313 -144 314v98q143 0 144 315v297q0 117 47 183t133 65h102z" />
    <glyph glyph-name="bar" unicode="|" horiz-adv-x="454" 
d="M178 1536h98v-2048h-98v2048z" />
    <glyph glyph-name="braceright" unicode="}" horiz-adv-x="681" 
d="M121 -319v98h47q59 0 86 57t27 144v288q0 96 39 192t104 128v4q-65 34 -104 128q-40 95 -39 191v291q0 84 -27 141t-86 58h-47v98h102q86 -1 133 -67t47 -181v-299q0 -313 144 -313v-98q-143 0 -144 -316v-297q0 -116 -47 -182t-133 -65h-102z" />
    <glyph glyph-name="asciitilde" unicode="~" horiz-adv-x="1363" 
d="M897 496q-66 0 -224 70q-159 70 -213 69q-54 0 -95 -36t-84 -103l-70 65q96 184 256 184q66 1 224 -69q159 -70 213 -70t95 36t84 103l70 -65q-88 -184 -256 -184z" />
    <glyph glyph-name="uni00A0" unicode="&#xa0;" horiz-adv-x="532" 
 />
    <glyph glyph-name="exclamdown" unicode="&#xa1;" horiz-adv-x="757" 
d="M477 909q-1 -41 -29 -69t-69 -29q-41 0 -70 29q-29 30 -29 70t29 69t70 29t69 -29t29 -70zM317 -455v1069h123v-1069h-123z" />
    <glyph glyph-name="cent" unicode="&#xa2;" 
d="M623 -166h-99v148q-186 26 -302 164t-116 330t117 326q117 136 301 163v147h99v-145q195 -2 335 -160l-98 -74q-102 113 -237 123v-770q137 6 237 131l94 -78q-129 -158 -331 -164v-141zM229 479q0 -139 81 -247t214 -136v758q-137 -20 -216 -128t-79 -247z" />
    <glyph glyph-name="sterling" unicode="&#xa3;" 
d="M119 0v111h215v589h-195v111h195v240q0 152 95 279q48 65 135 105t200 40q162 0 293 -115l-82 -98q-102 102 -230 102t-202 -94t-74 -205v-254h338v-111h-338v-589h502v-111h-852z" />
    <glyph glyph-name="currency" unicode="&#xa4;" 
d="M145 726q0 -163 115 -279q114 -115 272 -115t273 116t115 278q0 163 -114 278q-114 114 -274 114t-274 -114t-113 -278zM532 1229q176 0 318 -109l117 115l69 -76l-116 -112q122 -133 122 -321t-122 -323l116 -112l-69 -76l-117 115q-142 -109 -318 -109t-317 109
l-117 -115l-69 76l116 112q-123 133 -123 321t123 323l-116 112l69 76l117 -115q141 109 317 109z" />
    <glyph glyph-name="yen" unicode="&#xa5;" 
d="M465 0v369h-348v98h348v158l-19 32h-329v99h274l-391 694h139l393 -705l400 705h133l-391 -694h274v-99h-330l-18 -32v-158h348v-98h-348v-369h-135z" />
    <glyph glyph-name="brokenbar" unicode="&#xa6;" horiz-adv-x="454" 
d="M178 358h98v-716h-98v716zM178 1382h98v-716h-98v716z" />
    <glyph glyph-name="section" unicode="&#xa7;" 
d="M522 -172q100 0 174 53t74 137t-62 141q-62 56 -152 95t-181 84q-90 45 -153 122q-62 77 -62 181q0 172 217 264q-168 102 -168 256t114 240t246 86q277 0 349 -193l-119 -69q-59 139 -215 139q-98 0 -169 -52t-71 -136t60 -137q60 -54 148 -93t174 -83q87 -44 147 -119
t61 -175q0 -170 -182 -270q154 -90 154 -250t-114 -252q-112 -92 -258 -92q-146 -1 -250 61q-106 62 -153 185l125 61q70 -184 266 -184zM799 555q0 121 -152 201l-153 84q-199 -66 -199 -195q-1 -71 33 -107t106 -73l209 -107q61 33 109 85q47 52 47 112z" />
    <glyph glyph-name="dieresis" unicode="&#xa8;" horiz-adv-x="491" 
d="M342 1335q0 41 29 70t69 29t70 -29q29 -29 29 -70t-29 -69t-70 -29q-42 1 -70 29t-28 69zM-47 1335q0 41 29 70q30 29 70 29t69 -29t29 -70t-29 -69t-70 -29q-41 1 -69 29t-29 69z" />
    <glyph glyph-name="copyright" unicode="&#xa9;" horiz-adv-x="1638" 
d="M168 725q0 -271 190 -461t460 -190t462 190q190 190 190 460t-190 462q-190 190 -460 190t-462 -190q-190 -191 -190 -461zM57 725q-1 315 223 539t539 223q315 0 539 -223q224 -222 223 -538q0 -316 -223 -540q-222 -224 -538 -223q-316 -1 -540 223t-223 539zM510 725
q0 -158 89 -264t241 -107q106 0 178 62t88 151h111q-17 -147 -123 -229t-256 -82q-205 0 -322 131t-117 338t117 338t322 131q150 0 256 -82t123 -229h-111q-20 88 -90 149t-176 64q-152 0 -241 -106t-89 -265z" />
    <glyph glyph-name="ordfeminine" unicode="&#xaa;" horiz-adv-x="690" 
d="M512 1147h-78q-266 0 -266 -109q0 -36 45 -60t102 -24q97 0 147 56t50 123v14zM381 1233h131v18q-4 70 -40 104t-135 34t-187 -72l-54 78q98 80 246 80q148 1 208 -51t60 -173v-164q0 -141 11 -206h-101q-4 12 -8 94h-4q-66 -106 -213 -107q-96 0 -161 41t-64 125
q0 199 311 199z" />
    <glyph glyph-name="guillemotleft" unicode="&#xab;" horiz-adv-x="985" 
d="M750 70l-281 415l281 416l86 -59l-238 -357l242 -360zM410 70l-281 415l281 416l86 -59l-238 -357l242 -360z" />
    <glyph glyph-name="logicalnot" unicode="&#xac;" horiz-adv-x="1363" 
d="M1106 274v445h-946v98h1044v-543h-98z" />
    <glyph glyph-name="uni00AD" unicode="&#xad;" horiz-adv-x="681" 
d="M88 430v111h506v-111h-506z" />
    <glyph glyph-name="registered" unicode="&#xae;" horiz-adv-x="1638" 
d="M168 725q0 -271 190 -461t460 -190t462 190q190 190 190 460t-190 462q-190 190 -460 190t-462 -190q-190 -191 -190 -461zM57 725q-1 315 223 539t539 223q315 0 539 -223q224 -222 223 -538q0 -316 -223 -540q-222 -224 -538 -223q-316 -1 -540 223t-223 539zM653 1069
v-297h142q190 0 231 68q20 34 20 98t-56 98q-58 34 -140 33h-197zM653 674v-385h-110v878h338q145 0 211 -61t65 -182q0 -211 -221 -250l262 -385h-125l-262 385h-158z" />
    <glyph glyph-name="macron" unicode="&#xaf;" horiz-adv-x="491" 
d="M516 1339v-98h-541v98h541z" />
    <glyph glyph-name="degree" unicode="&#xb0;" horiz-adv-x="819" 
d="M410 983q82 0 139 57q57 58 57 140t-57 139t-139 57t-140 -57t-57 -139q0 -82 57 -140q58 -57 140 -57zM410 885q-123 0 -209 86t-86 210t86 209t209 85q122 0 208 -85t86 -209t-85 -210q-86 -86 -209 -86z" />
    <glyph glyph-name="plusminus" unicode="&#xb1;" horiz-adv-x="1363" 
d="M168 98v99h1028v-99h-1028zM160 670v98h467v375h98v-375h479v-98h-479v-375h-98v375h-467z" />
    <glyph glyph-name="twosuperior" unicode="&#xb2;" horiz-adv-x="692" 
d="M47 592v88l352 344q47 47 70 72q63 68 63 138t-46 106t-126 36q-135 0 -176 -121l-104 9q24 110 108 160t191 50t185 -60t79 -163q0 -61 -31 -123q-30 -62 -62 -95q-32 -34 -95 -95l-260 -248h450v-98h-598z" />
    <glyph glyph-name="threesuperior" unicode="&#xb3;" horiz-adv-x="692" 
d="M260 999v99h47q76 0 135 38q60 38 60 103t-43 101t-115 36q-119 0 -180 -102l-80 51q94 150 260 150q115 1 192 -61t76 -161q0 -70 -47 -124t-121 -78v-4q88 -11 140 -73t53 -161q0 -99 -84 -167t-213 -66q-215 0 -285 182l97 37q47 -121 188 -121q70 0 128 47t58 109
q0 166 -231 165h-35z" />
    <glyph glyph-name="acute" unicode="&#xb4;" horiz-adv-x="491" 
d="M127 1155l213 295h164l-275 -295h-102z" />
    <glyph glyph-name="mu" unicode="&#xb5;" horiz-adv-x="1138" 
d="M274 -467h-120v1413h122v-557q0 -303 238 -303q143 0 236 100q92 100 92 287v473h123v-680l10 -266h-123q-4 150 -8 166h-6q-39 -82 -126 -136q-86 -54 -218 -54t-220 77v-520z" />
    <glyph glyph-name="paragraph" unicode="&#xb6;" horiz-adv-x="1228" 
d="M547 -258v920q-178 0 -301 114t-123 290t120 280t337 104h464v-1708h-122v1610h-252v-1610h-123z" />
    <glyph glyph-name="periodcentered" unicode="&#xb7;" horiz-adv-x="532" 
d="M168 651q0 41 29 70t69 29t70 -29q29 -29 29 -70t-29 -69t-70 -29q-42 1 -70 29t-28 69z" />
    <glyph glyph-name="cedilla" unicode="&#xb8;" horiz-adv-x="491" 
d="M340 -121q54 0 102 -39q48 -38 50 -116q0 -78 -70 -122t-166 -44t-188 43l28 65q68 -35 136 -35t108 23q41 24 41 66t-35 64q-68 43 -170 5l-33 31l129 180h78l-96 -131l4 -4q28 14 82 14z" />
    <glyph glyph-name="onesuperior" unicode="&#xb9;" horiz-adv-x="692" 
d="M362 592v760l-174 -135l-51 69l225 176h111v-870h-111z" />
    <glyph glyph-name="ordmasculine" unicode="&#xba;" horiz-adv-x="790" 
d="M168 1171q0 -89 63 -153t161 -64t165 64q66 64 66 155q1 91 -63 153t-164 62t-164 -64q-64 -65 -64 -153zM70 1171q0 135 89 219t233 85q144 0 236 -83q92 -82 93 -218q0 -136 -93 -221q-92 -85 -236 -85t-233 84t-89 219z" />
    <glyph glyph-name="guillemotright" unicode="&#xbb;" horiz-adv-x="985" 
d="M575 901l281 -416l-281 -415l-86 59l238 356l-242 361zM236 901l280 -416l-280 -415l-86 59l237 356l-242 361z" />
    <glyph glyph-name="onequarter" unicode="&#xbc;" horiz-adv-x="1593" 
d="M236 -12l933 1532l95 -58l-936 -1532zM299 592v760l-174 -135l-51 69l225 176h111v-870h-111zM1278 307v414h-4l-275 -414h279zM1278 0v209h-389v92l379 567h121v-561h131v-98h-131v-209h-111z" />
    <glyph glyph-name="onehalf" unicode="&#xbd;" horiz-adv-x="1593" 
d="M938 0v88l352 344q47 47 70 72q63 68 63 138t-46 106t-126 36q-135 0 -176 -120l-104 8q25 110 109 160t190 50t185 -60t79 -163q0 -61 -31 -122t-63 -95t-94 -96l-261 -248h451v-98h-598zM217 -12l934 1532l94 -58l-936 -1532zM283 592v760l-174 -135l-52 69l226 176
h110v-870h-110z" />
    <glyph glyph-name="threequarters" unicode="&#xbe;" horiz-adv-x="1593" 
d="M340 -12l934 1532l94 -58l-936 -1532zM248 999v99h47q195 14 194 153q0 53 -43 89t-114 36q-119 0 -180 -102l-80 51q94 150 260 150q116 1 192 -61t76 -146t-47 -139q-47 -54 -121 -78v-4q88 -11 140 -73t52 -161t-83 -167q-84 -68 -213 -66q-215 0 -287 182l98 37
q47 -121 189 -121q70 0 128 47t58 109q0 166 -231 165h-35zM1307 307v414h-4l-275 -414h279zM1311 0v209h-389v92l378 567h121v-561h131v-98h-131v-209h-110z" />
    <glyph glyph-name="questiondown" unicode="&#xbf;" horiz-adv-x="948" 
d="M565 909q-1 -41 -29 -69t-69 -29q-41 0 -70 29q-29 30 -29 70t29 69t70 29t69 -29t29 -70zM530 614v-172q0 -136 -112 -243l-94 -90q-113 -108 -113 -231q1 -122 65 -190t172 -69q108 0 178 65q71 65 93 173l133 -17q-26 -154 -136 -242t-270 -90q-160 0 -264 94
q-106 94 -106 265q0 170 117 280q49 47 98 91q117 104 117 245v131h122z" />
    <glyph glyph-name="Agrave" unicode="&#xc0;" horiz-adv-x="1402" 
d="M608 1835l213 -295h-102l-275 295h164zM1034 508l-327 795l-338 -795h665zM10 0l633 1450h139l611 -1450h-152l-158 385h-768l-163 -385h-142z" />
    <glyph glyph-name="Aacute" unicode="&#xc1;" horiz-adv-x="1402" 
d="M584 1540l213 295h164l-275 -295h-102zM1034 508l-327 795l-338 -795h665zM10 0l633 1450h139l611 -1450h-152l-158 385h-768l-163 -385h-142z" />
    <glyph glyph-name="Acircumflex" unicode="&#xc2;" horiz-adv-x="1402" 
d="M410 1540l221 295h143l221 -295h-133l-166 221l-166 -221h-120zM1034 508l-327 795l-338 -795h665zM10 0l633 1450h139l611 -1450h-152l-158 385h-768l-163 -385h-142z" />
    <glyph glyph-name="Atilde" unicode="&#xc3;" horiz-adv-x="1402" 
d="M556 1784q66 0 162 -49t132 -49q78 0 98 98h74q-10 -86 -53 -148t-119 -61q-48 0 -154 49t-135 49q-79 0 -104 -98h-74q10 82 55 139q52 70 118 70zM1034 508l-327 795l-338 -795h665zM10 0l633 1450h139l611 -1450h-152l-158 385h-768l-163 -385h-142z" />
    <glyph glyph-name="Adieresis" unicode="&#xc4;" horiz-adv-x="1402" 
d="M799 1720q0 41 28 70q29 29 70 29t70 -29t29 -70q0 -42 -30 -70q-28 -28 -69 -28t-69 28t-29 70zM410 1720q0 41 28 70q29 29 70 29t70 -29q28 -29 28 -70q0 -42 -28 -70t-70 -28t-70 28t-28 70zM1034 508l-327 795l-338 -795h665zM10 0l633 1450h139l611 -1450h-152
l-158 385h-768l-163 -385h-142z" />
    <glyph glyph-name="Aring" unicode="&#xc5;" horiz-adv-x="1402" 
d="M819 1714q0 51 -33 86t-83 35q-49 0 -83 -36t-34 -87t34 -85t84 -34t82 35q33 35 33 86zM512 1714q0 80 56 137t136 57t134 -58q55 -60 55 -137t-55 -135t-134 -58t-136 57q-56 57 -56 137zM1034 508l-327 795l-338 -795h665zM10 0l633 1450h139l611 -1450h-152l-158 385
h-768l-163 -385h-142z" />
    <glyph glyph-name="AE" unicode="&#xc6;" horiz-adv-x="1896" 
d="M1024 508v819h-25l-534 -819h559zM1759 1450v-123h-600v-516h565v-123h-565v-565h617v-123h-752v385h-639l-252 -385h-143l944 1450h825z" />
    <glyph glyph-name="Ccedilla" unicode="&#xc7;" horiz-adv-x="1441" 
d="M854 -37q-37 0 -55 2l-70 -96l4 -4q27 14 81 14t104 -39q49 -38 49 -116t-70 -122t-166 -44t-188 43l28 65q67 -35 135 -35t109 23q41 24 41 66t-35 64q-68 43 -170 5l-33 31l111 153q-281 39 -453 246t-172 523t210 531q210 214 536 214t504 -227l-111 -93
q-66 97 -170 147t-219 50q-278 0 -446 -181t-168 -457t168 -458t446 -182q120 0 238 57t190 168l111 -84q-193 -264 -539 -264z" />
    <glyph glyph-name="Egrave" unicode="&#xc8;" horiz-adv-x="1214" 
d="M514 1835l213 -295h-102l-275 295h164zM199 0v1450h886v-123h-751v-516h704v-123h-704v-565h784v-123h-919z" />
    <glyph glyph-name="Eacute" unicode="&#xc9;" horiz-adv-x="1214" 
d="M489 1540l213 295h164l-274 -295h-103zM199 0v1450h886v-123h-751v-516h704v-123h-704v-565h784v-123h-919z" />
    <glyph glyph-name="Ecircumflex" unicode="&#xca;" horiz-adv-x="1214" 
d="M315 1540l222 295h143l221 -295h-133l-166 221l-166 -221h-121zM199 0v1450h886v-123h-751v-516h704v-123h-704v-565h784v-123h-919z" />
    <glyph glyph-name="Edieresis" unicode="&#xcb;" horiz-adv-x="1214" 
d="M705 1720q0 41 28 70q29 29 70 29t69 -29t29 -70q0 -42 -29 -70q-30 -28 -70 -28t-68 28t-29 70zM315 1720q0 41 29 70t70 29q42 0 70 -29t28 -70q0 -42 -29 -70t-69 -28t-70 28q-29 28 -29 70zM199 0v1450h886v-123h-751v-516h704v-123h-704v-565h784v-123h-919z" />
    <glyph glyph-name="Igrave" unicode="&#xcc;" horiz-adv-x="532" 
d="M172 1835l213 -295h-102l-275 295h164zM199 0v1450h135v-1450h-135z" />
    <glyph glyph-name="Iacute" unicode="&#xcd;" horiz-adv-x="532" 
d="M147 1540l213 295h164l-274 -295h-103zM199 0v1450h135v-1450h-135z" />
    <glyph glyph-name="Icircumflex" unicode="&#xce;" horiz-adv-x="532" 
d="M-27 1540l222 295h143l221 -295h-133l-166 221l-166 -221h-121zM199 0v1450h135v-1450h-135z" />
    <glyph glyph-name="Idieresis" unicode="&#xcf;" horiz-adv-x="532" 
d="M362 1720q0 41 29 70t70 29t69 -29t29 -70q0 -42 -29 -70q-30 -28 -70 -28t-69 28t-29 70zM-27 1720q0 41 29 70t70 29q42 0 70 -29t28 -70q0 -42 -29 -70t-69 -28t-70 28q-29 28 -29 70zM199 0v1450h135v-1450h-135z" />
    <glyph glyph-name="Eth" unicode="&#xd0;" horiz-adv-x="1517" 
d="M180 0v700h-160v111h160v639h449q153 0 279 -36t206 -89t139 -128q99 -126 130 -255q30 -129 30 -191q0 -298 -160 -498q-59 -75 -139 -128t-206 -89t-279 -36h-449zM315 1327v-516h529v-111h-529v-577h279q305 0 495 151q189 152 189 451t-189 451t-495 151h-279z" />
    <glyph glyph-name="Ntilde" unicode="&#xd1;" horiz-adv-x="1593" 
d="M651 1784q66 0 162 -49t131 -49q78 0 98 98h74q-10 -86 -53 -148t-119 -61q-47 0 -153 49t-136 49q-79 0 -104 -98h-74q10 81 59 145t115 64zM199 0v1450h174l882 -1270h5v1270h135v-1450h-174l-883 1270h-4v-1270h-135z" />
    <glyph glyph-name="Ograve" unicode="&#xd2;" horiz-adv-x="1708" 
d="M760 1835l213 -295h-103l-274 295h164zM240 725q0 -275 168 -457t446 -182t446 181t168 457t-168 458t-446 182t-446 -182t-168 -457zM104 725q0 334 210 548t540 214t540 -214t210 -548t-210 -548t-540 -214t-540 214t-210 548z" />
    <glyph glyph-name="Oacute" unicode="&#xd3;" horiz-adv-x="1708" 
d="M735 1540l213 295h164l-274 -295h-103zM240 725q0 -275 168 -457t446 -182t446 181t168 457t-168 458t-446 182t-446 -182t-168 -457zM104 725q0 334 210 548t540 214t540 -214t210 -548t-210 -548t-540 -214t-540 214t-210 548z" />
    <glyph glyph-name="Ocircumflex" unicode="&#xd4;" horiz-adv-x="1708" 
d="M561 1540l221 295h144l221 -295h-133l-166 221l-166 -221h-121zM240 725q0 -275 168 -457t446 -182t446 181t168 457t-168 458t-446 182t-446 -182t-168 -457zM104 725q0 334 210 548t540 214t540 -214t210 -548t-210 -548t-540 -214t-540 214t-210 548z" />
    <glyph glyph-name="Otilde" unicode="&#xd5;" horiz-adv-x="1708" 
d="M708 1784q66 0 162 -49t131 -49q78 0 99 98h74q-10 -86 -54 -148t-119 -61q-47 0 -153 49t-135 49q-80 0 -105 -98h-73q10 81 59 145q48 64 114 64zM240 725q0 -275 168 -457t446 -182t446 181t168 457t-168 458t-446 182t-446 -182t-168 -457zM104 725q0 334 210 548
t540 214t540 -214t210 -548t-210 -548t-540 -214t-540 214t-210 548z" />
    <glyph glyph-name="Odieresis" unicode="&#xd6;" horiz-adv-x="1708" 
d="M950 1720q0 41 29 70t70 29t69 -29t29 -70q0 -42 -29 -70q-30 -28 -70 -28t-69 28t-29 70zM561 1720q0 41 29 70q30 29 70 29t69 -29t29 -70q0 -42 -29 -70t-70 -28t-69 28t-29 70zM240 725q0 -275 168 -457t446 -182t446 181t168 457t-168 458t-446 182t-446 -182
t-168 -457zM104 725q0 334 210 548t540 214t540 -214t210 -548t-210 -548t-540 -214t-540 214t-210 548z" />
    <glyph glyph-name="multiply" unicode="&#xd7;" horiz-adv-x="1363" 
d="M279 1096l405 -406l408 406l67 -70l-407 -405l405 -406l-70 -70l-403 408l-408 -408l-71 70l409 406l-405 405z" />
    <glyph glyph-name="Oslash" unicode="&#xd8;" horiz-adv-x="1708" 
d="M854 86q278 0 446 181t168 453t-153 445l-864 -938q160 -141 403 -141zM854 1364q-278 0 -446 -181t-168 -449t145 -439l862 936q-162 133 -393 133zM854 1487q281 0 481 -162l152 166l69 -64l-153 -165q201 -211 201 -541t-210 -544t-540 -214q-291 0 -489 170
l-154 -166l-72 64l156 168q-191 209 -191 535t210 539q210 214 540 214z" />
    <glyph glyph-name="Ugrave" unicode="&#xd9;" horiz-adv-x="1400" 
d="M606 1835l213 -295h-102l-275 295h164zM1229 1450v-895q0 -243 -115 -411q-58 -85 -164 -133t-250 -48q-400 0 -500 369q-28 102 -28 223v895h135v-860q0 -253 109 -386q40 -50 114 -84t170 -34t170 34t115 84q105 128 109 386v860h135z" />
    <glyph glyph-name="Uacute" unicode="&#xda;" horiz-adv-x="1400" 
d="M582 1540l213 295h163l-274 -295h-102zM1229 1450v-895q0 -243 -115 -411q-58 -85 -164 -133t-250 -48q-400 0 -500 369q-28 102 -28 223v895h135v-860q0 -253 109 -386q40 -50 114 -84t170 -34t170 34t115 84q105 128 109 386v860h135z" />
    <glyph glyph-name="Ucircumflex" unicode="&#xdb;" horiz-adv-x="1400" 
d="M408 1540l221 295h143l221 -295h-133l-166 221l-166 -221h-120zM1229 1450v-895q0 -243 -115 -411q-58 -85 -164 -133t-250 -48q-400 0 -500 369q-28 102 -28 223v895h135v-860q0 -253 109 -386q40 -50 114 -84t170 -34t170 34t115 84q105 128 109 386v860h135z" />
    <glyph glyph-name="Udieresis" unicode="&#xdc;" horiz-adv-x="1400" 
d="M797 1720q0 41 28 70q29 29 70 29t70 -29t29 -70q0 -42 -30 -70q-28 -28 -69 -28t-69 28t-29 70zM408 1720q0 41 28 70q29 29 70 29q42 0 70 -29t28 -70q0 -42 -29 -70t-69 -28t-70 28q-28 28 -28 70zM1229 1450v-895q0 -243 -115 -411q-58 -85 -164 -133t-250 -48
q-400 0 -500 369q-28 102 -28 223v895h135v-860q0 -253 109 -386q40 -50 114 -84t170 -34t170 34t115 84q105 128 109 386v860h135z" />
    <glyph glyph-name="Yacute" unicode="&#xdd;" horiz-adv-x="1175" 
d="M469 1540l213 295h164l-275 -295h-102zM520 0v625l-532 825h162l438 -688l448 688h152l-533 -825v-625h-135z" />
    <glyph glyph-name="Thorn" unicode="&#xde;" horiz-adv-x="1175" 
d="M334 1008v-516h307q131 0 219 61t88 193t-92 198q-92 64 -223 64h-299zM199 0v1450h133v-320h284q173 0 310 -76q72 -40 114 -119t43 -187q0 -186 -126 -282t-310 -97h-313v-369h-135z" />
    <glyph glyph-name="germandbls" unicode="&#xdf;" horiz-adv-x="1214" 
d="M545 827v111h30q123 0 200 72t77 194t-74 191q-74 68 -192 67q-158 0 -229 -108t-70 -279v-1075h-123v1094q0 215 114 347t318 132q166 0 272 -97t107 -270q0 -118 -55 -202t-148 -113v-4q326 -61 326 -434q0 -217 -140 -341t-366 -124q-55 0 -96 10v119q45 -18 108 -19
q166 0 268 96t102 268q0 171 -111 268q-112 97 -275 97h-43z" />
    <glyph glyph-name="agrave" unicode="&#xe0;" horiz-adv-x="1062" 
d="M438 1450l213 -295h-102l-275 295h164zM788 475h-135q-174 0 -292 -50t-117 -163q0 -82 66 -129t149 -47q180 0 255 93t74 233v63zM899 629v-232q0 -258 19 -397h-115q-12 70 -12 154h-5q-102 -178 -331 -179q-137 0 -236 71q-98 71 -98 210q0 317 524 317h143v58
q0 117 -72 173q-73 56 -194 56q-164 0 -289 -106l-71 84q66 61 165 97t195 36q178 0 278 -84t99 -258z" />
    <glyph glyph-name="aacute" unicode="&#xe1;" horiz-adv-x="1062" 
d="M414 1155l213 295h164l-275 -295h-102zM788 475h-135q-174 0 -292 -50t-117 -163q0 -82 66 -129t149 -47q180 0 255 93t74 233v63zM899 629v-232q0 -258 19 -397h-115q-12 70 -12 154h-5q-102 -178 -331 -179q-137 0 -236 71q-98 71 -98 210q0 317 524 317h143v58
q0 117 -72 173q-73 56 -194 56q-164 0 -289 -106l-71 84q66 61 165 97t195 36q178 0 278 -84t99 -258z" />
    <glyph glyph-name="acircumflex" unicode="&#xe2;" horiz-adv-x="1062" 
d="M240 1155l221 295h143l221 -295h-133l-166 221l-166 -221h-120zM788 475h-135q-174 0 -292 -50t-117 -163q0 -82 66 -129t149 -47q180 0 255 93t74 233v63zM899 629v-232q0 -258 19 -397h-115q-12 70 -12 154h-5q-102 -178 -331 -179q-137 0 -236 71q-98 71 -98 210
q0 317 524 317h143v58q0 117 -72 173q-73 56 -194 56q-164 0 -289 -106l-71 84q66 61 165 97t195 36q178 0 278 -84t99 -258z" />
    <glyph glyph-name="atilde" unicode="&#xe3;" horiz-adv-x="1062" 
d="M386 1399q66 0 162 -49t132 -50q78 0 98 99h74q-10 -85 -53 -147t-119 -62q-48 0 -154 49t-135 49q-79 0 -104 -98h-74q10 82 55 139q52 70 118 70zM788 475h-135q-174 0 -292 -50t-117 -163q0 -82 66 -129t149 -47q180 0 255 93t74 233v63zM899 629v-232q0 -258 19 -397
h-115q-12 70 -12 154h-5q-102 -178 -331 -179q-137 0 -236 71q-98 71 -98 210q0 317 524 317h143v58q0 117 -72 173q-73 56 -194 56q-164 0 -289 -106l-71 84q66 61 165 97t195 36q178 0 278 -84t99 -258z" />
    <glyph glyph-name="adieresis" unicode="&#xe4;" horiz-adv-x="1062" 
d="M629 1335q0 41 28 70q29 29 70 29t70 -29t29 -70t-30 -69q-28 -28 -69 -29q-41 1 -69 29t-29 69zM240 1335q0 41 28 70q29 29 70 29t70 -29q28 -29 28 -70t-28 -69t-70 -29q-42 1 -70 29t-28 69zM788 475h-135q-174 0 -292 -50t-117 -163q0 -82 66 -129t149 -47
q180 0 255 93t74 233v63zM899 629v-232q0 -258 19 -397h-115q-12 70 -12 154h-5q-102 -178 -331 -179q-137 0 -236 71q-98 71 -98 210q0 317 524 317h143v58q0 117 -72 173q-73 56 -194 56q-164 0 -289 -106l-71 84q66 61 165 97t195 36q178 0 278 -84t99 -258z" />
    <glyph glyph-name="aring" unicode="&#xe5;" horiz-adv-x="1062" 
d="M649 1329q0 51 -33 86t-83 35q-49 0 -83 -36t-34 -87t34 -85t84 -34t82 35q33 35 33 86zM342 1329q0 80 56 137q56 58 136 58t134 -60q55 -60 55 -136q0 -77 -55 -135t-134 -58t-136 57q-56 57 -56 137zM788 475h-135q-174 0 -292 -50t-117 -163q0 -82 66 -129t149 -47
q180 0 255 93t74 233v63zM899 629v-232q0 -258 19 -397h-115q-12 70 -12 154h-5q-102 -178 -331 -179q-137 0 -236 71q-98 71 -98 210q0 317 524 317h143v58q0 117 -72 173q-73 56 -194 56q-164 0 -289 -106l-71 84q66 61 165 97t195 36q178 0 278 -84t99 -258z" />
    <glyph glyph-name="ae" unicode="&#xe6;" horiz-adv-x="1744" 
d="M926 553h606q-2 137 -77 222t-218 85t-227 -89t-84 -218zM803 442h-240q-207 0 -274 -69q-54 -54 -56 -111q0 -82 66 -129t150 -47q180 0 267 99t87 257zM152 838q144 133 389 133t340 -197q51 92 147 144t199 53q186 0 307 -114t121 -343v-72h-729q-6 -152 81 -254
t255 -102t264 152l96 -70q-80 -104 -169 -148t-220 -45q-276 0 -373 234q-111 -233 -416 -234q-137 0 -235 71t-98 210q0 107 82 193q45 47 141 75t233 29h236v18q0 289 -291 289q-164 0 -289 -106z" />
    <glyph glyph-name="ccedilla" unicode="&#xe7;" horiz-adv-x="985" 
d="M608 -25q-18 0 -28 2l-78 -108l4 -4q27 14 81 14t103 -39q49 -38 49 -116q1 -78 -69 -122t-166 -44t-189 43l29 65q68 -35 136 -35t108 23q41 24 41 66t-35 64q-68 43 -170 5l-33 31l117 166q-178 28 -288 162t-110 338t141 344q140 140 352 140t358 -163l-99 -74
q-117 127 -254 127q-170 0 -272 -112t-102 -275t102 -275t261 -112t265 131l94 -78q-137 -164 -348 -164z" />
    <glyph glyph-name="egrave" unicode="&#xe8;" horiz-adv-x="1138" 
d="M475 1450l213 -295h-102l-275 295h164zM233 553h672q0 127 -96 217t-231 90q-92 0 -165 -40t-109 -96q-71 -110 -71 -171zM590 -25q-215 -1 -347 139t-132 357t133 358t340 141q208 0 326 -131q118 -132 118 -311v-86h-795q-1 -81 35 -150t73 -110q89 -96 257 -96
q88 0 177 46t134 122l90 -76q-135 -203 -409 -203z" />
    <glyph glyph-name="eacute" unicode="&#xe9;" horiz-adv-x="1138" 
d="M451 1155l213 295h163l-274 -295h-102zM233 553h672q0 127 -96 217t-231 90q-92 0 -165 -40t-109 -96q-71 -110 -71 -171zM590 -25q-215 -1 -347 139t-132 357t133 358t340 141q208 0 326 -131q118 -132 118 -311v-86h-795q-1 -81 35 -150t73 -110q89 -96 257 -96
q88 0 177 46t134 122l90 -76q-135 -203 -409 -203z" />
    <glyph glyph-name="ecircumflex" unicode="&#xea;" horiz-adv-x="1138" 
d="M276 1155l222 295h143l221 -295h-133l-166 221l-166 -221h-121zM233 553h672q0 127 -96 217t-231 90q-92 0 -165 -40t-109 -96q-71 -110 -71 -171zM590 -25q-215 -1 -347 139t-132 357t133 358t340 141q208 0 326 -131q118 -132 118 -311v-86h-795q-1 -81 35 -150
t73 -110q89 -96 257 -96q88 0 177 46t134 122l90 -76q-135 -203 -409 -203z" />
    <glyph glyph-name="edieresis" unicode="&#xeb;" horiz-adv-x="1138" 
d="M666 1335q0 41 28 70q29 29 70 29t70 -29q28 -29 28 -70t-28 -69t-70 -29q-42 1 -70 29t-28 69zM276 1335q0 41 29 70t70 29t69 -29t29 -70q0 -41 -29 -69q-30 -28 -70 -29q-40 1 -69 29t-29 69zM233 553h672q0 127 -96 217t-231 90q-92 0 -165 -40t-109 -96
q-71 -110 -71 -171zM590 -25q-215 -1 -347 139t-132 357t133 358t340 141q208 0 326 -131q118 -132 118 -311v-86h-795q-1 -81 35 -150t73 -110q89 -96 257 -96q88 0 177 46t134 122l90 -76q-135 -203 -409 -203z" />
    <glyph glyph-name="igrave" unicode="&#xec;" horiz-adv-x="491" 
d="M152 1450l213 -295h-103l-274 295h164zM184 0v946h123v-946h-123z" />
    <glyph glyph-name="iacute" unicode="&#xed;" horiz-adv-x="491" 
d="M127 1155l213 295h164l-275 -295h-102zM184 0v946h123v-946h-123z" />
    <glyph glyph-name="icircumflex" unicode="&#xee;" horiz-adv-x="491" 
d="M-47 1155l221 295h143l222 -295h-133l-166 221l-166 -221h-121zM184 0v946h123v-946h-123z" />
    <glyph glyph-name="idieresis" unicode="&#xef;" horiz-adv-x="491" 
d="M342 1335q0 41 29 70t69 29t70 -29q29 -29 29 -70t-29 -69t-70 -29q-42 1 -70 29t-28 69zM-47 1335q0 41 29 70q30 29 70 29t69 -29t29 -70t-29 -69t-70 -29q-41 1 -69 29t-29 69zM184 0v946h123v-946h-123z" />
    <glyph glyph-name="eth" unicode="&#xf0;" horiz-adv-x="1216" 
d="M233 473q1 -163 103 -275t272 -112t273 112q102 112 102 276t-102 275q-103 111 -273 111t-272 -112t-103 -275zM1106 524q0 -252 -138 -400t-358 -148t-359 140q-140 140 -140 357t140 357t357 141q180 0 305 -113l5 4q-145 258 -330 424l-219 -117l-64 68l213 115
q-115 104 -192 159l106 62q115 -84 195 -164l213 115l73 -62l-217 -116q410 -375 410 -822z" />
    <glyph glyph-name="ntilde" unicode="&#xf1;" horiz-adv-x="1138" 
d="M422 1399q66 0 164 -49q96 -49 131 -50q78 0 98 99h74q-10 -85 -53 -147t-119 -62q-47 0 -153 49t-136 49q-79 0 -104 -98h-74q10 82 55 139q51 70 117 70zM975 0h-123v557q0 303 -238 303q-143 0 -235 -100t-92 -287v-473h-123v680l-10 266h122q4 -150 9 -166h6
q39 82 126 136t197 55q360 0 361 -408v-563z" />
    <glyph glyph-name="ograve" unicode="&#xf2;" horiz-adv-x="1216" 
d="M514 1450l213 -295h-102l-275 295h164zM233 473q1 -163 103 -275t272 -112t273 112q102 112 102 276t-102 275q-103 111 -273 111t-272 -112t-103 -275zM111 473q0 217 140 357t357 140q218 0 358 -140t140 -357t-140 -357t-358 -140t-357 140q-140 140 -140 357z" />
    <glyph glyph-name="oacute" unicode="&#xf3;" horiz-adv-x="1216" 
d="M489 1155l213 295h164l-274 -295h-103zM233 473q1 -163 103 -275t272 -112t273 112q102 112 102 276t-102 275q-103 111 -273 111t-272 -112t-103 -275zM111 473q0 217 140 357t357 140q218 0 358 -140t140 -357t-140 -357t-358 -140t-357 140q-140 140 -140 357z" />
    <glyph glyph-name="ocircumflex" unicode="&#xf4;" horiz-adv-x="1216" 
d="M315 1155l222 295h143l221 -295h-133l-166 221l-166 -221h-121zM233 473q1 -163 103 -275t272 -112t273 112q102 112 102 276t-102 275q-103 111 -273 111t-272 -112t-103 -275zM111 473q0 217 140 357t357 140q218 0 358 -140t140 -357t-140 -357t-358 -140t-357 140
q-140 140 -140 357z" />
    <glyph glyph-name="otilde" unicode="&#xf5;" horiz-adv-x="1216" 
d="M462 1399q66 0 162 -49t132 -50q78 0 98 99h74q-10 -85 -54 -147t-118 -62q-48 0 -154 49t-135 49q-80 0 -105 -98h-73q10 82 59 146q48 64 114 63zM233 473q1 -163 103 -275t272 -112t273 112q102 112 102 276t-102 275q-103 111 -273 111t-272 -112t-103 -275zM111 473
q0 217 140 357t357 140q218 0 358 -140t140 -357t-140 -357t-358 -140t-357 140q-140 140 -140 357z" />
    <glyph glyph-name="odieresis" unicode="&#xf6;" horiz-adv-x="1216" 
d="M705 1335q0 41 28 70q29 29 70 29t69 -29t29 -70q0 -41 -29 -69q-30 -28 -70 -29q-40 1 -68 29t-29 69zM315 1335q0 41 29 70t70 29q42 0 70 -29t28 -70t-29 -69t-69 -29q-40 1 -70 29q-29 28 -29 69zM233 473q1 -163 103 -275t272 -112t273 112q102 112 102 276
t-102 275q-103 111 -273 111t-272 -112t-103 -275zM111 473q0 217 140 357t357 140q218 0 358 -140t140 -357t-140 -357t-358 -140t-357 140q-140 140 -140 357z" />
    <glyph glyph-name="divide" unicode="&#xf7;" horiz-adv-x="1363" 
d="M578 305q0 43 30 73q31 30 74 31t74 -30q30 -31 30 -74t-30 -74t-74 -31q-43 0 -74 31q-30 31 -30 74zM578 936q0 43 30 74q31 30 74 30t74 -30q30 -30 30 -74q0 -43 -30 -74t-74 -31q-43 0 -74 31q-30 31 -30 74zM160 571v99h1044v-99h-1044z" />
    <glyph glyph-name="oslash" unicode="&#xf8;" horiz-adv-x="1216" 
d="M620 86q158 0 261 112q102 112 102 268t-76 249l-538 -545q93 -84 251 -84zM593 860q-155 0 -257 -112t-102 -264t73 -248l539 542q-98 82 -253 82zM1106 463q0 -207 -140 -347t-346 -140t-335 110l-140 -141l-65 59l143 146q-113 132 -113 336t141 344q139 140 341 140
t338 -108l141 144l66 -60l-146 -145q115 -131 115 -338z" />
    <glyph glyph-name="ugrave" unicode="&#xf9;" horiz-adv-x="1138" 
d="M475 1450l213 -295h-102l-275 295h164zM154 383v563h122v-557q0 -303 238 -303q143 0 236 100q92 100 92 287v473h123v-680l10 -266h-123q-4 150 -8 166h-6q-39 -82 -126 -136t-198 -55q-360 0 -360 408z" />
    <glyph glyph-name="uacute" unicode="&#xfa;" horiz-adv-x="1138" 
d="M451 1155l213 295h163l-274 -295h-102zM154 383v563h122v-557q0 -303 238 -303q143 0 236 100q92 100 92 287v473h123v-680l10 -266h-123q-4 150 -8 166h-6q-39 -82 -126 -136t-198 -55q-360 0 -360 408z" />
    <glyph glyph-name="ucircumflex" unicode="&#xfb;" horiz-adv-x="1138" 
d="M276 1155l222 295h143l221 -295h-133l-166 221l-166 -221h-121zM154 383v563h122v-557q0 -303 238 -303q143 0 236 100q92 100 92 287v473h123v-680l10 -266h-123q-4 150 -8 166h-6q-39 -82 -126 -136t-198 -55q-360 0 -360 408z" />
    <glyph glyph-name="udieresis" unicode="&#xfc;" horiz-adv-x="1138" 
d="M666 1335q0 41 28 70q29 29 70 29t70 -29q28 -29 28 -70t-28 -69t-70 -29q-42 1 -70 29t-28 69zM276 1335q0 41 29 70t70 29t69 -29t29 -70q0 -41 -29 -69q-30 -28 -70 -29q-40 1 -69 29t-29 69zM154 383v563h122v-557q0 -303 238 -303q143 0 236 100q92 100 92 287v473
h123v-680l10 -266h-123q-4 150 -8 166h-6q-39 -82 -126 -136t-198 -55q-360 0 -360 408z" />
    <glyph glyph-name="yacute" unicode="&#xfd;" horiz-adv-x="948" 
d="M356 1155l213 295h164l-274 -295h-103zM170 -492q-51 0 -121 19l12 115q76 -23 123 -23t82 43t64 115l86 219l-385 950h137l313 -796l305 796h132l-488 -1239q-78 -199 -260 -199z" />
    <glyph glyph-name="thorn" unicode="&#xfe;" horiz-adv-x="1251" 
d="M248 473q0 -159 114 -273t283 -114q168 0 270 112q103 112 103 276t-102 275t-271 111t-283 -114t-114 -273zM137 -467v2015h123v-768h4q52 92 158 142t221 49q217 -1 357 -141t140 -357t-140 -357t-357 -141q-115 -1 -220 49t-159 142h-4v-633h-123z" />
    <glyph glyph-name="ydieresis" unicode="&#xff;" horiz-adv-x="948" 
d="M571 1335q0 41 29 70t70 29q42 0 70 -29t28 -70t-29 -69t-69 -29q-40 1 -70 29q-29 28 -29 69zM182 1335q0 41 29 70t70 29t69 -29t29 -70q0 -41 -29 -69q-30 -28 -70 -29q-40 1 -69 29t-29 69zM170 -492q-51 0 -121 19l12 115q76 -23 123 -23t82 43t64 115l86 219
l-385 950h137l313 -796l305 796h132l-488 -1239q-78 -199 -260 -199z" />
    <glyph glyph-name="dotlessi" unicode="&#x131;" horiz-adv-x="491" 
d="M184 0v946h123v-946h-123z" />
    <glyph glyph-name="Lslash" unicode="&#x141;" horiz-adv-x="1024" 
d="M199 0v473l-148 -131v133l148 129v846h135v-733l442 387v-127l-442 -387v-467h676v-123h-811z" />
    <glyph glyph-name="lslash" unicode="&#x142;" horiz-adv-x="491" 
d="M184 0v664l-172 -175v138l172 174v747h123v-624l172 176v-137l-172 -175v-788h-123z" />
    <glyph glyph-name="OE" unicode="&#x152;" horiz-adv-x="1933" 
d="M1055 123v1204h-160q-189 0 -348 -91q-291 -166 -291 -511q0 -129 43 -235q75 -185 261 -284q153 -83 323 -83h172zM1190 688v-565h622v-123h-966q-301 0 -513 203t-212 522q0 229 115 398q114 169 290 248t385 79h885v-123h-606v-516h571v-123h-571z" />
    <glyph glyph-name="oe" unicode="&#x153;" horiz-adv-x="1857" 
d="M213 473q0 -159 97 -273t255 -114t254 112t96 276t-96 275t-254 111t-255 -114t-97 -273zM1767 442h-729q-6 -152 81 -254t255 -102t264 152l97 -70q-80 -104 -169 -148t-220 -45q-276 0 -373 234h-4q-57 -113 -163 -173t-245 -61q-203 -1 -337 141t-134 357t134 356
t337 142q283 0 408 -236q41 98 134 167t236 69q185 0 307 -114t121 -343v-72zM1038 553h607q-2 137 -77 222q-74 85 -218 85t-228 -89t-84 -218z" />
    <glyph glyph-name="Scaron" unicode="&#x160;" horiz-adv-x="1138" 
d="M854 1835l-217 -295h-143l-224 295h127l170 -233l176 233h111zM569 86q139 0 233 78q93 78 93 207q0 94 -55 155q-54 61 -138 88t-181 62t-180 73q-83 39 -138 125t-56 216q-1 184 135 290t330 107q256 0 396 -182l-117 -84q-102 143 -283 143q-139 0 -232 -72t-93 -202
q0 -167 148 -239q67 -32 211 -75t240 -100q68 -41 108 -118t40 -187q0 -188 -132 -298t-318 -110q-315 0 -471 219l129 86q109 -182 331 -182z" />
    <glyph glyph-name="scaron" unicode="&#x161;" horiz-adv-x="872" 
d="M721 1450l-217 -295h-144l-223 295h127l170 -233l176 233h111zM440 86q86 0 152 48t66 123t-58 113q-57 38 -140 54t-166 38t-140 79q-58 57 -58 171t98 187q98 72 226 72q244 0 334 -178l-111 -66q-74 133 -223 133q-74 0 -137 -41t-63 -111t56 -105q56 -36 140 -51
q84 -16 167 -36t140 -80t57 -168q0 -139 -99 -216t-243 -77q-272 0 -381 193l109 74q37 -74 113 -115q75 -41 161 -41z" />
    <glyph glyph-name="Ydieresis" unicode="&#x178;" horiz-adv-x="1175" 
d="M684 1720q0 41 29 70t69 29t70 -29q29 -29 29 -70q0 -42 -29 -70t-70 -28q-42 0 -70 28t-28 70zM295 1720q0 41 29 70q30 29 70 29t69 -29t29 -70q0 -42 -29 -70t-70 -28t-69 28t-29 70zM520 0v625l-532 825h162l438 -688l448 688h152l-533 -825v-625h-135z" />
    <glyph glyph-name="Zcaron" unicode="&#x17d;" horiz-adv-x="1138" 
d="M854 1835l-217 -295h-143l-224 295h127l170 -233l176 233h111zM47 0v106l848 1221h-836v123h1010v-111l-854 -1216h877v-123h-1045z" />
    <glyph glyph-name="zcaron" unicode="&#x17e;" horiz-adv-x="872" 
d="M721 1450l-217 -295h-144l-223 295h127l170 -233l176 233h111zM55 0v74l568 762h-539v110h709v-74l-566 -761h590v-111h-762z" />
    <glyph glyph-name="florin" unicode="&#x192;" 
d="M809 858v-98h-240l-147 -801q-49 -254 -293 -254q-102 0 -162 49l62 96q43 -34 115 -34t111 55q40 55 60 172l131 717h-221v98h240l59 316q55 301 293 301q100 0 184 -62l-65 -92q-61 43 -119 43q-135 0 -170 -184l-59 -322h221z" />
    <glyph glyph-name="circumflex" unicode="&#x2c6;" horiz-adv-x="491" 
d="M-47 1155l221 295h143l222 -295h-133l-166 221l-166 -221h-121z" />
    <glyph glyph-name="caron" unicode="&#x2c7;" horiz-adv-x="491" 
d="M530 1450l-217 -295h-143l-223 295h127l170 -233l176 233h110z" />
    <glyph glyph-name="uni02C9" unicode="&#x2c9;" horiz-adv-x="491" 
d="M516 1339v-98h-541v98h541z" />
    <glyph glyph-name="breve" unicode="&#x2d8;" horiz-adv-x="491" 
d="M246 1290q88 0 138 36t71 124h86q-13 -122 -95 -190t-204 -68t-204 68q-81 68 -87 190h86q25 -160 209 -160z" />
    <glyph glyph-name="dotaccent" unicode="&#x2d9;" horiz-adv-x="491" 
d="M154 1335q0 41 28 70q29 29 70 29t70 -29q28 -29 28 -70t-28 -69t-70 -29q-42 1 -70 29t-28 69z" />
    <glyph glyph-name="ring" unicode="&#x2da;" horiz-adv-x="491" 
d="M362 1329q0 51 -32 86q-33 35 -83 35t-84 -36t-34 -87t34 -85t84 -34t83 35q32 35 32 86zM55 1329q1 80 57 137q56 58 135 58t134 -60t55 -136q0 -77 -55 -135t-134 -58t-135 57t-57 137z" />
    <glyph glyph-name="ogonek" unicode="&#x2db;" horiz-adv-x="491" 
d="M143 -248q0 -96 88 -96q70 0 113 47l39 -78q-74 -67 -166 -67t-144 45t-53 123q0 133 181 274h92q-55 -43 -103 -111t-47 -137z" />
    <glyph glyph-name="tilde" unicode="&#x2dc;" horiz-adv-x="491" 
d="M100 1399q66 0 162 -49t131 -50q78 0 99 99h73q-10 -85 -53 -147t-119 -62q-47 0 -153 49t-136 49q-79 0 -104 -98h-74q10 82 56 139q52 70 118 70z" />
    <glyph glyph-name="hungarumlaut" unicode="&#x2dd;" horiz-adv-x="491" 
d="M276 1155l213 295h164l-274 -295h-103zM-23 1155l213 295h164l-274 -295h-103z" />
    <glyph glyph-name="uni03A9" unicode="&#x3a9;" horiz-adv-x="1384" 
d="M395 102v7q-117 113 -193 285t-75 380q0 312 163 502q162 190 408 190t401 -198t154 -486q-1 -217 -79 -394t-191 -279v-7h297v-102h-449v76q127 94 215 274q87 180 87 408q0 145 -47 279q-46 135 -149 231t-241 96q-200 0 -324 -174t-124 -412t89 -426t212 -276v-76
h-449v102h295z" />
    <glyph glyph-name="uni03BC" unicode="&#x3bc;" horiz-adv-x="1138" 
d="M274 -467h-120v1413h122v-557q0 -303 238 -303q143 0 236 100q92 100 92 287v473h123v-680l10 -266h-123q-4 150 -8 166h-6q-39 -82 -126 -136q-86 -54 -218 -54t-220 77v-520z" />
    <glyph glyph-name="pi" unicode="&#x3c0;" horiz-adv-x="1085" 
d="M870 967v-670q0 -207 29 -297h-117q-31 57 -30 285v682h-369q-10 -233 -53 -531t-94 -436h-117q55 158 96 446t47 521q-145 0 -217 -27l-22 82q84 51 266 51h751l-12 -106h-158z" />
    <glyph glyph-name="uni2010" unicode="&#x2010;" horiz-adv-x="681" 
d="M88 430v111h506v-111h-506z" />
    <glyph glyph-name="endash" unicode="&#x2013;" horiz-adv-x="1024" 
d="M0 430v111h1024v-111h-1024z" />
    <glyph glyph-name="emdash" unicode="&#x2014;" horiz-adv-x="2048" 
d="M0 430v111h2048v-111h-2048z" />
    <glyph glyph-name="quoteleft" unicode="&#x2018;" horiz-adv-x="532" 
d="M406 1450l-132 -467h-147l156 467h123z" />
    <glyph glyph-name="quoteright" unicode="&#x2019;" horiz-adv-x="532" 
d="M127 983l129 467h150l-158 -467h-121z" />
    <glyph glyph-name="quotesinglbase" unicode="&#x201a;" horiz-adv-x="532" 
d="M127 -283l129 467h150l-158 -467h-121z" />
    <glyph glyph-name="quotedblleft" unicode="&#x201c;" 
d="M850 1450l-129 -467h-150l158 467h121zM494 1450l-129 -467h-150l158 467h121z" />
    <glyph glyph-name="quotedblright" unicode="&#x201d;" 
d="M215 983l129 467h150l-158 -467h-121zM571 983l129 467h150l-158 -467h-121z" />
    <glyph glyph-name="quotedblbase" unicode="&#x201e;" 
d="M215 -283l129 467h150l-158 -467h-121zM571 -283l129 467h150l-158 -467h-121z" />
    <glyph glyph-name="dagger" unicode="&#x2020;" 
d="M471 -258v1202h-393v98h393v408h123v-408h393v-98h-393v-1202h-123z" />
    <glyph glyph-name="daggerdbl" unicode="&#x2021;" 
d="M471 -258v408h-393v98h393v696h-393v98h393v408h123v-408h393v-98h-393v-696h393v-98h-393v-408h-123z" />
    <glyph glyph-name="bullet" unicode="&#x2022;" horiz-adv-x="1024" 
d="M150 725q0 152 105 257t257 105t257 -105t105 -257t-105 -257q-105 -106 -257 -106t-257 106t-105 257z" />
    <glyph glyph-name="ellipsis" unicode="&#x2026;" horiz-adv-x="2048" 
d="M1608 86q0 41 28 70q29 28 70 28t70 -28q28 -28 28 -70q0 -41 -28 -70q-28 -28 -70 -28q-41 0 -70 28q-28 29 -28 70zM926 86q0 41 28 70q29 28 70 28t70 -28q28 -28 28 -70q0 -41 -28 -70q-28 -28 -70 -28q-41 0 -70 28q-28 29 -28 70zM244 86q0 41 28 70q29 28 70 28
t70 -28q28 -28 28 -70q0 -41 -28 -70q-28 -28 -70 -28q-41 0 -70 28q-28 29 -28 70z" />
    <glyph glyph-name="perthousand" unicode="&#x2030;" horiz-adv-x="2009" 
d="M135 -12l934 1532l94 -58l-936 -1532zM152 1161q0 -88 63 -151q63 -64 151 -64t152 64q63 64 64 151q0 87 -64 151t-151 64q-88 0 -152 -63q-63 -64 -63 -152zM53 1161q0 129 92 221q91 92 221 92t222 -92t92 -221t-92 -221t-221 -92t-222 92q-92 92 -92 221zM1427 289
q1 -87 63 -151t152 -64t153 63t63 151t-62 152t-154 64q-90 0 -152 -64t-63 -151zM1329 289q0 129 92 221t221 92q130 0 222 -92t92 -221t-92 -221t-222 -92t-221 92q-92 92 -92 221zM725 289q0 -87 63 -151q64 -64 152 -64t152 63q63 63 63 151t-63 152q-64 64 -152 64
t-152 -64t-63 -151zM627 289q0 129 92 221t221 92t221 -92t92 -221t-92 -221t-221 -92t-221 92t-92 221z" />
    <glyph glyph-name="guilsinglleft" unicode="&#x2039;" horiz-adv-x="645" 
d="M410 70l-281 415l281 416l86 -59l-238 -357l242 -360z" />
    <glyph glyph-name="guilsinglright" unicode="&#x203a;" horiz-adv-x="645" 
d="M236 901l280 -416l-280 -415l-86 59l237 356l-242 361z" />
    <glyph glyph-name="fraction" unicode="&#x2044;" horiz-adv-x="344" 
d="M-342 -12l934 1532l94 -58l-936 -1532z" />
    <glyph glyph-name="Euro" unicode="&#x20ac;" 
d="M170 724q0 52 8 150h-145l30 97h130q49 264 187 384t310 120t299 -64l-37 -115q-123 68 -237 68q-154 0 -254 -99t-139 -294h555l-25 -97h-545q-8 -68 -8 -137t4 -143h479l-24 -96h-445q57 -418 342 -418q84 0 155 41t110 104l86 -63q-52 -80 -150 -133t-203 -54
q-197 1 -317 135t-154 388h-147l26 96h113q-4 78 -4 130z" />
    <glyph glyph-name="afii61289" unicode="&#x2113;" horiz-adv-x="925" 
d="M328 1120v-487q317 365 317 635q0 229 -147 229q-68 0 -119 -92t-51 -285zM215 1110q0 258 83 371t199 113t175 -90q59 -89 59 -232q0 -352 -403 -766v-68q2 -184 63 -270t153 -86t161 57q67 57 110 137l62 -49q-123 -242 -349 -241q-158 0 -234 110t-79 289v29
q-29 -23 -113 -99l-41 74q109 96 154 143v578z" />
    <glyph glyph-name="trademark" unicode="&#x2122;" horiz-adv-x="2027" 
d="M979 606v844h176l266 -672l265 672h169v-844h-110v740h-4l-291 -740h-66l-290 740h-4v-740h-111zM444 606v746h-272v98h655v-98h-272v-746h-111z" />
    <glyph glyph-name="Omega" unicode="&#x2126;" horiz-adv-x="1384" 
d="M395 102v7q-117 113 -193 285t-75 380q0 312 163 502q162 190 408 190t401 -198t154 -486q-1 -217 -79 -394t-191 -279v-7h297v-102h-449v76q127 94 215 274q87 180 87 408q0 145 -47 279q-46 135 -149 231t-241 96q-200 0 -324 -174t-124 -412t89 -426t212 -276v-76
h-449v102h295z" />
    <glyph glyph-name="estimated" unicode="&#x212e;" horiz-adv-x="1808" 
d="M1430 758v409q0 29 -21 50q-217 213 -508 213t-506 -220q-18 -23 -18 -51v-401q0 -14 10 -15h1034q9 1 9 15zM1735 705h-1348q-10 0 -10 -11v-407q0 -25 16 -47q215 -221 510 -222q158 0 297 67t240 181h121q-115 -133 -289 -211t-371 -78q-344 -1 -588 219t-243 529
q0 309 243 529q244 220 589 220t589 -218q244 -220 244 -531v-20z" />
    <glyph glyph-name="partialdiff" unicode="&#x2202;" horiz-adv-x="1042" 
d="M459 88h2q139 0 232 162t116 401q-29 86 -109 159t-196 73t-208 -125q-91 -125 -91 -295t69 -273q70 -102 185 -102zM472 1618q190 0 330 -198t140 -580t-128 -619q-128 -236 -365 -235q-174 0 -269 136q-94 136 -94 351t123 363t289 147q120 0 204 -63t119 -132h2
q2 25 2 93q-1 283 -109 459t-258 175q-150 0 -261 -98l-45 90q130 111 320 111z" />
    <glyph glyph-name="uni2206" unicode="&#x2206;" horiz-adv-x="1239" 
d="M184 100h865l-297 846q-14 43 -65 184q-50 141 -64 197h-9q-10 -45 -57 -175t-61 -177zM63 0v88l492 1397h135l488 -1395v-90h-1115z" />
    <glyph glyph-name="product" unicode="&#x220f;" horiz-adv-x="1335" 
d="M1282 1333h-213v-1532h-117v1532h-571v-1532h-117v1532h-211v111h1229v-111z" />
    <glyph glyph-name="summation" unicode="&#x2211;" horiz-adv-x="1067" 
d="M1022 -199h-977v84l535 733l-510 742v84h919v-105h-753v-8l481 -694l-518 -713v-8h823v-115z" />
    <glyph glyph-name="minus" unicode="&#x2212;" horiz-adv-x="1363" 
d="M160 571v99h1044v-99h-1044z" />
    <glyph glyph-name="uni2215" unicode="&#x2215;" horiz-adv-x="344" 
d="M-342 -12l934 1532l94 -58l-936 -1532z" />
    <glyph glyph-name="uni2219" unicode="&#x2219;" horiz-adv-x="532" 
d="M168 651q0 41 29 70t69 29t70 -29q29 -29 29 -70t-29 -69t-70 -29q-42 1 -70 29t-28 69z" />
    <glyph glyph-name="radical" unicode="&#x221a;" horiz-adv-x="1103" 
d="M1096 1714l-428 -2029h-111l-317 977l-146 -54l-26 78l249 94l258 -786q27 -111 33 -150h2q2 16 12 66t13 78l369 1726h92z" />
    <glyph glyph-name="infinity" unicode="&#x221e;" horiz-adv-x="1529" 
d="M1137 821h-2q-47 1 -99 -27t-82 -54q-28 -26 -78 -78t-59 -62q117 -127 183 -176t148 -49q83 1 138 67t55 162t-57 156t-147 61zM403 375h3q57 0 112 29q54 29 89 68q36 38 72 75t42 45q-63 78 -97 114t-101 76t-147 39q-80 1 -133 -67t-53 -161t60 -155t153 -63z
M1430 602v-2q0 -135 -90 -220t-194 -85q-106 0 -184 55t-194 180q-160 -178 -267 -217q-52 -18 -110 -18q-121 0 -206 87t-85 216t87 216t203 87t201 -62t183 -177q123 135 180 176q92 63 206 62t192 -83t78 -215z" />
    <glyph glyph-name="integral" unicode="&#x222b;" horiz-adv-x="686" 
d="M387 1241q0 -161 13 -525t14 -530q0 -287 -88 -419q-61 -92 -181 -93q-72 0 -118 33l24 90q49 -25 86 -24q162 0 162 415q0 166 -12 537t-13 528q0 506 275 506q61 1 102 -28l-24 -86q-31 23 -81 23q-159 -2 -159 -427z" />
    <glyph glyph-name="approxequal" unicode="&#x2248;" horiz-adv-x="1099" 
d="M346 463q-65 0 -110 -40t-89 -112l-57 43q94 188 266 189q62 -1 102 -19q38 -18 78 -40t42 -23q123 -70 184 -70t104 36t86 114l54 -45q-92 -186 -248 -187q-52 1 -98 19t-132 65q-117 70 -182 70zM758 637q-52 0 -100 18t-148 76q-176 101 -274 19q-45 -39 -89 -111
l-57 43q94 186 266 186q67 0 105 -19q98 -49 117 -65q50 -25 67 -35q56 -32 128 -32q97 0 179 149l54 -43q-90 -186 -248 -186z" />
    <glyph glyph-name="notequal" unicode="&#x2260;" horiz-adv-x="1099" 
d="M997 817v-84h-348l-135 -293h483v-82h-516l-106 -233l-68 33l92 200h-299v82h334l135 293h-469v84h502l105 230l67 -31l-90 -199h313z" />
    <glyph glyph-name="lessequal" unicode="&#x2264;" horiz-adv-x="1099" 
d="M997 39h-897v86h897v-86zM991 209l-878 450v89l878 450v-104l-786 -387v-5l786 -389v-104z" />
    <glyph glyph-name="greaterequal" unicode="&#x2265;" horiz-adv-x="1099" 
d="M995 39h-893v86h893v-86zM115 1198l878 -450v-89l-878 -450v104l784 387v5l-784 389v104z" />
    <glyph glyph-name="lozenge" unicode="&#x25ca;" horiz-adv-x="1103" 
d="M883 719l-293 596q-18 43 -37 106h-4q-14 -55 -39 -106l-289 -590l293 -600q27 -59 35 -102h6q12 51 35 102zM995 721l-395 -805h-100l-391 805l395 807h100z" />
    <glyph glyph-name="fi" unicode="&#xfb01;" horiz-adv-x="1062" 
d="M233 0v836h-196v110h196v309q0 166 86 242q87 76 185 76t153 -25l-24 -106q-41 20 -111 20q-166 0 -166 -252v-264h222v-110h-222v-836h-123zM725 1321q0 39 27 65q28 26 66 27q38 0 65 -27q27 -28 27 -66t-28 -65q-26 -27 -65 -27t-65 28q-26 26 -27 65zM756 0v946h123
v-946h-123z" />
    <glyph glyph-name="fl" unicode="&#xfb02;" horiz-adv-x="1062" 
d="M756 0v1548h123v-1548h-123zM233 0v836h-196v110h196v309q0 166 86 242q87 76 185 76t153 -25l-24 -106q-41 20 -111 20q-166 0 -166 -252v-264h222v-110h-222v-836h-123z" />
    <glyph glyph-name="a.superior" horiz-adv-x="690" 
d="M512 1147h-78q-266 0 -266 -109q0 -36 45 -60t102 -24q97 0 147 56t50 123v14zM381 1233h131v18q-4 70 -40 104t-135 34t-187 -72l-54 78q98 80 246 80q148 1 208 -51t60 -173v-164q0 -141 11 -206h-101q-4 12 -8 94h-4q-66 -106 -213 -107q-96 0 -161 41t-64 125
q0 199 311 199z" />
    <glyph glyph-name="o.superior" horiz-adv-x="790" 
d="M168 1171q0 -89 63 -153t161 -64t165 64q66 64 66 155q1 91 -63 153t-164 62t-164 -64q-64 -65 -64 -153zM70 1171q0 135 89 219t233 85q144 0 236 -83q92 -82 93 -218q0 -136 -93 -221q-92 -85 -236 -85t-233 84t-89 219z" />
    <glyph glyph-name="one.superior" horiz-adv-x="692" 
d="M362 592v760l-174 -135l-51 69l225 176h111v-870h-111z" />
    <glyph glyph-name="two.superior" horiz-adv-x="692" 
d="M47 592v88l352 344q47 47 70 72q63 68 63 138t-46 106t-126 36q-135 0 -176 -121l-104 9q24 110 108 160t191 50t185 -60t79 -163q0 -61 -31 -123q-30 -62 -62 -95q-32 -34 -95 -95l-260 -248h450v-98h-598z" />
    <glyph glyph-name="three.superior" horiz-adv-x="692" 
d="M260 999v99h47q76 0 135 38q60 38 60 103t-43 101t-115 36q-119 0 -180 -102l-80 51q94 150 260 150q115 1 192 -61t76 -161q0 -70 -47 -124t-121 -78v-4q88 -11 140 -73t53 -161q0 -99 -84 -167t-213 -66q-215 0 -285 182l97 37q47 -121 188 -121q70 0 128 47t58 109
q0 166 -231 165h-35z" />
    </font>
</defs>
</svg>
