<?xml version="1.0" standalone="no"?>
<!DOCTYPE svg PUBLIC "-//W3C//DTD SVG 1.1//EN" "http://www.w3.org/Graphics/SVG/1.1/DTD/svg11.dtd" >
<svg xmlns="http://www.w3.org/2000/svg">
<metadata>
Created by FontPrep 20130207 at Mon Apr 27 13:31:35 2015
 By Martin
Copyright (c) 1987, 1991, 1993 Adobe Systems Incorporated.  All Rights Reserved.Futura is a registered trademark of Fundicion Tipografica Neufville S. A.
</metadata>
<defs>
<font id="df1d09075c690dd1ce6f559fa6ad5433" horiz-adv-x='1024' >
  <font-face 
    font-family="IOTA-Regular"
    font-weight="400"
    font-stretch="normal"
    units-per-em="2048"
    panose-1="2 0 5 4 3 0 0 2 0 3"
    ascent="1638"
    descent="-410"
    x-height="963"
    cap-height="1544"
    bbox="-330 -600 2412 2060"
    underline-thickness="102"
    underline-position="-153"
    unicode-range="U+0020-2122"
  />
<missing-glyph horiz-adv-x="1024" 
d="M102 0v1049h820v-1049h-820zM119 16h786v1016h-786v-1016z" />
    <glyph glyph-name=".notdef" horiz-adv-x="1024" 
d="M102 0v1049h820v-1049h-820zM119 16h786v1016h-786v-1016z" />
    <glyph glyph-name=".null" horiz-adv-x="0" 
 />
    <glyph glyph-name="nonmarkingreturn" horiz-adv-x="681" 
 />
    <glyph glyph-name="space" unicode=" " horiz-adv-x="630" 
 />
    <glyph glyph-name="exclam" unicode="!" horiz-adv-x="692" 
d="M346 203q47 0 81 -33t34 -80t-34 -82t-81 -35t-81 35t-34 82t34 80t81 33zM262 313v1231h168v-1231h-168z" />
    <glyph glyph-name="quotedbl" unicode="&#x22;" horiz-adv-x="935" 
d="M209 1544h192l-36 -672h-119zM535 1544h192l-37 -672h-119z" />
    <glyph glyph-name="numbersign" unicode="#" 
d="M1171 1126v-159h-215l-59 -351h207v-159h-236l-82 -457h-155l80 457h-252l-86 -457h-154l80 457h-209v159h236l59 351h-219v159h244l73 418h158l-74 -418h254l72 418h162l-72 -418h188zM545 967l-60 -351h252l60 351h-252z" />
    <glyph glyph-name="dollar" unicode="$" 
d="M938 449q0 160 -209 256v-549q98 33 154 110q55 78 55 183zM594 948v449q-82 -16 -136 -81t-55 -151q1 -141 191 -217zM594 1769h135v-210q103 -15 189 -77t135 -157l-135 -88q-78 137 -189 158v-506q172 -76 248 -143q75 -66 104 -136t29 -157q0 -168 -108 -298
t-273 -165v-226h-135v213q-164 8 -289 121t-153 277l165 47q11 -109 91 -191t186 -90v625q-170 70 -266 161t-96 245t102 260t260 127v210z" />
    <glyph glyph-name="percent" unicode="%" horiz-adv-x="1632" 
d="M410 1571q141 0 242 -98q102 -99 102 -239t-102 -238t-242 -99q-141 0 -243 97q-101 96 -101 238t101 241q102 98 243 98zM410 1440q-86 0 -150 -60t-63 -146q0 -85 63 -145q64 -61 150 -61t149 60t63 146t-62 146q-64 60 -150 60zM1223 1571l82 -49l-893 -1549l-88 54z
M1225 647q141 0 242 -98q101 -99 101 -239t-100 -238q-102 -98 -243 -98t-243 96q-102 98 -101 239q0 141 101 240q102 98 243 98zM1225 516q-85 0 -149 -60t-64 -146t63 -145q63 -61 149 -61t150 60t64 146t-64 146t-149 60z" />
    <glyph glyph-name="ampersand" unicode="&#x26;" horiz-adv-x="1423" 
d="M656 1425q-72 0 -120 -49t-48 -112t18 -93t45 -68t31 -44l36 -51q63 42 108 80q44 38 53 52t27 43q18 28 19 92q0 63 -49 107t-120 43zM530 -27q-182 0 -316 121t-134 314t165 336q79 68 214 159l18 12q-30 46 -40 57q-9 11 -23 33q-14 21 -20 31q-70 102 -70 207
q0 145 96 237t236 91q140 0 236 -86q97 -86 97 -219t-90 -226q-49 -52 -80 -78t-102 -79l325 -416l175 203l124 -103l-196 -229l262 -338h-217l-166 217q-268 -244 -494 -244zM520 129q72 0 152 39t128 76t122 102l-344 442l-74 -49q-143 -100 -189 -153q-67 -82 -67 -186
t82 -187q82 -84 190 -84z" />
    <glyph glyph-name="quotesingle" unicode="'" horiz-adv-x="591" 
d="M201 1544h192l-37 -672h-118z" />
    <glyph glyph-name="parenleft" unicode="(" horiz-adv-x="587" 
d="M358 561q0 -547 164 -983l-145 -70q-186 403 -187 1053q1 650 187 1053l145 -70q-164 -436 -164 -983z" />
    <glyph glyph-name="parenright" unicode=")" horiz-adv-x="587" 
d="M397 562q0 -650 -186 -1054l-145 70q164 436 163 983q1 547 -163 983l145 70q186 -402 186 -1052z" />
    <glyph glyph-name="asterisk" unicode="*" horiz-adv-x="1212" 
d="M543 1257l-13 287h154l-12 -287l270 101l49 -148l-278 -77l178 -226l-125 -92l-160 242l-160 -242l-124 92l180 226l-279 77l49 148z" />
    <glyph glyph-name="plus" unicode="+" 
d="M551 1020h160v-416h415v-160h-415v-415h-160v415h-416v160h416v416z" />
    <glyph glyph-name="comma" unicode="," horiz-adv-x="630" 
d="M309 225l152 -53l-232 -524l-110 45z" />
    <glyph glyph-name="hyphenminus" unicode="-" horiz-adv-x="425" 
d="M4 569h420v-151h-420v151z" />
    <glyph glyph-name="period" unicode="." horiz-adv-x="630" 
d="M315 203q47 0 81 -33t34 -80t-34 -82t-81 -35t-81 35t-33 82q0 47 33 80q34 33 81 33z" />
    <glyph glyph-name="slash" unicode="/" horiz-adv-x="1167" 
d="M995 1690l135 -62l-960 -1950l-133 62z" />
    <glyph glyph-name="zero" unicode="0" 
d="M631 1571q139 0 250 -79t174 -203q129 -254 129 -519q0 -197 -62 -376t-193 -300q-130 -121 -298 -121t-298 121t-193 300q-62 179 -62 341t33 296t96 258t174 203t250 79zM631 1411q-102 0 -181 -70q-133 -118 -184 -398q-52 -280 68 -575q41 -103 118 -169t179 -66
t179 66t118 169q73 183 84 394q4 197 -79 405q-42 104 -121 174t-181 70z" />
    <glyph glyph-name="one" unicode="1" 
d="M580 1384h-256l90 160h338v-1544h-172v1384z" />
    <glyph glyph-name="two" unicode="2" 
d="M1083 160v-160h-999l723 854q104 121 104 253t-90 218t-222 86t-217 -89t-89 -228h-172q4 205 140 341t335 136t343 -130q144 -129 144 -323t-116 -330l-535 -628h651z" />
    <glyph glyph-name="three" unicode="3" 
d="M860 1134q0 130 -74 204t-192 73t-182 -67q-66 -66 -76 -181h-170q18 188 130 298t299 110t312 -118t125 -304q0 -103 -53 -197t-145 -141q108 -49 164 -151t57 -228q1 -201 -139 -330t-337 -129t-327 120t-135 308h168q4 -117 91 -193t210 -75q123 0 210 90t87 226
t-91 211q-92 75 -237 71v160q141 6 223 60q82 53 82 183z" />
    <glyph glyph-name="four" unicode="4" 
d="M975 410h190v-160h-190v-250h-172v250h-791l959 1380h4v-1220zM803 410v698h-4l-486 -698h490z" />
    <glyph glyph-name="five" unicode="5" 
d="M1071 1384h-493l-101 -329l92 8q225 0 369 -155q144 -154 145 -388t-163 -390t-404 -157q-307 0 -473 277l137 98q56 -98 146 -156t196 -59q170 0 280 113q110 112 110 278t-111 273q-111 106 -263 106t-305 -98l224 739h614v-160z" />
    <glyph glyph-name="six" unicode="6" 
d="M655 1014q209 0 355 -151t145 -365q0 -214 -157 -370q-158 -155 -376 -155t-375 156t-157 373q0 178 141 370l512 699l129 -96l-356 -480l4 -4q68 23 135 23zM623 133q152 1 256 107t104 257t-105 254t-256 103t-255 -103q-105 -103 -105 -254t104 -257t257 -107z" />
    <glyph glyph-name="seven" unicode="7" 
d="M104 1384v160h1139l-1036 -1571l-135 80l876 1331h-844z" />
    <glyph glyph-name="eight" unicode="8" 
d="M631 727q-125 0 -212 -87t-87 -210t87 -210t212 -87t212 87t87 210t-87 210t-212 87zM631 1571q180 0 306 -124t126 -306q0 -105 -50 -197t-139 -141q109 -47 168 -149t60 -222q0 -201 -134 -330t-337 -129t-337 129t-134 330q0 121 59 222t168 149q-88 49 -138 141
t-50 197q0 182 126 306t306 124zM631 1411q-111 0 -190 -78q-79 -79 -79 -189t79 -190t190 -80t189 80t79 191q-1 111 -79 189t-189 77z" />
    <glyph glyph-name="nine" unicode="9" 
d="M592 535q-211 0 -355 148q-145 148 -145 364t157 370t376 154t375 -154t157 -373q0 -168 -143 -370l-512 -701l-129 88l356 490l-4 4q-59 -20 -133 -20zM622 1411q-150 0 -253 -105q-105 -105 -105 -255t104 -253q104 -104 256 -104q151 0 256 104t105 252t-106 255
q-107 106 -257 106z" />
    <glyph glyph-name="colon" unicode=":" horiz-adv-x="630" 
d="M315 203q47 0 81 -33t34 -80t-34 -82t-81 -35t-81 35t-33 82q0 47 33 80q34 33 81 33zM315 989q47 0 81 -33q34 -34 34 -80t-34 -81t-81 -35t-81 35t-33 82q-1 47 33 79t81 33z" />
    <glyph glyph-name="semicolon" unicode=";" horiz-adv-x="630" 
d="M313 225l152 -53l-232 -524l-110 45zM367 989q47 0 81 -33q34 -34 33 -80q0 -46 -34 -81q-35 -35 -81 -35t-80 35t-34 82t34 79t81 33z" />
    <glyph glyph-name="less" unicode="&#x3c;" 
d="M1126 1020v-174l-753 -322l753 -321v-174l-991 424v143z" />
    <glyph glyph-name="equal" unicode="=" 
d="M135 764h991v-160h-991v160zM135 444h991v-159h-991v159z" />
    <glyph glyph-name="greater" unicode="&#x3e;" 
d="M135 846v174l991 -424v-143l-991 -424v174l754 321z" />
    <glyph glyph-name="question" unicode="?" horiz-adv-x="999" 
d="M666 672h165q4 -150 -91 -252t-240 -102q-144 0 -240 96t-96 230t75 207t213 115t181 74q72 54 72 154q1 100 -59 160t-149 59q-89 0 -147 -58t-57 -145q0 -49 12 -98h-170l-8 109q0 156 110 253q111 97 267 97q156 -1 262 -107t106 -279t-135 -277q-51 -38 -112 -57
q-61 -18 -69 -22q-9 -4 -37 -12t-30 -8q-158 -43 -157 -170q0 -70 49 -117t125 -47q76 1 118 57t42 140zM496 203q47 0 81 -33q33 -33 33 -80t-34 -82t-80 -35q-47 0 -81 35t-34 82t34 80t81 33z" />
    <glyph glyph-name="at" unicode="@" horiz-adv-x="1638" 
d="M535 716q0 -116 57 -185t173 -69q115 0 183 88q68 87 82 211t-44 201q-58 76 -171 76t-197 -103t-83 -219zM1137 517q0 -54 45 -54q72 0 150 125t87 266q16 262 -146 416q-163 154 -429 154t-444 -186q-178 -185 -179 -471q1 -286 191 -466t462 -180t402 94l143 -104
q-256 -137 -551 -138q-334 1 -564 229t-230 569t226 570t556 230q285 0 481 -176q229 -203 229 -468t-133 -441q-134 -176 -309 -167q-88 4 -110 125q-124 -125 -270 -125t-249 111t-104 264q0 193 117 338t301 146q161 -1 272 -144l29 125h145l-102 -522q-16 -66 -16 -120z
" />
    <glyph glyph-name="A" unicode="A" horiz-adv-x="1431" 
d="M1229 0l-508 1217l-520 -1217h-189l713 1618l694 -1618h-190z" />
    <glyph glyph-name="B" unicode="B" horiz-adv-x="1163" 
d="M328 717v-557h172q395 0 395 282q0 274 -418 275h-149zM156 0v1544h254q219 0 367 -92q149 -92 149 -326q0 -197 -152 -301q135 -31 214 -141t79 -254q0 -218 -154 -324t-399 -106h-358zM328 1384v-520h65q162 0 252 41q109 50 109 216q0 167 -87 215t-272 48h-67z" />
    <glyph glyph-name="C" unicode="C" horiz-adv-x="1468" 
d="M872 1411q-266 0 -449 -191q-183 -192 -183 -448t184 -447t444 -191t465 204v-213q-209 -152 -461 -152q-328 -1 -566 233t-238 563t236 565t568 237q256 0 461 -152v-213q-195 205 -461 205z" />
    <glyph glyph-name="D" unicode="D" horiz-adv-x="1388" 
d="M156 0v1544h290q193 0 334 -39t269 -147q256 -222 256 -580t-252 -583q-129 -115 -269 -155t-342 -40h-286zM328 160h125q159 0 273 34t214 125q193 180 193 460t-201 456q-98 88 -212 119t-267 30h-125v-1224z" />
    <glyph glyph-name="E" unicode="E" horiz-adv-x="1093" 
d="M156 0v1544h800v-160h-628v-458h610v-160h-610v-606h628v-160h-800z" />
    <glyph glyph-name="F" unicode="F" horiz-adv-x="978" 
d="M858 1384h-530v-458h514v-160h-514v-766h-172v1544h702v-160z" />
    <glyph glyph-name="G" unicode="G" horiz-adv-x="1679" 
d="M948 776h643q7 -174 -27 -303t-135 -247t-254 -186t-315 -67q-326 1 -560 235t-234 563t236 565t568 235q397 0 654 -334l-125 -117q-209 291 -531 291q-262 0 -446 -190q-184 -191 -184 -449t180 -442q197 -197 423 -197t396 138t170 345h-459v160z" />
    <glyph glyph-name="H" unicode="H" horiz-adv-x="1462" 
d="M336 918h790v626h172v-1544h-172v758h-790v-758h-172v1544h172v-626z" />
    <glyph glyph-name="I" unicode="I" horiz-adv-x="489" 
d="M332 1544v-1544h-172v1544h172z" />
    <glyph glyph-name="J" unicode="J" horiz-adv-x="643" 
d="M483 1544v-1222q0 -80 -3 -128t-21 -114t-53 -113q-96 -127 -267 -127q-135 0 -274 115l96 133q94 -88 182 -88q120 0 148 118q20 83 20 204v1222h172z" />
    <glyph glyph-name="K" unicode="K" horiz-adv-x="1251" 
d="M328 0h-172v1544h172v-661l657 661h232l-725 -719l749 -825h-237l-633 709l-43 -43v-666z" />
    <glyph glyph-name="L" unicode="L" horiz-adv-x="768" 
d="M328 1544v-1384h426v-160h-598v1544h172z" />
    <glyph glyph-name="M" unicode="M" horiz-adv-x="1835" 
d="M43 0l313 1632l562 -1296l563 1296l313 -1632h-176l-199 1044h-4l-497 -1107l-496 1107h-4l-199 -1044h-176z" />
    <glyph glyph-name="N" unicode="N" horiz-adv-x="1708" 
d="M166 0v1610l1204 -1262v1196h172v-1614l-1204 1260v-1190h-172z" />
    <glyph glyph-name="O" unicode="O" horiz-adv-x="1765" 
d="M883 1571q333 -1 569 -235t236 -566t-237 -564t-569 -232t-568 232q-237 232 -236 564q0 332 236 566t569 235zM883 1411q-265 0 -449 -187q-184 -186 -184 -450t185 -452t447 -188t448 188t186 451t-184 451t-449 187z" />
    <glyph glyph-name="P" unicode="P" horiz-adv-x="1030" 
d="M328 676v-676h-172v1544h254q262 0 383 -82q84 -59 129 -152t45 -200q0 -209 -148 -332q-121 -102 -366 -102h-125zM328 1384v-548h114q352 0 353 278q0 201 -177 247q-87 23 -227 23h-63z" />
    <glyph glyph-name="Q" unicode="Q" horiz-adv-x="1765" 
d="M1516 780q0 256 -184 444t-449 187q-265 0 -449 -187q-184 -186 -184 -450t185 -452t448 -189q190 0 344 115l-373 375h225l267 -279q170 180 170 436zM883 -27q-332 1 -569 233t-236 564q0 332 236 566q237 234 570 234q332 0 568 -236q236 -237 236 -557t-224 -556
l232 -235h-219l-129 139q-96 -72 -222 -112t-243 -40z" />
    <glyph glyph-name="R" unicode="R" horiz-adv-x="1110" 
d="M328 1384v-555h53q284 0 359 134q32 57 32 137q0 211 -168 260q-82 24 -225 24h-51zM379 1544q565 0 565 -417q0 -189 -103 -304t-284 -131l492 -692h-211l-467 678h-43v-678h-172v1544h223z" />
    <glyph glyph-name="S" unicode="S" horiz-adv-x="1144" 
d="M585 1411q-99 0 -175 -68t-76 -169t86 -158q61 -43 155 -86l103 -45q178 -76 274 -172q96 -95 96 -279t-140 -322q-142 -138 -334 -138t-324 109q-131 110 -168 290l168 47q16 -121 102 -204t210 -83t219 87t95 223t-125 214q-49 32 -159 84l-94 41q-166 74 -251 159
t-85 248t127 273t305 109q130 -1 234 -63t165 -177l-137 -88q-52 86 -112 127t-159 41z" />
    <glyph glyph-name="T" unicode="T" horiz-adv-x="962" 
d="M565 1384v-1384h-172v1384h-373v160h922v-160h-377z" />
    <glyph glyph-name="U" unicode="U" horiz-adv-x="1402" 
d="M324 1544v-1007q0 -273 202 -365q86 -39 174 -39t170 36t136 101q76 92 75 262v1012h172v-966q1 -144 -25 -242t-110 -186q-164 -176 -411 -176t-404 157q-92 89 -122 191t-29 256v966h172z" />
    <glyph glyph-name="V" unicode="V" horiz-adv-x="1277" 
d="M199 1544l440 -1177l440 1177h187l-627 -1636l-627 1636h187z" />
    <glyph glyph-name="W" unicode="W" horiz-adv-x="2234" 
d="M213 1544l405 -1157l500 1237l500 -1237l405 1157h187l-592 -1624l-500 1243l-500 -1243l-591 1624h186z" />
    <glyph glyph-name="X" unicode="X" horiz-adv-x="1155" 
d="M483 799l-417 745h196l316 -581l315 581h197l-418 -745l456 -799h-196l-354 635l-355 -635h-196z" />
    <glyph glyph-name="Y" unicode="Y" horiz-adv-x="1214" 
d="M694 0h-172v664l-506 880h199l393 -688l393 688h199l-506 -880v-664z" />
    <glyph glyph-name="Z" unicode="Z" horiz-adv-x="1200" 
d="M1135 160v-160h-1106l841 1384h-735v160h1022l-844 -1384h822z" />
    <glyph glyph-name="bracketleft" unicode="[" horiz-adv-x="645" 
d="M381 1462v-1802h221v-152h-389v2106h389v-152h-221z" />
    <glyph glyph-name="backslash" unicode="\" horiz-adv-x="1167" 
d="M37 1628l135 62l958 -1690l-133 -61z" />
    <glyph glyph-name="bracketright" unicode="]" horiz-adv-x="645" 
d="M264 -340v1802h-221v152h389v-2106h-389v152h221z" />
    <glyph glyph-name="asciicircum" unicode="^" 
d="M135 659l422 885h148l421 -885h-182l-313 672l-318 -672h-178z" />
    <glyph glyph-name="underscore" unicode="_" horiz-adv-x="1024" 
d="M1024 -154v-102h-1024v102h1024z" />
    <glyph glyph-name="grave" unicode="`" horiz-adv-x="733" 
d="M160 1446l172 78l243 -336l-102 -58z" />
    <glyph glyph-name="a" unicode="a" horiz-adv-x="1181" 
d="M560 838q-142 0 -230 -104t-88 -248t85 -253t233 -109t234 106q85 106 85 256t-88 251q-89 101 -231 101zM1034 963v-963h-164v133h-4q-126 -160 -332 -160q-206 1 -333 149t-127 359t127 359t334 149q207 0 331 -164h4v138h164z" />
    <glyph glyph-name="b" unicode="b" horiz-adv-x="1181" 
d="M621 838q-142 0 -230 -104t-88 -248t85 -253q86 -109 234 -109t233 106t85 256t-88 251q-89 101 -231 101zM147 0v1690h164v-865h4q125 164 332 164t334 -148q127 -149 127 -359t-128 -360t-335 -149q-207 0 -330 160h-4v-133h-164z" />
    <glyph glyph-name="c" unicode="c" horiz-adv-x="974" 
d="M870 676h-4q-127 162 -299 162q-145 0 -242 -106t-97 -252t91 -250q92 -104 240 -105q186 0 313 166h5v-219q-150 -98 -306 -99q-219 -1 -365 145t-146 361t150 363q151 148 363 147q164 0 297 -96v-217z" />
    <glyph glyph-name="d" unicode="d" horiz-adv-x="1181" 
d="M560 838q-142 0 -230 -104t-88 -248t85 -253t233 -109t234 106q85 106 85 256t-88 251q-89 101 -231 101zM870 0v133h-4q-122 -160 -330 -160q-208 1 -335 149t-127 359t127 359t334 149q207 0 331 -164h4v865h164v-1690h-164z" />
    <glyph glyph-name="e" unicode="e" horiz-adv-x="1062" 
d="M238 446q0 -135 89 -228t226 -93q182 0 293 199l139 -80q-145 -270 -444 -271q-213 -1 -342 141t-129 360t124 366t346 149q222 0 344 -159t109 -384h-755zM539 838q-105 0 -191 -74t-102 -178h575q-16 106 -96 179t-186 73z" />
    <glyph glyph-name="f" unicode="f" horiz-adv-x="561" 
d="M334 811v-811h-164v811h-90v152h90v383q0 178 43 249q76 121 248 121q61 0 117 -20v-166q-152 57 -216 -21q-24 -27 -26 -92q-2 -64 -2 -129v-325h244v-152h-244z" />
    <glyph glyph-name="g" unicode="g" horiz-adv-x="1187" 
d="M550 838q-142 0 -230 -104t-89 -248q0 -144 85 -253t234 -109q150 0 234 106t84 256t-88 251t-230 101zM1024 963v-916q0 -96 -4 -150t-27 -129t-67 -135q-133 -170 -373 -170q-205 0 -337 121t-136 322h164q2 -133 87 -212t220 -79q181 0 250 122q59 104 59 281v115h-4
q-127 -160 -333 -160q-206 -1 -333 147t-127 358q-1 210 129 361t334 151t330 -165h4v138h164z" />
    <glyph glyph-name="h" unicode="h" horiz-adv-x="1081" 
d="M156 1690h163v-840l5 -4q104 143 281 143q177 -1 249 -113t72 -305v-571h-164v543q0 133 -24 191t-67 81t-109 23q-221 0 -239 -275q-3 -45 -4 -106v-457h-163v1690z" />
    <glyph glyph-name="i" unicode="i" horiz-adv-x="536" 
d="M350 963v-963h-164v963h164zM268 1442q47 0 82 -35t35 -83t-35 -82t-82 -34t-82 34q-34 34 -34 82t34 83q35 35 82 35z" />
    <glyph glyph-name="j" unicode="j" horiz-adv-x="536" 
d="M350 963v-1504h-164v1504h164zM268 1442q47 0 82 -35t35 -83t-35 -82t-82 -34t-82 34q-34 34 -34 82t34 83q35 35 82 35z" />
    <glyph glyph-name="k" unicode="k" horiz-adv-x="962" 
d="M311 1690v-1084l351 357h219l-412 -410l489 -553h-217l-387 438l-43 -43v-395h-164v1690h164z" />
    <glyph glyph-name="l" unicode="l" horiz-adv-x="464" 
d="M315 1690v-1690h-163v1690h163z" />
    <glyph glyph-name="m" unicode="m" horiz-adv-x="1572" 
d="M319 963v-105h5q84 131 231 131q86 0 157 -42t109 -118q41 78 120 119t169 41q307 0 307 -403v-586h-164v559q0 206 -78 255q-38 24 -102 24q-129 0 -171 -111q-32 -89 -34 -217v-510h-163v547q0 291 -173 291q-136 0 -179 -117q-32 -93 -34 -223v-498h-163v963h163z" />
    <glyph glyph-name="n" unicode="n" horiz-adv-x="1081" 
d="M319 963v-117h5q104 143 281 143q177 -1 249 -113t72 -305v-571h-164v543q0 133 -24 191t-67 81t-109 23q-221 0 -239 -275q-3 -45 -4 -106v-457h-163v963h163z" />
    <glyph glyph-name="o" unicode="o" horiz-adv-x="1150" 
d="M575 -27q-211 1 -358 147t-147 359t146 361t359 149q213 0 359 -148q146 -147 147 -361t-147 -360t-359 -147zM575 838q-149 0 -245 -104t-96 -253q0 -150 94 -253q96 -103 248 -103t246 103q95 103 96 253q0 149 -96 253t-247 104z" />
    <glyph glyph-name="p" unicode="p" horiz-adv-x="1181" 
d="M621 838q-142 0 -230 -104t-88 -248t85 -253q86 -109 234 -109t233 106t85 256t-88 251q-89 101 -231 101zM311 963v-138h4q123 164 330 164q207 -1 335 -151t128 -361t-126 -357t-335 -146t-332 161h-4v-676h-164v1504h164z" />
    <glyph glyph-name="q" unicode="q" horiz-adv-x="1181" 
d="M560 838q-142 0 -230 -104t-88 -248t85 -253t233 -109t234 106q85 106 85 256t-88 251q-89 101 -231 101zM1034 963v-1504h-164v676h-4q-124 -162 -332 -162q-208 1 -334 147t-126 357t127 362t335 151t330 -165h4v138h164z" />
    <glyph glyph-name="r" unicode="r" horiz-adv-x="686" 
d="M311 963v-105h4q51 68 95 100t116 31q70 0 150 -45l-78 -149q-63 43 -98 43q-188 0 -189 -357v-481h-164v963h164z" />
    <glyph glyph-name="s" unicode="s" horiz-adv-x="817" 
d="M413 838q-44 0 -81 -31t-37 -78q0 -82 158 -139q65 -24 131 -56t112 -94t45 -153q0 -135 -95 -225t-224 -89q-129 0 -218 65t-128 179l145 62q35 -76 78 -115t115 -39t116 41t43 102q0 106 -153 167q-62 25 -126 55t-110 86t-45 141q0 121 84 197q85 76 185 75
q100 0 170 -50t104 -128l-137 -72q-18 41 -53 70t-79 29z" />
    <glyph glyph-name="t" unicode="t" horiz-adv-x="491" 
d="M328 811v-811h-164v811h-101v152h101v346h164v-346h172v-152h-172z" />
    <glyph glyph-name="u" unicode="u" horiz-adv-x="1048" 
d="M307 963v-537q0 -178 53 -239t164 -62q159 0 198 126q19 61 19 175v537h164v-555q0 -434 -381 -435q-381 0 -381 435v555h164z" />
    <glyph glyph-name="v" unicode="v" horiz-adv-x="948" 
d="M188 963l287 -648l287 648h184l-471 -1026l-473 1026h186z" />
    <glyph glyph-name="w" unicode="w" horiz-adv-x="1556" 
d="M193 963l284 -652l299 725l301 -725l287 652h186l-477 -1031l-297 717l-297 -717l-473 1031h187z" />
    <glyph glyph-name="x" unicode="x" horiz-adv-x="1019" 
d="M412 512l-351 451h201l252 -328l252 328h205l-353 -451l400 -512h-199l-305 391l-307 -391h-205z" />
    <glyph glyph-name="y" unicode="y" horiz-adv-x="1019" 
d="M438 90l-442 873h190l340 -691l312 691h186l-711 -1504h-186z" />
    <glyph glyph-name="z" unicode="z" horiz-adv-x="1062" 
d="M1016 152v-152h-996l695 811h-565v152h894l-692 -811h664z" />
    <glyph glyph-name="braceleft" unicode="{" horiz-adv-x="684" 
d="M258 954v383q0 115 60 196t114 81h150v-152h-82q-50 0 -62 -35t-12 -120v-387q0 -171 -61 -255q-61 -85 -95 -104q32 -20 75 -79q81 -112 81 -281v-385q0 -129 32 -147q16 -9 42 -9h82v-152h-150q-53 0 -114 81q-60 81 -60 196v381q0 152 -29 226t-125 104v131
q96 31 125 105t29 222z" />
    <glyph glyph-name="bar" unicode="|" horiz-adv-x="1167" 
d="M664 1610v-2048h-160v2048h160z" />
    <glyph glyph-name="braceright" unicode="}" horiz-adv-x="684" 
d="M426 166v-381q0 -115 -60 -196t-114 -81h-150v152h82q51 0 63 35q11 35 11 121v385q0 168 61 254t95 106q-32 20 -75 79q-79 109 -81 280v387q0 128 -32 146q-16 9 -42 9h-82v152h150q54 0 114 -81t60 -196v-383q0 -152 29 -224t125 -103v-131q-96 -31 -125 -104
t-29 -226z" />
    <glyph glyph-name="asciitilde" unicode="~" 
d="M420 711q93 0 290 -138q91 -65 132 -65t81 55t64 144l139 -58q-102 -301 -284 -301q-77 0 -246 115q-25 16 -36 23l-55 35t-85 28q-83 0 -144 -197l-141 58q109 301 285 301z" />
    <glyph glyph-name="Euro" 
d="M805 133q125 0 196 25q53 14 168 90v-185q-150 -88 -358 -88q-287 0 -454 166t-212 430h-147l33 111h100q-2 14 -2 41v86h-131l33 111h108q39 285 209 468t463 183q244 0 399 -131l-41 -154q-93 72 -163 98t-205 27q-211 0 -333 -139t-157 -352h762l-35 -111h-737v-37
q0 -29 4 -90h701l-35 -111h-649q39 -195 153 -307q125 -131 330 -131z" />
    <glyph glyph-name="Euro" unicode="&#x20ac;" 
d="M805 133q125 0 196 25q53 14 168 90v-185q-150 -88 -358 -88q-287 0 -454 166t-212 430h-147l33 111h100q-2 14 -2 41v86h-131l33 111h108q39 285 209 468t463 183q244 0 399 -131l-41 -154q-93 72 -163 98t-205 27q-211 0 -333 -139t-157 -352h762l-35 -111h-737v-37
q0 -29 4 -90h701l-35 -111h-649q39 -195 153 -307q125 -131 330 -131z" />
    <glyph glyph-name="Zcaron" horiz-adv-x="1200" 
d="M1135 160v-160h-1106l841 1384h-735v160h1022l-844 -1384h822zM946 1948l-319 -273l-324 273l119 92l205 -174l202 174z" />
    <glyph glyph-name="Zcaron" unicode="&#x17d;" horiz-adv-x="1200" 
d="M1135 160v-160h-1106l841 1384h-735v160h1022l-844 -1384h822zM946 1948l-319 -273l-324 273l119 92l205 -174l202 174z" />
    <glyph glyph-name="zcaron" horiz-adv-x="1062" 
d="M1016 152v-152h-996l695 811h-565v152h894l-692 -811h664zM885 1417l-320 -272l-323 272l118 92l205 -174l203 174z" />
    <glyph glyph-name="zcaron" unicode="&#x17e;" horiz-adv-x="1062" 
d="M1016 152v-152h-996l695 811h-565v152h894l-692 -811h664zM885 1417l-320 -272l-323 272l118 92l205 -174l203 174z" />
    <glyph glyph-name="nbspace" unicode="&#xa0;" horiz-adv-x="630" 
 />
    <glyph glyph-name="exclamdown" unicode="&#xa1;" horiz-adv-x="692" 
d="M346 989q47 0 81 -33q34 -34 34 -80t-34 -81t-81 -35t-81 35t-34 82t34 79t81 33zM430 649v-1231h-168v1231h168z" />
    <glyph glyph-name="cent" unicode="&#xa2;" 
d="M1006 985h-5q-106 135 -241 156v-705q141 20 246 164h4v-219q-133 -88 -250 -96v-230h-135v232q-179 21 -305 165t-126 332t121 333q121 146 310 171v217h135v-213q131 -12 246 -90v-217zM362 789q0 -125 71 -225t192 -126v699q-117 -25 -190 -124t-73 -224z" />
    <glyph glyph-name="sterling" unicode="&#xa3;" 
d="M166 549v131h205l-39 76q-68 113 -96 194q-35 103 -35 183q0 186 134 312q133 126 327 126t319 -132t125 -331l-168 -45q0 147 -68 245t-196 99q-128 0 -213 -81q-84 -81 -84 -198q0 -74 30 -148q29 -74 81 -165q52 -90 71 -135h291v-131h-246q14 -53 14 -92
q0 -111 -67 -221l10 -5q238 -88 289 -88t90 27q39 26 57 52t47 75l140 -84q-49 -104 -130 -171q-82 -67 -182 -67q-100 -1 -256 59t-223 60q-113 0 -184 -125l-133 90q121 197 299 199q66 92 65 191q0 55 -14 100h-260z" />
    <glyph glyph-name="currency" unicode="&#xa4;" 
d="M1153 614q0 -156 -109 -323l82 -82l-73 -74l-86 86q-168 -119 -336 -119t-336 119l-86 -86l-74 74l82 82q-109 167 -109 323t109 324l-82 82l74 74l86 -86q335 237 672 0l86 86l73 -74l-82 -82q109 -168 109 -324zM631 233q159 0 273 113q114 112 118 272t-108 266
t-283 111q-170 -4 -283 -110q-112 -107 -108 -267t118 -272t273 -113z" />
    <glyph glyph-name="yen" unicode="&#xa5;" 
d="M545 0v524h-486v131h486l-113 205h-373v131h297l-317 553h199l393 -684l393 684h199l-318 -553h297v-131h-373l-112 -205h485v-131h-485v-524h-172z" />
    <glyph glyph-name="brokenbar" unicode="&#xa6;" horiz-adv-x="1167" 
d="M664 330v-512h-160v512h160zM664 1354v-512h-160v512h160z" />
    <glyph glyph-name="section" unicode="&#xa7;" horiz-adv-x="1212" 
d="M834 598q0 92 -68 158t-161 67t-159 -65t-66 -159t68 -161q66 -68 158 -68t160 68t68 160zM381 8q0 -238 209 -237q100 0 155 53t55 157t-75 155q-59 40 -162 77q-8 4 -97 40t-132 73q-125 96 -125 270q0 115 56 203t159 131q-180 90 -180 289q0 156 113 254
q114 98 274 98q84 0 166 -37q195 -88 200 -365h-163q-12 244 -205 244q-93 0 -155 -55q-62 -54 -62 -140q0 -152 154 -206q169 -58 284 -119q66 -35 110 -112t44 -189q0 -217 -216 -328q180 -92 181 -299q0 -162 -109 -257t-272 -95q-357 0 -373 395h166z" />
    <glyph glyph-name="dieresis" unicode="&#xa8;" horiz-adv-x="956" 
d="M276 1444q47 0 79 -32t32 -79t-32 -79t-79 -32q-46 0 -78 32t-32 79t32 79t78 32zM680 1444q47 0 79 -32t32 -79t-32 -79t-79 -32t-79 32t-32 79t32 79t79 32z" />
    <glyph glyph-name="copyright" unicode="&#xa9;" horiz-adv-x="1638" 
d="M819 -27q-336 1 -569 233t-234 566q0 334 234 566t569 232t569 -232t234 -566t-234 -566t-569 -233zM819 96q279 0 479 198t201 478q0 280 -201 478q-202 198 -480 198t-478 -198t-201 -478q1 -280 201 -478t479 -198zM848 1116q-154 0 -237 -100t-83 -240t87 -236
q87 -97 237 -98q201 0 250 187h125q-19 -139 -125 -225t-250 -85q-199 1 -323 133q-123 132 -123 330t120 328q121 129 324 129q144 0 246 -81t131 -222h-125q-18 86 -85 133t-169 47z" />
    <glyph glyph-name="ordfeminine" unicode="&#xaa;" horiz-adv-x="708" 
d="M565 1268q-1 92 -57 152t-149 61q-93 -1 -151 -63t-58 -149t55 -153t152 -66t153 64q55 62 55 154zM668 1554v-577h-107v80h-4q-80 -96 -215 -96t-217 89t-82 216t82 216t217 89t215 -98h4v81h107z" />
    <glyph glyph-name="guillemotleft" unicode="&#xab;" horiz-adv-x="1024" 
d="M608 492l277 -340l-109 -84l-344 424l344 436l109 -86zM260 492l277 -340l-109 -84l-344 424l344 436l109 -86z" />
    <glyph glyph-name="logicalnot" unicode="&#xac;" 
d="M967 211v393h-832v160h991v-553h-159z" />
    <glyph glyph-name="hyphen" unicode="&#xad;" horiz-adv-x="425" 
d="M4 569h420v-151h-420v151z" />
    <glyph glyph-name="hyphen" unicode="&#x2010;" horiz-adv-x="425" 
d="M4 569h420v-151h-420v151z" />
    <glyph glyph-name="registered" unicode="&#xae;" horiz-adv-x="1638" 
d="M819 -27q-336 1 -569 233t-234 566q0 334 234 566t569 232t569 -232t234 -566t-234 -566t-569 -233zM819 96q279 0 479 198t201 478q0 280 -201 478q-202 198 -480 198t-478 -198t-201 -478q1 -280 201 -478t479 -198zM643 743v-403h-123v874h381q311 0 311 -230
t-276 -241l264 -403h-147l-262 403h-148zM643 866h148q8 0 49 -1t92 2t72 12q22 10 45 22q39 20 41 84q0 106 -213 107h-234v-226z" />
    <glyph glyph-name="macron" unicode="&#xaf;" horiz-adv-x="1021" 
d="M162 1397h700v-140h-700v140z" />
    <glyph glyph-name="degree" unicode="&#xb0;" horiz-adv-x="819" 
d="M717 1263q0 -126 -90 -216q-90 -91 -217 -91t-217 90t-91 218q0 127 89 217t217 90t219 -91q90 -91 90 -217zM201 1263q0 -87 60 -147q59 -60 147 -61q88 1 149 61t61 147t-61 148t-148 61t-147 -60q-60 -62 -61 -149z" />
    <glyph glyph-name="plusminus" unicode="&#xb1;" 
d="M551 1020h160v-313h415v-160h-415v-314h-160v314h-416v160h416v313zM135 0v160h991v-160h-991z" />
    <glyph glyph-name="twosuperior" unicode="&#xb2;" horiz-adv-x="755" 
d="M702 735v-106h-649l469 512q58 65 58 149t-52 129t-140 45q-87 0 -137 -49t-50 -131h-123q4 123 91 205t220 82t223 -77t90 -199t-65 -193l-338 -367h403z" />
    <glyph glyph-name="threesuperior" unicode="&#xb3;" horiz-adv-x="755" 
d="M358 1169q82 0 135 38q52 38 52 107q0 70 -50 110t-114 40q-137 0 -154 -137h-123q12 113 84 179t195 65q123 0 204 -71t81 -183q0 -63 -35 -119t-94 -84q71 -29 107 -90t36 -137q0 -129 -86 -202t-217 -73t-218 72t-87 184h123q0 -70 50 -110t130 -39q80 0 131 49
t51 127t-54 125q-55 47 -147 43v106z" />
    <glyph glyph-name="acute" unicode="&#xb4;" horiz-adv-x="733" 
d="M403 1524l172 -78l-313 -316l-102 58z" />
    <glyph glyph-name="mu" unicode="&#xb5;" horiz-adv-x="1048" 
d="M307 963v-537q0 -178 53 -239t164 -62q159 0 198 126q19 61 19 175v537h164v-555q0 -434 -381 -435q-59 1 -107 19t-110 78v-611h-164v1504h164z" />
    <glyph glyph-name="paragraph" unicode="&#xb6;" horiz-adv-x="1212" 
d="M1094 1544v-133h-119v-1724h-133v1724h-166v-1724h-133v893q-176 0 -291 116t-129 317q-14 199 114 365t324 166h533z" />
    <glyph glyph-name="periodcentered" unicode="&#xb7;" horiz-adv-x="630" 
d="M315 637q47 0 81 -33t34 -80t-34 -82q-34 -34 -81 -34t-81 34t-33 82q0 47 33 80q34 33 81 33z" />
    <glyph glyph-name="periodcentered" unicode="&#x22c5;" horiz-adv-x="630" 
d="M315 637q47 0 81 -33t34 -80t-34 -82q-34 -34 -81 -34t-81 34t-33 82q0 47 33 80q34 33 81 33z" />
    <glyph glyph-name="periodcentered" unicode="&#x2219;" horiz-adv-x="630" 
d="M315 637q47 0 81 -33t34 -80t-34 -82q-34 -34 -81 -34t-81 34t-33 82q0 47 33 80q34 33 81 33z" />
    <glyph glyph-name="cedilla" unicode="&#xb8;" horiz-adv-x="665" 
d="M508 -109l-234 -299l-114 58l196 303z" />
    <glyph glyph-name="onesuperior" unicode="&#xb9;" horiz-adv-x="755" 
d="M399 1448h-166l60 106h229v-925h-123v819z" />
    <glyph glyph-name="ordmasculine" unicode="&#xba;" horiz-adv-x="690" 
d="M346 961q-137 0 -233 88q-97 88 -97 216t96 217t233 89q139 0 235 -90t96 -217t-96 -215t-234 -88zM346 1481q-96 -1 -160 -63t-63 -153q0 -91 62 -153q63 -62 161 -61q98 0 161 61q62 60 62 152q1 92 -63 154t-160 63z" />
    <glyph glyph-name="guillemotright" unicode="&#xbb;" horiz-adv-x="1024" 
d="M139 152l277 340l-277 350l109 86l344 -436l-344 -424zM487 152l277 340l-277 350l109 86l344 -436l-344 -424z" />
    <glyph glyph-name="onequarter" unicode="&#xbc;" horiz-adv-x="1892" 
d="M371 1448h-166l59 106h230v-925h-123v819zM1565 256h123v-106h-123v-150h-123v150h-502l625 829v-723zM1442 256v389h-4l-291 -389h295zM1327 1571l90 -49l-899 -1549l-90 50z" />
    <glyph glyph-name="onehalf" unicode="&#xbd;" horiz-adv-x="1892" 
d="M371 1448h-166l59 106h230v-925h-123v819zM1688 106v-106h-650l469 512q57 66 57 150t-52 129t-139 45t-137 -50t-50 -131h-123q4 123 91 205t220 82t223 -77q91 -77 91 -199t-66 -193l-338 -367h404zM1235 1571l90 -49l-899 -1549l-90 50z" />
    <glyph glyph-name="threequarters" unicode="&#xbe;" horiz-adv-x="1892" 
d="M1606 256h123v-106h-123v-150h-123v150h-502l625 829v-723zM1483 256v389h-4l-291 -389h295zM1446 1571l90 -49l-899 -1549l-90 50zM449 1169q82 0 134 38t52 107q0 70 -50 110t-114 40q-137 0 -154 -137h-122q12 113 84 179q73 66 195 65q122 0 203 -71t81 -183
q0 -63 -35 -119t-94 -84q71 -29 107 -90t36 -137q0 -129 -86 -202t-217 -73t-218 72t-87 184h123q0 -70 50 -110t130 -39q80 0 131 49t51 127t-54 125t-146 43v106z" />
    <glyph glyph-name="questiondown" unicode="&#xbf;" horiz-adv-x="999" 
d="M334 299h-166q-4 150 91 252t241 102t240 -96q96 -97 96 -231t-74 -206t-207 -114q-12 -4 -48 -15q-110 -34 -147 -66q-36 -33 -44 -51q-22 -53 -21 -103q0 -93 59 -153q58 -60 148 -60t147 58t58 144q0 49 -13 99h170l8 -109q0 -156 -110 -253t-266 -97t-263 106
q-106 106 -106 270q0 238 225 335q20 8 53 18t63 22q30 11 42 11q158 43 158 170q0 70 -50 117t-124 47q-76 0 -118 -56t-42 -141zM504 989q47 0 81 -34q33 -34 33 -81q0 -46 -34 -80t-80 -34q-47 0 -81 34t-34 80t34 81q34 34 81 34z" />
    <glyph glyph-name="Agrave" unicode="&#xc0;" horiz-adv-x="1431" 
d="M1229 0l-508 1217l-520 -1217h-189l713 1618l694 -1618h-190zM428 1976l172 78l244 -336l-103 -57z" />
    <glyph glyph-name="Aacute" unicode="&#xc1;" horiz-adv-x="1431" 
d="M1047 438h-660l-186 -438h-189l713 1618l694 -1618h-190zM979 598l-258 619l-264 -619h522zM836 2054l172 -78l-314 -315l-102 57z" />
    <glyph glyph-name="Acircumflex" unicode="&#xc2;" horiz-adv-x="1431" 
d="M1047 438h-660l-186 -438h-189l713 1618l694 -1618h-190zM979 598l-258 619l-264 -619h522zM395 1767l320 273l323 -273l-118 -92l-205 174l-203 -174z" />
    <glyph glyph-name="Atilde" unicode="&#xc3;" horiz-adv-x="1431" 
d="M1229 0l-508 1217l-520 -1217h-189l713 1618l694 -1618h-190zM864 1882q63 0 115 98l96 -77q-31 -72 -88 -119t-121 -47t-163 46q-100 46 -145 46t-75 -47q-10 -16 -24 -47l-101 80q31 51 55 81q25 30 65 55q93 59 255 -22q106 -47 131 -47z" />
    <glyph glyph-name="Adieresis" unicode="&#xc4;" horiz-adv-x="1431" 
d="M1047 438h-660l-186 -438h-189l713 1618l694 -1618h-190zM979 598l-258 619l-264 -619h522zM514 1974q47 0 79 -32t32 -78q0 -47 -32 -79t-79 -32t-79 32t-32 79q0 46 32 78t79 32zM918 1974q46 0 78 -32t32 -78q0 -47 -32 -79t-78 -32t-79 32q-32 32 -32 79q0 46 32 78
t79 32z" />
    <glyph glyph-name="Aring" unicode="&#xc5;" horiz-adv-x="1431" 
d="M1047 438h-660l-186 -438h-189l713 1618l694 -1618h-190zM979 598l-258 619l-264 -619h522zM719 2060q82 0 140 -58q59 -58 59 -141t-58 -141t-141 -59q-84 0 -142 58q-59 57 -59 141t60 142t141 58zM719 1958q-41 0 -70 -28t-29 -68t30 -70q28 -29 69 -29t69 29t27 70
q1 40 -27 68t-69 28z" />
    <glyph glyph-name="AE" unicode="&#xc6;" horiz-adv-x="2048" 
d="M1044 434h-659l-182 -434h-191l688 1544h678l70 -160h-625l193 -460h608l72 -160h-611l252 -604h627l68 -160h-805zM975 594l-254 608l-262 -608h516z" />
    <glyph glyph-name="Ccedilla" unicode="&#xc7;" horiz-adv-x="1468" 
d="M872 1411q-266 0 -449 -191q-183 -192 -183 -448t184 -447t444 -191t465 204v-213q-209 -152 -461 -152q-328 -1 -566 233t-238 563t236 565t568 237q256 0 461 -152v-213q-195 205 -461 205zM909 -109l-233 -299l-115 58l197 303z" />
    <glyph glyph-name="Egrave" unicode="&#xc8;" horiz-adv-x="1093" 
d="M156 0v1544h800v-160h-628v-458h610v-160h-610v-606h628v-160h-800zM289 1976l172 78l244 -336l-103 -57z" />
    <glyph glyph-name="Eacute" unicode="&#xc9;" horiz-adv-x="1093" 
d="M156 0v1544h800v-160h-628v-458h610v-160h-610v-606h628v-160h-800zM666 2054l172 -78l-314 -315l-102 57z" />
    <glyph glyph-name="Ecircumflex" unicode="&#xca;" horiz-adv-x="1093" 
d="M156 0v1544h800v-160h-628v-458h610v-160h-610v-606h628v-160h-800zM225 1767l320 273l323 -273l-118 -92l-205 174l-203 -174z" />
    <glyph glyph-name="Edieresis" unicode="&#xcb;" horiz-adv-x="1093" 
d="M156 0v1544h800v-160h-628v-458h610v-160h-610v-606h628v-160h-800zM346 1974q47 0 79 -32t32 -78q0 -47 -32 -79t-79 -32t-79 32t-31 79q0 47 31 79q32 31 79 31zM750 1974q46 0 78 -32t32 -78q0 -47 -32 -79t-78 -32t-79 32q-32 32 -32 79q0 46 32 78t79 32z" />
    <glyph glyph-name="Igrave" unicode="&#xcc;" horiz-adv-x="489" 
d="M332 1544v-1544h-172v1544h172zM-12 1976l172 78l243 -336l-102 -57z" />
    <glyph glyph-name="Iacute" unicode="&#xcd;" horiz-adv-x="489" 
d="M332 1544v-1544h-172v1544h172zM334 2054l172 -78l-313 -315l-103 57z" />
    <glyph glyph-name="Icircumflex" unicode="&#xce;" horiz-adv-x="489" 
d="M332 1544v-1544h-172v1544h172zM-76 1767l320 273l323 -273l-118 -92l-205 174l-203 -174z" />
    <glyph glyph-name="Idieresis" unicode="&#xcf;" horiz-adv-x="489" 
d="M332 1544v-1544h-172v1544h172zM43 1974q47 0 79 -32t32 -78q0 -47 -32 -79t-79 -32t-79 32t-32 79q0 46 32 78t79 32zM446 1974q47 0 79 -32t32 -78q0 -47 -32 -79t-79 -32q-46 0 -78 32t-32 79q0 46 32 78t78 32z" />
    <glyph glyph-name="Eth" unicode="&#xd0;" horiz-adv-x="1388" 
d="M156 0v758h-156v147h156v639h290q193 0 334 -39t269 -147q256 -222 256 -580t-252 -583q-129 -115 -269 -155t-342 -40h-286zM328 160h125q159 0 273 34t214 125q193 180 193 460t-201 456q-98 88 -212 119t-267 30h-125v-479h274v-147h-274v-598z" />
    <glyph glyph-name="Ntilde" unicode="&#xd1;" horiz-adv-x="1708" 
d="M166 0v1610l1204 -1262v1196h172v-1614l-1204 1260v-1190h-172zM1001 1882q63 0 115 98l96 -77q-31 -72 -88 -119q-56 -47 -120 -47t-164 46t-146 46t-73 -47q-11 -16 -25 -47l-100 80q30 51 54 81q111 139 320 33q106 -47 131 -47z" />
    <glyph glyph-name="Ograve" unicode="&#xd2;" horiz-adv-x="1765" 
d="M883 1571q333 -1 569 -235t236 -566t-237 -564t-569 -232t-568 232q-237 232 -236 564q0 332 236 566t569 235zM883 1411q-265 0 -449 -187q-184 -186 -184 -450t185 -452t447 -188t448 188t186 451t-184 451t-449 187zM594 1976l172 78l244 -336l-103 -57z" />
    <glyph glyph-name="Oacute" unicode="&#xd3;" horiz-adv-x="1765" 
d="M883 1571q333 -1 569 -235t236 -566t-237 -564t-569 -232t-568 232q-237 232 -236 564q0 332 236 566t569 235zM883 1411q-265 0 -449 -187q-184 -186 -184 -450t185 -452t447 -188t448 188t186 451t-184 451t-449 187zM1001 2054l173 -78l-314 -315l-102 57z" />
    <glyph glyph-name="Ocircumflex" unicode="&#xd4;" horiz-adv-x="1765" 
d="M883 1571q333 -1 569 -235t236 -566t-237 -564t-569 -232t-568 232q-237 232 -236 564q0 332 236 566t569 235zM883 1411q-265 0 -449 -187q-184 -186 -184 -450t185 -452t447 -188t448 188t186 451t-184 451t-449 187zM561 1767l320 273l323 -273l-119 -92l-204 174
l-203 -174z" />
    <glyph glyph-name="Otilde" unicode="&#xd5;" horiz-adv-x="1765" 
d="M883 1571q333 -1 569 -235t236 -566t-237 -564t-569 -232t-568 232q-237 232 -236 564q0 332 236 566t569 235zM883 1411q-265 0 -449 -187q-184 -186 -184 -450t185 -452t447 -188t448 188t186 451t-184 451t-449 187zM1030 1882q63 0 115 98l96 -77q-31 -72 -88 -119
t-121 -47t-164 46t-144 46t-75 -47q-10 -16 -24 -47l-101 80q31 51 55 81q25 30 65 55q93 59 255 -22q106 -47 131 -47z" />
    <glyph glyph-name="Odieresis" unicode="&#xd6;" horiz-adv-x="1765" 
d="M883 1571q333 -1 569 -235t236 -566t-237 -564t-569 -232t-568 232q-237 232 -236 564q0 332 236 566t569 235zM883 1411q-265 0 -449 -187q-184 -186 -184 -450t185 -452t447 -188t448 188t186 451t-184 451t-449 187zM682 1974q47 0 79 -32t32 -78q0 -47 -32 -79
t-79 -32t-79 32t-32 79q0 46 32 78t79 32zM1085 1974q47 0 79 -32t32 -78q0 -47 -32 -79t-79 -32t-79 32t-31 79q-1 46 31 78t79 32z" />
    <glyph glyph-name="multiply" unicode="&#xd7;" 
d="M135 907l113 113l383 -383l381 383l114 -113l-383 -383l383 -383l-114 -112l-381 383l-383 -383l-113 112l383 383z" />
    <glyph glyph-name="Oslash" unicode="&#xd8;" horiz-adv-x="1765" 
d="M883 1411q-265 0 -449 -187t-184 -452q0 -225 137 -395l895 893q-170 141 -399 141zM899 133q246 1 431 189t186 450q-1 224 -142 404l-895 -893q174 -150 420 -150zM78 770q0 332 236 566q237 234 569 235q291 0 514 -187l188 187l94 -92l-188 -187q197 -222 197 -538
t-237 -548t-552 -232t-539 190l-184 -184l-90 96l182 182q-190 219 -190 512z" />
    <glyph glyph-name="Ugrave" unicode="&#xd9;" horiz-adv-x="1402" 
d="M324 1544v-1007q0 -273 202 -365q86 -39 174 -39t170 36t136 101q76 92 75 262v1012h172v-966q1 -144 -25 -242t-110 -186q-164 -176 -411 -176t-404 157q-92 89 -122 191t-29 256v966h172zM414 1976l172 78l243 -336l-102 -57z" />
    <glyph glyph-name="Uacute" unicode="&#xda;" horiz-adv-x="1402" 
d="M324 1544v-1007q0 -273 202 -365q86 -39 174 -39t170 36t136 101q76 92 75 262v1012h172v-966q1 -144 -25 -242t-110 -186q-164 -176 -411 -176t-404 157q-92 89 -122 191t-29 256v966h172zM821 2054l172 -78l-313 -315l-102 57z" />
    <glyph glyph-name="Ucircumflex" unicode="&#xdb;" horiz-adv-x="1402" 
d="M324 1544v-1007q0 -273 202 -365q86 -39 174 -39t170 36t136 101q76 92 75 262v1012h172v-966q1 -144 -25 -242t-110 -186q-164 -176 -411 -176t-404 157q-92 89 -122 191t-29 256v966h172zM381 1767l319 273l324 -273l-119 -92l-205 174l-202 -174z" />
    <glyph glyph-name="Udieresis" unicode="&#xdc;" horiz-adv-x="1402" 
d="M324 1544v-1007q0 -273 202 -365q86 -39 174 -39t170 36t136 101q76 92 75 262v1012h172v-966q1 -144 -25 -242t-110 -186q-164 -176 -411 -176t-404 157q-92 89 -122 191t-29 256v966h172zM500 1974q47 0 79 -32q31 -32 31 -78q0 -47 -32 -79t-78 -32q-47 0 -79 32
t-32 79q0 46 32 78t79 32zM903 1974q47 0 79 -32t32 -78q0 -47 -32 -79t-79 -32t-79 32t-31 79q0 47 31 79q32 31 79 31z" />
    <glyph glyph-name="Yacute" unicode="&#xdd;" horiz-adv-x="1214" 
d="M694 0h-172v664l-506 880h199l393 -688l393 688h199l-506 -880v-664zM768 2054l172 -78l-313 -315l-103 57z" />
    <glyph glyph-name="Thorn" unicode="&#xde;" horiz-adv-x="1030" 
d="M328 389v-389h-172v1544h172v-287h82q262 0 383 -81q84 -58 129 -152t45 -201q0 -209 -148 -331q-121 -102 -366 -103h-125zM328 1098v-549h114q352 0 353 278q0 201 -177 247q-91 24 -227 24h-63z" />
    <glyph glyph-name="germandbls" unicode="&#xdf;" horiz-adv-x="1181" 
d="M147 0v811h-90v152h90v294q0 217 80 316q111 143 326 143q168 0 283 -110t114 -275q0 -96 -45 -177t-127 -122q150 -53 240 -192t90 -301q0 -236 -174 -399t-414 -167v152q176 12 298 129t122 291q0 88 -39 169t-106 134q-102 76 -275 90v152q117 0 192 68q74 68 74 174
q0 107 -66 170q-67 62 -154 62q-181 1 -228 -122q-27 -61 -27 -260v-1182h-164z" />
    <glyph glyph-name="agrave" unicode="&#xe0;" horiz-adv-x="1181" 
d="M560 838q-142 0 -230 -104t-88 -248t85 -253t233 -109t234 106q85 106 85 256t-88 251q-89 101 -231 101zM1034 963v-963h-164v133h-4q-126 -160 -332 -160q-206 1 -333 149t-127 359t127 359t334 149q207 0 331 -164h4v138h164zM303 1446l172 78l244 -336l-103 -58z" />
    <glyph glyph-name="aacute" unicode="&#xe1;" horiz-adv-x="1181" 
d="M560 838q-142 0 -230 -104t-88 -248t85 -253t233 -109t234 106q85 106 85 256t-88 251q-89 101 -231 101zM1034 963v-963h-164v133h-4q-126 -160 -332 -160q-206 1 -333 149t-127 359t127 359t334 149q207 0 331 -164h4v138h164zM711 1524l172 -78l-314 -316l-102 58z
" />
    <glyph glyph-name="acircumflex" unicode="&#xe2;" horiz-adv-x="1181" 
d="M560 838q-142 0 -230 -104t-88 -248t85 -253t233 -109t234 106q85 106 85 256t-88 251q-89 101 -231 101zM1034 963v-963h-164v133h-4q-126 -160 -332 -160q-206 1 -333 149t-127 359t127 359t334 149q207 0 331 -164h4v138h164zM270 1237l320 272l323 -272l-118 -92
l-205 174l-203 -174z" />
    <glyph glyph-name="atilde" unicode="&#xe3;" horiz-adv-x="1181" 
d="M560 838q-142 0 -230 -104t-88 -248t85 -253t233 -109t234 106q85 106 85 256t-88 251q-89 101 -231 101zM1034 963v-963h-164v133h-4q-126 -160 -332 -160q-206 1 -333 149t-127 359t127 359t334 149q207 0 331 -164h4v138h164zM454 1446q60 0 154 -47q106 -47 131 -47
q63 0 115 98l96 -78q-31 -72 -88 -119q-56 -47 -120 -47t-164 46t-145 46t-75 -47q-10 -16 -24 -47l-101 80q31 51 55 81q24 29 64 55q42 26 102 26z" />
    <glyph glyph-name="adieresis" unicode="&#xe4;" horiz-adv-x="1181" 
d="M560 838q-142 0 -230 -104t-88 -248t85 -253t233 -109t234 106q85 106 85 256t-88 251q-89 101 -231 101zM1034 963v-963h-164v133h-4q-126 -160 -332 -160q-206 1 -333 149t-127 359t127 359t334 149q207 0 331 -164h4v138h164zM389 1444q47 0 79 -32t32 -79t-32 -79
t-79 -32t-79 32t-31 79q0 47 31 79q32 32 79 32zM793 1444q47 0 79 -32t31 -79q0 -47 -32 -79q-33 -32 -79 -32t-78 32t-32 79t32 79t79 32z" />
    <glyph glyph-name="aring" unicode="&#xe5;" horiz-adv-x="1181" 
d="M560 838q-142 0 -230 -104t-88 -248t85 -253t233 -109t234 106q85 106 85 256t-88 251q-89 101 -231 101zM1034 963v-963h-164v133h-4q-126 -160 -332 -160q-206 1 -333 149t-127 359t127 359t334 149q207 0 331 -164h4v138h164zM594 1530q82 0 140 -58t58 -142
q0 -83 -56 -141q-58 -59 -142 -59t-142 58t-58 142t58 142q60 58 142 58zM594 1427q-41 1 -70 -27q-28 -28 -28 -69t28 -69t70 -29q41 0 69 29q27 30 27 70t-27 68q-28 27 -69 27z" />
    <glyph glyph-name="ae" unicode="&#xe6;" horiz-adv-x="1726" 
d="M1208 838q-106 0 -192 -74t-101 -178h576q-16 106 -96 179q-81 73 -187 73zM467 457q-92 0 -168 -43t-76 -127t74 -123t171 -39t177 41t80 126t-83 125t-175 40zM899 446q0 -135 89 -228t226 -93q182 0 293 199l140 -80q-145 -270 -445 -271q-240 0 -368 191
q-108 -190 -348 -190q-239 0 -361 131q-66 73 -66 178q0 155 121 237t278 82t277 -82q0 317 -276 318q-115 0 -295 -62v156q194 57 308 57t212 -50t141 -148q55 94 157 146t216 52q223 0 345 -158t114 -385h-758z" />
    <glyph glyph-name="ccedilla" unicode="&#xe7;" horiz-adv-x="974" 
d="M870 676h-4q-127 162 -299 162q-145 0 -242 -106t-97 -252t91 -250q92 -104 240 -105q186 0 313 166h5v-219q-150 -98 -306 -99q-219 -1 -365 145t-146 361t150 363q151 148 363 147q164 0 297 -96v-217zM664 -109l-234 -299l-115 58l197 303z" />
    <glyph glyph-name="egrave" unicode="&#xe8;" horiz-adv-x="1062" 
d="M238 446q0 -135 89 -228t226 -93q182 0 293 199l139 -80q-145 -270 -444 -271q-213 -1 -342 141t-129 360t124 366t346 149q222 0 344 -159t109 -384h-755zM539 838q-105 0 -191 -74t-102 -178h575q-16 106 -96 179t-186 73zM244 1446l172 78l243 -336l-102 -58z" />
    <glyph glyph-name="eacute" unicode="&#xe9;" horiz-adv-x="1062" 
d="M238 446q0 -135 89 -228t226 -93q182 0 293 199l139 -80q-145 -270 -444 -271q-213 -1 -342 141t-129 360t124 366t346 149q222 0 344 -159t109 -384h-755zM539 838q-105 0 -191 -74t-102 -178h575q-16 106 -96 179t-186 73zM651 1524l172 -78l-313 -316l-102 58z" />
    <glyph glyph-name="ecircumflex" unicode="&#xea;" horiz-adv-x="1062" 
d="M238 446q0 -135 89 -228t226 -93q182 0 293 199l139 -80q-145 -270 -444 -271q-213 -1 -342 141t-129 360t124 366t346 149q222 0 344 -159t109 -384h-755zM539 838q-105 0 -191 -74t-102 -178h575q-16 106 -96 179t-186 73zM211 1237l319 272l324 -272l-119 -92
l-205 174l-202 -174z" />
    <glyph glyph-name="edieresis" unicode="&#xeb;" horiz-adv-x="1062" 
d="M238 446q0 -135 89 -228t226 -93q182 0 293 199l139 -80q-145 -270 -444 -271q-213 -1 -342 141t-129 360t124 366t346 149q222 0 344 -159t109 -384h-755zM539 838q-105 0 -191 -74t-102 -178h575q-16 106 -96 179t-186 73zM330 1444q47 0 79 -32q31 -32 31 -79t-32 -79
t-78 -32q-47 0 -79 32t-32 79t32 79t79 32zM733 1444q47 0 79 -32t32 -79t-32 -79t-79 -32t-79 32t-31 79q0 47 31 79q32 32 79 32z" />
    <glyph glyph-name="igrave" unicode="&#xec;" horiz-adv-x="536" 
d="M350 963v-963h-164v963h164zM10 1446l172 78l244 -336l-102 -58z" />
    <glyph glyph-name="iacute" unicode="&#xed;" horiz-adv-x="536" 
d="M350 963v-963h-164v963h164zM356 1524l172 -78l-313 -316l-102 58z" />
    <glyph glyph-name="icircumflex" unicode="&#xee;" horiz-adv-x="536" 
d="M350 963v-963h-164v963h164zM-53 1237l319 272l324 -272l-119 -92l-205 174l-203 -174z" />
    <glyph glyph-name="idieresis" unicode="&#xef;" horiz-adv-x="536" 
d="M350 963v-963h-164v963h164zM68 1444q46 0 78 -32t32 -79t-32 -79t-78 -32t-79 32q-32 32 -32 79t32 79t79 32zM471 1444q47 0 79 -32t32 -79t-32 -79t-79 -32t-79 32t-32 79t32 79t79 32z" />
    <glyph glyph-name="eth" unicode="&#xf0;" horiz-adv-x="1148" 
d="M575 -25q-213 -1 -359 147t-146 354t138 358t351 151q117 0 196 -43l33 -18q12 -6 30 -20t24 -18q6 -5 22 -18l15 -14q-86 244 -347 489l-272 -182l-80 84l266 178q-100 89 -256 185l91 94q9 -6 37 -24t36 -23q8 -4 33 -21t46 -32t43 -30t33 -26q11 -10 25 -21t27 -24
l283 189l82 -84l-275 -185q192 -192 254 -306q37 -67 83 -161q93 -190 91 -430q0 -136 -47 -246q-82 -192 -282 -270q-86 -33 -175 -33zM236 480q0 -155 99 -254t245 -99t241 104q97 105 97 251t-96 252t-244 106t-245 -102t-97 -258z" />
    <glyph glyph-name="ntilde" unicode="&#xf1;" horiz-adv-x="1081" 
d="M319 963v-117h5q104 143 281 143q177 -1 249 -113t72 -305v-571h-164v543q0 133 -24 191t-67 81t-109 23q-221 0 -239 -275q-3 -45 -4 -106v-457h-163v963h163zM402 1446q60 0 155 -47q106 -47 131 -47q63 0 115 98l96 -78q-31 -72 -88 -119t-121 -47t-164 46t-144 46
t-75 -47q-10 -16 -24 -47l-101 80q31 51 55 81q25 29 65 55t100 26z" />
    <glyph glyph-name="ograve" unicode="&#xf2;" horiz-adv-x="1150" 
d="M575 -27q-211 1 -358 147t-147 359t146 361t359 149q213 0 359 -148q146 -147 147 -361t-147 -360t-359 -147zM575 838q-149 0 -245 -104t-96 -253q0 -150 94 -253q96 -103 248 -103t246 103q95 103 96 253q0 149 -96 253t-247 104zM287 1446l172 78l243 -336l-102 -58z
" />
    <glyph glyph-name="oacute" unicode="&#xf3;" horiz-adv-x="1150" 
d="M575 -27q-211 1 -358 147t-147 359t146 361t359 149q213 0 359 -148q146 -147 147 -361t-147 -360t-359 -147zM575 838q-149 0 -245 -104t-96 -253q0 -150 94 -253q96 -103 248 -103t246 103q95 103 96 253q0 149 -96 253t-247 104zM694 1524l172 -78l-313 -316l-102 58z
" />
    <glyph glyph-name="ocircumflex" unicode="&#xf4;" horiz-adv-x="1150" 
d="M575 -27q-211 1 -358 147t-147 359t146 361t359 149q213 0 359 -148q146 -147 147 -361t-147 -360t-359 -147zM575 838q-149 0 -245 -104t-96 -253q0 -150 94 -253q96 -103 248 -103t246 103q95 103 96 253q0 149 -96 253t-247 104zM254 1237l319 272l324 -272l-119 -92
l-205 174l-202 -174z" />
    <glyph glyph-name="otilde" unicode="&#xf5;" horiz-adv-x="1150" 
d="M575 -27q-211 1 -358 147t-147 359t146 361t359 149q213 0 359 -148q146 -147 147 -361t-147 -360t-359 -147zM575 838q-149 0 -245 -104t-96 -253q0 -150 94 -253q96 -103 248 -103t246 103q95 103 96 253q0 149 -96 253t-247 104zM438 1446q60 0 154 -47
q106 -47 131 -47q63 0 115 98l96 -78q-31 -72 -88 -119q-56 -47 -120 -47t-164 46t-145 46q-44 0 -75 -47q-11 -16 -25 -47l-100 80q31 51 54 81q65 81 167 81z" />
    <glyph glyph-name="odieresis" unicode="&#xf6;" horiz-adv-x="1150" 
d="M575 -27q-211 1 -358 147t-147 359t146 361t359 149q213 0 359 -148q146 -147 147 -361t-147 -360t-359 -147zM575 838q-149 0 -245 -104t-96 -253q0 -150 94 -253q96 -103 248 -103t246 103q95 103 96 253q0 149 -96 253t-247 104zM375 1444q47 0 79 -32t32 -79t-32 -79
t-79 -32t-79 32t-32 79t32 79t79 32zM778 1444q47 0 79 -32t32 -79t-32 -79t-79 -32t-79 32t-31 79q0 47 31 79q32 32 79 32z" />
    <glyph glyph-name="divide" unicode="&#xf7;" 
d="M135 444v160h991v-160h-991zM631 254q47 0 82 -35t35 -83t-35 -82t-82 -34t-82 34t-35 82t35 83t82 35zM631 1028q47 0 82 -35t35 -83t-35 -82t-82 -34t-82 34t-35 82t35 83t82 35z" />
    <glyph glyph-name="oslash" unicode="&#xf8;" horiz-adv-x="1150" 
d="M562 838q-138 0 -232 -104q-96 -104 -96 -238t59 -222l491 492q-84 72 -222 72zM591 125q136 0 231 103q95 102 95 236t-59 218l-487 -489q84 -68 220 -68zM562 989q200 0 333 -112l135 135l80 -78l-137 -137q109 -135 109 -333t-148 -344q-147 -146 -359 -147
q-174 0 -315 109l-139 -139l-80 80l139 139q-110 134 -110 332t146 346t346 149z" />
    <glyph glyph-name="ugrave" unicode="&#xf9;" horiz-adv-x="1048" 
d="M307 963v-537q0 -178 53 -239t164 -62q159 0 198 126q19 61 19 175v537h164v-555q0 -434 -381 -435q-381 0 -381 435v555h164zM236 1446l172 78l243 -336l-102 -58z" />
    <glyph glyph-name="uacute" unicode="&#xfa;" horiz-adv-x="1048" 
d="M307 963v-537q0 -178 53 -239t164 -62q159 0 198 126q19 61 19 175v537h164v-555q0 -434 -381 -435q-381 0 -381 435v555h164zM643 1524l172 -78l-313 -316l-103 58z" />
    <glyph glyph-name="ucircumflex" unicode="&#xfb;" horiz-adv-x="1048" 
d="M307 963v-537q0 -178 53 -239t164 -62q159 0 198 126q19 61 19 175v537h164v-555q0 -434 -381 -435q-381 0 -381 435v555h164zM203 1237l319 272l324 -272l-119 -92l-205 174l-203 -174z" />
    <glyph glyph-name="udieresis" unicode="&#xfc;" horiz-adv-x="1048" 
d="M307 963v-537q0 -178 53 -239t164 -62q159 0 198 126q19 61 19 175v537h164v-555q0 -434 -381 -435q-381 0 -381 435v555h164zM324 1444q46 0 78 -32t32 -79t-32 -79t-78 -32t-79 32q-32 32 -32 79t32 79t79 32zM727 1444q47 0 79 -32t32 -79t-32 -79t-79 -32t-79 32
t-32 79t32 79t79 32z" />
    <glyph glyph-name="yacute" unicode="&#xfd;" horiz-adv-x="1019" 
d="M438 90l-442 873h190l340 -691l312 691h186l-711 -1504h-186zM670 1524l172 -78l-314 -316l-102 58z" />
    <glyph glyph-name="thorn" unicode="&#xfe;" horiz-adv-x="1181" 
d="M311 1690v-865h4q123 164 330 164q207 -1 335 -151t128 -361t-126 -357t-335 -146t-332 161h-4v-676h-164v2231h164zM621 838q-142 0 -230 -104t-88 -248t85 -253q86 -109 234 -109t233 106t85 256t-88 251q-89 101 -231 101z" />
    <glyph glyph-name="ydieresis" unicode="&#xff;" horiz-adv-x="1019" 
d="M438 90l-442 873h190l340 -691l312 691h186l-711 -1504h-186zM319 1444q47 0 79 -32t32 -79t-32 -79t-79 -32t-79 32t-31 79q-1 47 31 79t79 32zM723 1444q47 0 79 -32t32 -79t-32 -79t-79 -32t-79 32t-32 79t32 79t79 32z" />
    <glyph glyph-name="OE" unicode="&#x152;" horiz-adv-x="2437" 
d="M1493 0v297h-4q-100 -154 -261 -240t-345 -84q-332 1 -569 233t-236 564q0 332 236 566q237 234 569 235q184 0 343 -87t263 -243h4v303h807v-160h-635v-458h616v-160h-616v-606h635v-160h-807zM883 1411q-265 0 -449 -187q-184 -186 -184 -450t185 -452t447 -188
t448 188t186 451t-184 451t-449 187z" />
    <glyph glyph-name="oe" unicode="&#x153;" horiz-adv-x="1925" 
d="M1096 446q0 -135 89 -228t226 -93q182 0 293 199l139 -80q-145 -270 -444 -271q-123 1 -234 63t-164 167q-59 -105 -177 -167t-249 -63q-211 1 -358 147t-147 359t146 361t359 149q139 -4 253 -64t173 -169q55 109 159 169t235 64q223 0 347 -159t113 -384h-759z
M1403 838q-105 0 -191 -74t-102 -178h576q-16 106 -96 179t-187 73zM580 838q-150 0 -246 -104t-96 -253q0 -150 95 -253t247 -103t246 103t96 253q0 149 -96 253t-246 104z" />
    <glyph glyph-name="Scaron" unicode="&#x160;" horiz-adv-x="1144" 
d="M585 1411q-99 0 -175 -68t-76 -169t86 -158q61 -43 155 -86l103 -45q178 -76 274 -172q96 -95 96 -279t-140 -322q-142 -138 -334 -138t-324 109q-131 110 -168 290l168 47q16 -121 102 -204t210 -83t219 87t95 223t-125 214q-49 32 -159 84l-94 41q-166 74 -251 159
t-85 248t127 273t305 109q130 -1 234 -63t165 -177l-137 -88q-52 86 -112 127t-159 41zM915 1948l-319 -273l-324 273l119 92l205 -174l203 174z" />
    <glyph glyph-name="scaron" unicode="&#x161;" horiz-adv-x="817" 
d="M413 838q-44 0 -81 -31t-37 -78q0 -82 158 -139q65 -24 131 -56t112 -94t45 -153q0 -135 -95 -225t-224 -89q-129 0 -218 65t-128 179l145 62q35 -76 78 -115t115 -39t116 41t43 102q0 106 -153 167q-62 25 -126 55t-110 86t-45 141q0 121 84 197q85 76 185 75
q100 0 170 -50t104 -128l-137 -72q-18 41 -53 70t-79 29zM731 1417l-319 -272l-324 272l119 92l205 -174l202 174z" />
    <glyph glyph-name="Ydieresis" unicode="&#x178;" horiz-adv-x="1214" 
d="M694 0h-172v664l-506 880h199l393 -688l393 688h199l-506 -880v-664zM430 1974q47 0 79 -32t32 -78q0 -47 -32 -79t-79 -32t-79 32t-32 79q0 46 32 78t79 32zM834 1974q46 0 78 -32t32 -78q0 -47 -32 -79t-78 -32t-79 32q-32 32 -32 79q0 46 32 78t79 32z" />
    <glyph glyph-name="florin" unicode="&#x192;" 
d="M969 1559q-94 0 -131 -66q-14 -29 -54 -186l-51 -279h246l-23 -139h-247l-119 -643q-2 -10 -11 -58t-13 -68q-4 -18 -15 -62q-27 -117 -72 -181q-111 -164 -366 -164l-103 8l33 154l70 -2q125 0 203 75q65 65 106 306l117 635h-168l22 139h172l58 324q29 174 102 269
q74 95 238 95q78 1 139 -26l-31 -154q-55 23 -102 23z" />
    <glyph glyph-name="circumflex" unicode="&#x2c6;" horiz-adv-x="962" 
d="M160 1237l319 272l324 -272l-119 -92l-205 174l-203 -174z" />
    <glyph glyph-name="tilde" unicode="&#x2dc;" horiz-adv-x="1036" 
d="M380 1446q60 0 155 -47q106 -47 131 -47q63 0 114 98l97 -78q-31 -72 -89 -119t-120 -47q-64 0 -164 46t-146 46t-73 -47q-11 -16 -25 -47l-100 80q31 51 54 81q64 81 166 81z" />
    <glyph glyph-name="endash" unicode="&#x2013;" horiz-adv-x="1024" 
d="M0 569h1024v-151h-1024v151z" />
    <glyph glyph-name="emdash" unicode="&#x2014;" horiz-adv-x="2048" 
d="M266 569h1516v-151h-1516v151z" />
    <glyph glyph-name="quoteleft" unicode="&#x2018;" horiz-adv-x="591" 
d="M276 993l-151 56l233 522l111 -43z" />
    <glyph glyph-name="quoteright" unicode="&#x2019;" horiz-adv-x="591" 
d="M315 1571l152 -55l-234 -523l-110 43z" />
    <glyph glyph-name="quotesinglbase" unicode="&#x201a;" horiz-adv-x="591" 
d="M317 225l152 -53l-233 -524l-111 45z" />
    <glyph glyph-name="quotedblleft" unicode="&#x201c;" horiz-adv-x="935" 
d="M621 993l-152 56l233 522l111 -43zM276 993l-151 56l233 522l111 -43z" />
    <glyph glyph-name="quotedblright" unicode="&#x201d;" horiz-adv-x="935" 
d="M317 1571l152 -55l-233 -523l-111 43zM662 1571l151 -55l-233 -523l-111 43z" />
    <glyph glyph-name="quotedblbase" unicode="&#x201e;" horiz-adv-x="950" 
d="M317 225l152 -53l-233 -524l-111 45zM676 225l151 -53l-233 -524l-111 45z" />
    <glyph glyph-name="dagger" unicode="&#x2020;" horiz-adv-x="1212" 
d="M522 1544h168v-379h342v-159h-342v-1340h-168v1340h-342v159h342v379z" />
    <glyph glyph-name="daggerdbl" unicode="&#x2021;" horiz-adv-x="1212" 
d="M522 1544h168v-379h342v-159h-342v-744h342v-160h-342v-436h-168v436h-342v160h342v744h-342v159h342v379z" />
    <glyph glyph-name="bullet" unicode="&#x2022;" horiz-adv-x="1212" 
d="M606 387q-160 0 -272 113q-112 112 -113 272q0 160 113 274q112 114 272 114t274 -114t114 -274t-114 -272t-274 -113z" />
    <glyph glyph-name="ellipsis" unicode="&#x2026;" horiz-adv-x="2048" 
d="M344 203q47 0 81 -33t34 -80t-34 -82t-81 -35t-81 35t-34 82t34 80t81 33zM1024 203q47 0 81 -33t34 -80t-34 -82t-81 -35t-81 35t-34 82t34 80t81 33zM1704 203q47 0 81 -33t34 -80t-34 -82t-81 -35t-81 35t-34 82t34 80t81 33z" />
    <glyph glyph-name="perthousand" unicode="&#x2030;" horiz-adv-x="2482" 
d="M414 1571q141 0 242 -98q102 -99 102 -239t-102 -238t-242 -99q-141 0 -243 97q-101 96 -101 238t101 241q102 98 243 98zM414 1440q-86 0 -150 -60t-63 -146q0 -85 63 -145q64 -61 150 -61t149 60t63 146t-62 146q-64 60 -150 60zM1227 1571l82 -49l-893 -1549l-88 54z
M1229 647q141 0 242 -98q101 -99 101 -239t-100 -238q-102 -98 -243 -98t-243 96q-102 98 -101 239q0 141 101 240q102 98 243 98zM1229 516q-85 0 -149 -60t-64 -146t63 -145q63 -61 149 -61t150 60t64 146t-64 146t-149 60zM2068 647q140 0 242 -98q102 -99 102 -239
t-100 -238q-102 -98 -244 -98t-242 96q-101 98 -102 239q0 141 102 239t242 99zM2068 516q-86 0 -149 -60t-63 -146t62 -145q64 -61 150 -61t150 60t63 146q0 85 -63 146q-64 60 -150 60z" />
    <glyph glyph-name="guilsinglleft" unicode="&#x2039;" horiz-adv-x="675" 
d="M260 492l277 -340l-109 -84l-344 424l344 436l109 -86z" />
    <glyph glyph-name="guilsinglright" unicode="&#x203a;" horiz-adv-x="675" 
d="M139 152l277 340l-277 350l109 86l344 -436l-344 -424z" />
    <glyph glyph-name="trademark" unicode="&#x2122;" horiz-adv-x="1925" 
d="M1853 1544v-862h-122v739h-5l-294 -739h-80l-287 739h-4v-739h-123v862h207l248 -620l256 620h204zM772 1544v-123h-287v-739h-123v739h-288v123h698z" />
    <glyph glyph-name="CR" horiz-adv-x="630" 
 />
    <glyph glyph-name="Lslash" horiz-adv-x="768" 
d="M156 0v653l-156 -100v164l156 100v727h172v-614l266 172v-164l-266 -172v-606h426v-160h-598z" />
    <glyph glyph-name="breve" horiz-adv-x="993" 
d="M498 1327q142 0 194 139h142q-16 -126 -112 -202t-223 -76q-129 0 -225 76t-112 202h141q53 -139 195 -139z" />
    <glyph glyph-name="caron" horiz-adv-x="962" 
d="M803 1417l-320 -272l-323 272l119 92l204 -174l203 174z" />
    <glyph glyph-name="dotaccent" horiz-adv-x="733" 
d="M367 1466q47 0 79 -32t31 -78q0 -47 -32 -79q-33 -32 -79 -32t-78 32t-32 79q0 46 32 78t79 32z" />
    <glyph glyph-name="dotlessi" horiz-adv-x="536" 
d="M350 963v-963h-164v963h164z" />
    <glyph glyph-name="fi" horiz-adv-x="1062" 
d="M309 811v-811h-164v811h-90v152h90v383q0 178 43 249q76 121 248 121q61 0 117 -20v-166q-151 57 -215 -21q-25 -28 -27 -92t-2 -129v-325h244v-152h-244zM877 963v-963h-164v963h164zM795 1442q47 0 82 -35t35 -83t-36 -82q-34 -34 -81 -34t-82 34t-35 82t35 83t82 35z
" />
    <glyph glyph-name="fl" horiz-adv-x="1026" 
d="M877 1690v-1690h-164v1690h164zM309 811v-811h-164v811h-90v152h90v383q0 178 43 249q76 121 248 121q61 0 117 -20v-166q-151 57 -215 -21q-25 -28 -27 -92t-2 -129v-325h244v-152h-244z" />
    <glyph glyph-name="fraction" horiz-adv-x="329" 
d="M569 1571l90 -49l-899 -1549l-90 50z" />
    <glyph glyph-name="hungarumlaut" horiz-adv-x="956" 
d="M457 1520l-195 -326l-82 23l121 331zM778 1520l-194 -326l-82 23l121 331z" />
    <glyph glyph-name="lslash" horiz-adv-x="528" 
d="M182 0v758l-151 -101v146l151 100v787h164v-676l152 100v-145l-152 -101v-868h-164z" />
    <glyph glyph-name="minus" 
d="M135 444v160h991v-160h-991z" />
    <glyph glyph-name="ogonek" horiz-adv-x="690" 
d="M461 0v-4q-164 -106 -164 -205q0 -45 33 -69q34 -24 90 -24t112 38l-20 -135q-61 -31 -140 -31t-146 51t-66 139q0 136 170 240h131z" />
    <glyph glyph-name="ring" horiz-adv-x="716" 
d="M360 1530q82 0 140 -58t59 -142q0 -83 -57 -141q-58 -59 -142 -59t-142 58t-58 142t59 142t141 58zM360 1427q-42 1 -70 -27t-28 -69t29 -69t69 -29q40 0 69 29q28 30 28 70t-28 68t-69 27z" />
    </font>
</defs>
</svg>
