<?xml version="1.0" standalone="no"?>
<!DOCTYPE svg PUBLIC "-//W3C//DTD SVG 1.1//EN" "http://www.w3.org/Graphics/SVG/1.1/DTD/svg11.dtd" >
<svg xmlns="http://www.w3.org/2000/svg">
<metadata>
Created by FontPrep 20130207 at Mon Apr 27 13:31:33 2015
 By Martin
Copyright (c) 1987, 1991, 1993 Adobe Systems Incorporated.  All Rights Reserved.Futura is a registered trademark of Fundicion Tipografica Neufville S. A.
</metadata>
<defs>
<font id="1fe5844beedcc22aa4b9b270be973006" horiz-adv-x='1024' >
  <font-face 
    font-family="IOTA-Light"
    font-weight="300"
    font-stretch="normal"
    units-per-em="2048"
    panose-1="2 0 5 4 3 0 0 2 0 3"
    ascent="1638"
    descent="-410"
    x-height="946"
    cap-height="1544"
    bbox="-358 -618 2308 1989"
    underline-thickness="102"
    underline-position="-153"
    unicode-range="U+0020-2122"
  />
<missing-glyph horiz-adv-x="1024" 
d="M102 0v1049h820v-1049h-820zM119 16h786v1016h-786v-1016z" />
    <glyph glyph-name=".notdef" horiz-adv-x="1024" 
d="M102 0v1049h820v-1049h-820zM119 16h786v1016h-786v-1016z" />
    <glyph glyph-name=".null" horiz-adv-x="0" 
 />
    <glyph glyph-name="nonmarkingreturn" horiz-adv-x="681" 
 />
    <glyph glyph-name="space" unicode=" " horiz-adv-x="634" 
 />
    <glyph glyph-name="exclam" unicode="!" horiz-adv-x="655" 
d="M328 147q36 -1 60 -25t24 -59t-25 -59t-59 -24t-60 24q-24 24 -24 60q0 34 24 59q25 24 60 24zM279 293v1251h98v-1251h-98z" />
    <glyph glyph-name="quotedbl" unicode="&#x22;" horiz-adv-x="569" 
d="M119 1544h98l-22 -491h-56zM352 1544h99l-23 -491h-55z" />
    <glyph glyph-name="numbersign" unicode="#" 
d="M1098 565v-98h-258l-76 -467h-94l73 467h-276l-68 -467h-98l68 467h-248v98h262l47 332h-252v98h266l66 435h102l-65 -435h278l66 435h102l-67 -435h225v-98h-242l-53 -332h242zM809 897h-279l-49 -332h279z" />
    <glyph glyph-name="dollar" unicode="$" 
d="M711 741v-659q125 29 208 129t83 223t-100 197q-79 58 -191 110zM618 1466q-110 0 -186 -88t-76 -207t121 -197q46 -30 141 -79v571zM258 1187q0 153 99 259t261 119v215h93v-219q98 -13 182 -69t131 -144l-76 -62q-94 160 -237 180v-614q18 -8 70 -35t100 -52t106 -75
q59 -51 76 -91q37 -92 37 -169q0 -162 -115 -289t-274 -157v-232h-93v228q-160 4 -276 92t-172 241l84 39q47 -126 144 -204t220 -70v708q-186 90 -249 150q-111 98 -111 251z" />
    <glyph glyph-name="percent" unicode="%" horiz-adv-x="1359" 
d="M369 1559q131 1 221 -87t90 -218t-90 -216t-221 -86t-222 86q-90 86 -90 216q1 130 91 218t221 87zM369 1473q-92 1 -159 -63t-67 -156t67 -153q67 -63 159 -63q93 0 159 62t66 154q0 91 -66 155t-159 64zM1102 1579l67 -35l-917 -1579l-64 37zM991 592q131 0 221 -87
t90 -217t-90 -216t-221 -86t-221 86t-90 216t90 217t221 87zM991 506q-93 0 -159 -64t-66 -154q0 -92 67 -154t159 -62t158 62q67 62 67 154t-67 154q-67 64 -159 64z" />
    <glyph glyph-name="ampersand" unicode="&#x26;" horiz-adv-x="1314" 
d="M646 1481q-81 0 -138 -66t-57 -132q0 -67 18 -111t62 -107t57 -84q24 18 88 65q65 47 101 90q59 62 59 170q0 62 -54 118t-136 57zM449 -31q-170 0 -287 120t-117 288q0 211 215 385q115 91 254 176q-4 6 -45 62t-55 83l-28 54q-34 69 -34 139q0 123 89 210t209 87
t202 -84t82 -206t-84 -208q-84 -87 -205 -170l381 -520l197 215l75 -41l-215 -246l236 -313h-107l-194 256q-160 -133 -297 -210t-272 -77zM143 387q0 -133 86 -229t220 -97q84 -1 184 47t169 98t159 128l-390 526l-98 -65q-246 -154 -302 -277q-28 -61 -28 -131z" />
    <glyph glyph-name="quotesingle" unicode="'" horiz-adv-x="454" 
d="M178 1544h98l-22 -491h-55z" />
    <glyph glyph-name="parenleft" unicode="(" horiz-adv-x="491" 
d="M227 622q0 -464 129 -933l-75 -51q-72 186 -109 457t-37 516t36 523t110 463l75 -53q-129 -458 -129 -922z" />
    <glyph glyph-name="parenright" unicode=")" horiz-adv-x="491" 
d="M264 622q0 464 -129 922l76 53q74 -185 110 -463q35 -278 35 -523t-37 -516t-108 -457l-76 51q129 469 129 933z" />
    <glyph glyph-name="asterisk" unicode="*" horiz-adv-x="1267" 
d="M592 1237l-8 307h100l-8 -307l291 102l30 -96l-295 -88l189 -244l-82 -59l-174 254l-176 -254l-80 57l186 246l-295 88l31 96z" />
    <glyph glyph-name="plus" unicode="+" 
d="M586 573v476h98v-476h475v-98h-475v-475h-98v475h-475v98h475z" />
    <glyph glyph-name="comma" unicode="," horiz-adv-x="634" 
d="M313 152l93 -29l-170 -463l-62 23z" />
    <glyph glyph-name="hyphenminus" unicode="-" horiz-adv-x="389" 
d="M0 700h389v-92h-389v92z" />
    <glyph glyph-name="period" unicode="." horiz-adv-x="634" 
d="M317 147q35 -1 60 -25t25 -59t-26 -59q-24 -24 -59 -24t-59 24t-25 60q1 34 25 58t59 25z" />
    <glyph glyph-name="slash" unicode="/" horiz-adv-x="1310" 
d="M1167 1690l72 -37l-1092 -1944l-75 39z" />
    <glyph glyph-name="zero" unicode="0" 
d="M635 1565q137 0 249 -76q197 -134 277 -447q35 -133 35 -260q0 -263 -132 -519q-66 -124 -178 -204q-112 -79 -251 -79t-252 80q-195 137 -275 461q-34 134 -34 261q0 265 135 512q66 119 177 195q112 76 249 76zM635 72q117 0 210 70q160 121 226 411q27 119 27 223
t-27 218q-67 283 -226 406q-93 73 -210 73t-210 -73q-93 -72 -146 -182q-107 -221 -107 -447q0 -225 107 -447q53 -112 146 -182t210 -70z" />
    <glyph glyph-name="one" unicode="1" 
d="M631 1452h-244l47 92h295v-1544h-98v1452z" />
    <glyph glyph-name="two" unicode="2" 
d="M1094 92v-92h-953l576 633q42 42 74 82q32 41 66 81t47 62t37 61q60 95 60 199q0 150 -107 252q-108 102 -262 102t-259 -102q-104 -104 -101 -262h-98q10 193 96 293q68 76 167 120t200 44q193 0 328 -131t135 -322q0 -100 -39 -178q-17 -33 -25 -52q-8 -18 -32 -54
t-35 -50q-10 -14 -40 -50t-38 -45t-43 -47t-39 -44l-449 -500h734z" />
    <glyph glyph-name="three" unicode="3" 
d="M618 758v92q139 4 234 93q94 89 94 221t-90 220t-219 88t-208 -78q-79 -79 -87 -214h-98q12 178 116 281t276 103t291 -115q118 -116 117 -282q0 -119 -61 -215t-170 -143q115 -45 185 -149t69 -226q0 -194 -130 -324q-129 -130 -315 -130t-311 112t-125 287h99
q12 -137 100 -222t230 -85t248 106q105 106 105 252t-101 236q-102 92 -249 92z" />
    <glyph glyph-name="four" unicode="4" 
d="M956 385h218v-92h-218v-293h-98v293h-833v12l919 1292h12v-1212zM858 385v913h-12l-641 -901v-12h653z" />
    <glyph glyph-name="five" unicode="5" 
d="M1087 1452h-516l-129 -418q45 16 117 17q221 0 373 -153q152 -154 152 -382t-162 -382q-160 -154 -396 -154q-141 0 -262 68t-194 188l90 36q59 -92 158 -146t210 -54q195 0 326 130t131 318t-132 314t-318 124q-123 0 -236 -69l201 655h587v-92z" />
    <glyph glyph-name="six" unicode="6" 
d="M645 1061q221 0 380 -161t159 -373t-154 -380q-154 -167 -389 -167t-395 156t-160 382q0 182 113 340l497 707l80 -60l-340 -481l4 -4q100 41 205 41zM635 72q184 0 317 132t133 316t-133 316t-317 133q-183 0 -317 -132q-134 -133 -134 -317t134 -316t317 -132z" />
    <glyph glyph-name="seven" unicode="7" 
d="M143 1452v92h1121l-1106 -1560l-76 59l999 1409h-938z" />
    <glyph glyph-name="eight" unicode="8" 
d="M635 756q-143 0 -247 -100t-103 -242q0 -142 103 -242q102 -100 246 -100t248 100q103 100 103 242q1 142 -103 242t-247 100zM635 -20q-184 0 -317 120q-132 121 -132 303q0 281 252 402q-100 49 -158 145t-59 207q0 176 118 292t296 116t296 -116t118 -292
q-1 -111 -59 -207t-159 -145q252 -121 252 -402q0 -183 -132 -303t-316 -120zM950 1159q0 129 -93 221t-223 93q-130 -1 -222 -93t-92 -221t92 -220t222 -91t223 91t93 220z" />
    <glyph glyph-name="nine" unicode="9" 
d="M625 487q-221 0 -380 160t-159 382t163 379t391 157t386 -158t158 -389q0 -172 -113 -330l-498 -704l-79 59l342 481l-5 4q-100 -41 -206 -41zM637 1473q-185 1 -319 -131t-134 -316t134 -315t318 -131t317 131q132 131 132 315t-132 316t-316 131z" />
    <glyph glyph-name="colon" unicode=":" horiz-adv-x="634" 
d="M317 147q35 -1 60 -25t25 -59t-26 -59q-24 -24 -59 -24t-59 24t-25 60q1 34 25 58t59 25zM317 967q35 0 60 -25q25 -26 25 -60t-26 -59q-24 -25 -59 -25t-59 26q-24 24 -25 59q1 35 25 59t59 25z" />
    <glyph glyph-name="semicolon" unicode=";" horiz-adv-x="634" 
d="M313 152l93 -29l-170 -463l-62 23zM330 967q36 0 60 -25q24 -26 24 -60t-25 -59t-59 -25t-60 26q-25 24 -24 59q0 35 24 59t60 25z" />
    <glyph glyph-name="less" unicode="&#x3c;" 
d="M217 524l942 -440v-94l-1048 481v109l1048 456v-94z" />
    <glyph glyph-name="equal" unicode="=" 
d="M1159 748v-99h-1048v99h1048zM1159 399v-98h-1048v98h1048z" />
    <glyph glyph-name="greater" unicode="&#x3e;" 
d="M111 84l942 440l-942 418v94l1048 -456v-109l-1048 -481v94z" />
    <glyph glyph-name="question" unicode="?" horiz-adv-x="1005" 
d="M725 621h98q4 -141 -84 -235t-229 -95q-141 0 -236 87q-94 87 -94 219t77 205t216 107q80 19 122 35q125 46 158 127q19 49 19 121q0 119 -76 200t-194 81t-194 -75q-75 -75 -75 -186q0 -66 11 -108h-94q-14 76 -15 131q0 143 109 236q110 93 266 93t258 -102
q102 -104 102 -266t-86 -244t-249 -121t-209 -93q-47 -54 -47 -143t64 -151q65 -61 165 -61t159 70q58 70 58 168zM498 147q36 -1 60 -25t24 -59t-25 -59t-59 -24t-60 24q-24 24 -24 60q0 34 24 59q25 24 60 24z" />
    <glyph glyph-name="at" unicode="@" horiz-adv-x="1638" 
d="M868 1159q-104 0 -197 -91t-145 -215t-53 -224q1 -100 59 -169t155 -65t181 80t111 164l96 301q18 63 -43 141q-60 78 -164 78zM854 1479q-282 0 -484 -214t-202 -499t207 -493t483 -207q178 0 326 72t233 206h115q-86 -166 -264 -265t-410 -99q-328 0 -552 232t-224 562
t227 560t533 230t511 -186q204 -188 203 -475q0 -238 -152 -416t-325 -178q-119 0 -153 101q-116 -100 -256 -100t-212 84q-72 85 -71 216q0 229 141 432t355 203q155 0 245 -137l31 96h90l-211 -663q-37 -114 8 -134q22 -11 62 -12q125 0 244 173t118 343q0 244 -187 406
t-429 162z" />
    <glyph glyph-name="A" unicode="A" horiz-adv-x="1312" 
d="M1202 0l-545 1346l-546 -1346h-101l647 1595l646 -1595h-101z" />
    <glyph glyph-name="B" unicode="B" horiz-adv-x="1157" 
d="M264 752v-660h236q82 0 114 1t94 15t107 44q152 100 152 274q0 88 -42 164t-130 118t-314 44h-217zM561 0h-395v1544h309q106 0 181 -17t139 -73q129 -110 129 -320t-179 -315q141 -29 231 -135t89 -254q0 -197 -143 -319q-76 -67 -161 -89t-200 -22zM264 1452v-608h182
q62 0 86 1q102 4 179 56q115 82 115 252t-128 250q-80 49 -264 49h-170z" />
    <glyph glyph-name="C" unicode="C" horiz-adv-x="1513" 
d="M874 1473q-286 0 -494 -212q-208 -213 -208 -493t207 -483q102 -97 233 -155t265 -58t284 66t232 169v-135q-231 -193 -514 -192q-326 0 -566 233q-239 233 -239 559t239 559t551 233t529 -200v-135q-91 109 -233 177t-286 67z" />
    <glyph glyph-name="D" unicode="D" horiz-adv-x="1335" 
d="M166 0v1544h278q184 0 318 -42t256 -152q246 -230 246 -574t-238 -571q-121 -117 -258 -161t-324 -44h-278zM264 92h178q330 0 519 187q205 205 205 505t-224 500q-104 94 -223 131t-277 37h-178v-1360z" />
    <glyph glyph-name="E" unicode="E" horiz-adv-x="1038" 
d="M903 1452h-639v-561h623v-92h-623v-707h639v-92h-737v1544h737v-92z" />
    <glyph glyph-name="F" unicode="F" horiz-adv-x="909" 
d="M788 1452h-524v-561h510v-92h-510v-799h-98v1544h622v-92z" />
    <glyph glyph-name="G" unicode="G" horiz-adv-x="1687" 
d="M963 743h651q10 -330 -162 -514q-108 -119 -264 -185t-322 -64q-322 0 -558 233t-234 559q0 326 236 559q237 233 569 234q403 0 669 -361l-80 -63q-225 332 -596 332q-280 0 -490 -211t-210 -494q0 -284 206 -490t494 -206q244 0 455 170q96 84 140 181t49 228h-553v92z
" />
    <glyph glyph-name="H" unicode="H" horiz-adv-x="1466" 
d="M264 889h938v655h98v-1544h-98v797h-938v-797h-98v1544h98v-655z" />
    <glyph glyph-name="I" unicode="I" horiz-adv-x="430" 
d="M264 1544v-1544h-98v1544h98z" />
    <glyph glyph-name="J" unicode="J" horiz-adv-x="446" 
d="M182 1544h99v-1515q-1 -164 -59 -258t-214 -95q-84 0 -152 45t-104 123l74 56q27 -56 79 -94t109 -38q110 1 139 81t29 180v1515z" />
    <glyph glyph-name="K" unicode="K" horiz-adv-x="1165" 
d="M264 0h-98v1544h98v-721l733 721h131l-755 -743l803 -801h-129l-742 737l-41 -41v-696z" />
    <glyph glyph-name="L" unicode="L" horiz-adv-x="669" 
d="M264 1544v-1452h393v-92h-491v1544h98z" />
    <glyph glyph-name="M" unicode="M" horiz-adv-x="1837" 
d="M1724 0l-264 1278h-4l-538 -1329l-537 1329h-4l-264 -1278h-95l332 1595l568 -1405l569 1405l332 -1595h-95z" />
    <glyph glyph-name="N" unicode="N" horiz-adv-x="1726" 
d="M1561 1544v-1595l-1297 1378v-1327h-98v1565l1296 -1368v1347h99z" />
    <glyph glyph-name="O" unicode="O" horiz-adv-x="1748" 
d="M873 1565q327 1 565 -233t238 -560t-238 -559t-564 -233t-564 233t-236 559q0 326 236 560t563 233zM873 1473q-289 0 -495 -207t-206 -494q0 -288 207 -494t495 -206t495 208q208 208 208 494t-208 492q-208 207 -496 207z" />
    <glyph glyph-name="P" unicode="P" horiz-adv-x="966" 
d="M264 733v-733h-98v1544h272q111 0 190 -17t144 -73q139 -114 139 -316t-129 -307q-115 -98 -344 -98h-174zM264 825h178q176 0 274 88t97 241q0 153 -117 237q-82 61 -270 61h-162v-627z" />
    <glyph glyph-name="Q" unicode="Q" horiz-adv-x="1748" 
d="M1577 760q0 291 -204 502q-203 211 -493 211t-499 -208t-209 -495q0 -286 209 -492t500 -206q223 0 430 161l-385 400h139l313 -340q199 215 199 467zM874 -20q-332 0 -566 231t-234 559t236 561q237 233 565 233q329 0 565 -230q236 -232 236 -546t-226 -569l203 -219
h-133l-140 164q-223 -184 -506 -184z" />
    <glyph glyph-name="R" unicode="R" horiz-adv-x="999" 
d="M264 731v-731h-98v1544h192q80 0 127 -3q136 -9 226 -75q155 -112 155 -320t-122 -314t-320 -101l506 -731h-113l-504 731h-49zM264 823h125q186 0 270 72q109 88 109 244q0 92 -42 168q-42 77 -119 111t-279 34h-64v-629z" />
    <glyph glyph-name="S" unicode="S" horiz-adv-x="1114" 
d="M1026 432q0 -192 -145 -322t-321 -130t-296 90q-121 90 -176 241l86 39q111 -279 373 -278q157 0 269 105t112 259q0 64 -20 96t-30 49q-9 17 -37 37t-38 30t-49 32q-39 21 -88 44q-48 23 -50 26l-278 147q-160 97 -160 273t112 286t283 109q117 -1 219 -59t158 -158
l-69 -58q-117 182 -314 183q-123 -1 -207 -87t-84 -212t131 -206q57 -36 148 -79l295 -154q176 -111 176 -303z" />
    <glyph glyph-name="T" unicode="T" horiz-adv-x="921" 
d="M510 1452v-1452h-98v1452h-400v92h897v-92h-399z" />
    <glyph glyph-name="U" unicode="U" horiz-adv-x="1351" 
d="M1102 610v934h98v-962q0 -102 -3 -156t-28 -129q-25 -76 -73 -137q-76 -88 -188 -134t-232 -46t-233 46q-112 46 -187 134q-49 61 -74 137t-27 129q-3 53 -3 156v962h98v-934q0 -94 3 -145t21 -124q40 -163 207 -229q99 -40 195 -40t194 40t144 98q73 93 85 255
q3 51 3 145z" />
    <glyph glyph-name="V" unicode="V" horiz-adv-x="1136" 
d="M109 1544l458 -1319h4l457 1319h98l-561 -1595l-555 1595h99z" />
    <glyph glyph-name="W" unicode="W" horiz-adv-x="2263" 
d="M123 1544l434 -1327l578 1405l577 -1405l428 1327h98l-520 -1595l-590 1427l-587 -1427l-516 1595h98z" />
    <glyph glyph-name="X" unicode="X" horiz-adv-x="1011" 
d="M446 788l-405 756h109l354 -663l354 663h109l-404 -756l424 -788h-106l-377 698l-373 -698h-106z" />
    <glyph glyph-name="Y" unicode="Y" horiz-adv-x="1144" 
d="M621 0h-99v659l-514 885h109l454 -782l455 782h109l-514 -885v-659z" />
    <glyph glyph-name="Z" unicode="Z" horiz-adv-x="1163" 
d="M1112 92v-92h-1087l942 1452h-852v92h1024l-942 -1452h915z" />
    <glyph glyph-name="bracketleft" unicode="[" horiz-adv-x="614" 
d="M231 1440v-1751h250v-105h-348v1960h348v-104h-250z" />
    <glyph glyph-name="backslash" unicode="\" horiz-adv-x="1310" 
d="M72 1653l71 37l1096 -1651l-76 -39z" />
    <glyph glyph-name="bracketright" unicode="]" horiz-adv-x="614" 
d="M383 -311v1751h-250v104h348v-1960h-348v105h250z" />
    <glyph glyph-name="asciicircum" unicode="^" 
d="M207 616h-96l471 928h106l471 -928h-94l-430 836z" />
    <glyph glyph-name="underscore" unicode="_" horiz-adv-x="1024" 
d="M1024 -256h-1024v102h1024v-102z" />
    <glyph glyph-name="grave" unicode="`" horiz-adv-x="641" 
d="M154 1423l125 39l206 -301l-77 -35z" />
    <glyph glyph-name="a" unicode="a" horiz-adv-x="1146" 
d="M529 881q-165 0 -268 -121t-103 -286t103 -287q103 -121 273 -121t270 121q99 122 99 296t-104 286q-105 112 -270 112zM989 946v-946h-92v170h-4q-53 -88 -153 -139t-208 -51q-210 0 -338 143t-128 356t125 350q126 137 337 138q113 0 209 -48t156 -137h4v164h92z" />
    <glyph glyph-name="b" unicode="b" horiz-adv-x="1146" 
d="M614 881q-166 0 -268 -115t-102 -288q0 -172 101 -292t270 -120t272 120q102 121 102 288t-104 287t-271 120zM158 0v1690h92v-908h4q60 88 156 136t208 49q209 1 336 -137t127 -351t-128 -356t-339 -143q-110 0 -208 50t-152 140h-4v-170h-92z" />
    <glyph glyph-name="c" unicode="c" horiz-adv-x="976" 
d="M564 881q-178 0 -293 -121q-113 -121 -113 -285t112 -287t277 -122q205 0 348 170v-125q-151 -131 -351 -131t-339 143t-139 351t140 350t338 142t339 -116v-123q-141 154 -319 154z" />
    <glyph glyph-name="d" unicode="d" horiz-adv-x="1146" 
d="M158 474q0 -164 103 -286t273 -122t270 121q99 122 99 296t-104 286q-103 112 -269 112t-269 -121t-103 -286zM897 0v170h-4q-53 -88 -153 -139t-208 -51q-210 0 -338 143t-128 356t125 350q126 137 337 138q113 0 209 -48t156 -137h4v908h92v-1690h-92z" />
    <glyph glyph-name="e" unicode="e" horiz-adv-x="1044" 
d="M979 465h-821q-4 -178 104 -289t275 -110q109 0 195 57t138 158l78 -45q-137 -256 -424 -256q-206 0 -332 144t-126 349t128 349t334 144t328 -144q123 -144 123 -357zM158 551h729q-19 135 -119 232t-242 97t-248 -96q-108 -98 -120 -233z" />
    <glyph glyph-name="f" unicode="f" horiz-adv-x="491" 
d="M250 860v-860h-92v860h-105v86h105v424q0 164 37 232q66 115 211 114q47 0 81 -14v-84q-49 12 -89 12t-77 -24q-71 -48 -71 -254v-406h237v-86h-237z" />
    <glyph glyph-name="g" unicode="g" horiz-adv-x="1161" 
d="M544 881q-164 0 -268 -121t-104 -286t103 -287q103 -121 273 -121t270 122t100 295q0 174 -104 286t-270 112zM524 -453q387 0 387 500v117h-4q-63 -86 -161 -135t-207 -49q-201 0 -330 145t-129 351t133 348t346 142t348 -184h4v164h93v-901q0 -90 -4 -144
q-12 -150 -91 -257q-131 -182 -377 -183q-194 0 -324 108t-142 298h92q8 -143 113 -231t253 -89z" />
    <glyph glyph-name="h" unicode="h" horiz-adv-x="1003" 
d="M158 1690h92v-891h4q41 80 115 124t166 44q175 1 243 -99t68 -297v-571h-92v571q0 136 -40 223t-188 87q-276 0 -276 -414v-467h-92v1690z" />
    <glyph glyph-name="i" unicode="i" horiz-adv-x="479" 
d="M285 946v-946h-92v946h92zM240 1346q36 0 60 -25t24 -59t-25 -60q-25 -24 -59 -24t-60 24q-25 24 -24 60q0 36 24 60t60 24z" />
    <glyph glyph-name="j" unicode="j" horiz-adv-x="479" 
d="M285 946v-1499h-92v1499h92zM240 1346q36 0 60 -25t24 -59t-25 -60q-25 -24 -59 -24t-60 24q-25 24 -24 60q0 36 24 60t60 24z" />
    <glyph glyph-name="k" unicode="k" horiz-adv-x="874" 
d="M250 1690v-1145l389 401h119l-398 -409l531 -537h-121l-469 473l-51 -53v-420h-92v1690h92z" />
    <glyph glyph-name="l" unicode="l" horiz-adv-x="407" 
d="M250 1690v-1690h-92v1690h92z" />
    <glyph glyph-name="m" unicode="m" horiz-adv-x="1484" 
d="M250 946v-119h4q33 66 97 103q65 37 141 37q190 0 266 -172q78 172 276 172q168 1 230 -97t63 -276v-594h-92v606q0 131 -40 203t-163 72q-244 0 -244 -336v-545h-92v584q0 135 -43 216t-168 81q-71 0 -119 -34q-116 -82 -116 -327v-520h-92v946h92z" />
    <glyph glyph-name="n" unicode="n" horiz-adv-x="1003" 
d="M250 946v-147h4q41 80 115 124t166 44q175 1 243 -99t68 -297v-571h-92v571q0 136 -40 223t-188 87q-276 0 -276 -414v-467h-92v946h92z" />
    <glyph glyph-name="o" unicode="o" horiz-adv-x="1120" 
d="M66 473q0 203 143 349t350 145t351 -143t144 -351t-144 -351t-350 -142t-350 145t-144 348zM556 881q-171 0 -285 -121q-113 -121 -113 -287t114 -287q114 -120 283 -120q170 0 289 116t119 291q0 174 -118 291t-289 117z" />
    <glyph glyph-name="p" unicode="p" horiz-adv-x="1146" 
d="M614 881q-170 0 -270 -124t-100 -298t103 -284q103 -109 269 -109t270 116q103 116 103 284q0 167 -102 291q-103 124 -273 124zM250 946v-170h4q54 90 152 140t208 51q211 -1 339 -145t128 -356t-127 -349t-336 -137q-112 0 -208 47t-156 137h-4v-717h-92v1499h92z" />
    <glyph glyph-name="q" unicode="q" horiz-adv-x="1146" 
d="M528 881q-170 0 -270 -124t-100 -298t103 -284q103 -109 269 -109t270 116q103 116 103 284q0 167 -102 291q-103 124 -273 124zM989 946v-1499h-92v717h-4q-59 -90 -155 -137t-210 -47q-210 0 -336 136t-126 349t128 357t338 145q109 1 208 -51t153 -140h4v170h92z" />
    <glyph glyph-name="r" unicode="r" horiz-adv-x="569" 
d="M250 946v-123h4q63 143 205 144q49 0 100 -23l-49 -82q-29 18 -71 18t-77 -16t-55 -51q-19 -35 -33 -65q-24 -53 -24 -211v-537h-92v946h92z" />
    <glyph glyph-name="s" unicode="s" horiz-adv-x="768" 
d="M688 257q0 -112 -88 -195q-88 -82 -212 -82t-213 68t-118 181l90 29q59 -193 236 -192q90 0 152 61q61 61 61 145t-47 124q-47 38 -119 64q-189 67 -241 125t-53 152t75 162t166 68q91 0 159 -43t99 -109l-80 -41q-49 106 -166 107q-61 0 -111 -44q-50 -45 -50 -105
t46 -99q47 -39 115 -63t136 -51q163 -66 163 -262z" />
    <glyph glyph-name="t" unicode="t" horiz-adv-x="428" 
d="M260 860v-860h-92v860h-105v86h105v338h92v-338h166v-86h-166z" />
    <glyph glyph-name="u" unicode="u" horiz-adv-x="966" 
d="M731 946h92v-567q0 -67 -1 -99t-15 -84t-41 -90q-94 -126 -282 -126t-283 126q-27 38 -41 90t-16 84q-1 32 -1 99v567h93v-534q0 -153 37 -240q49 -108 210 -107q162 1 210 107q38 84 38 240v534z" />
    <glyph glyph-name="v" unicode="v" horiz-adv-x="886" 
d="M104 946l342 -780l336 780h95l-433 -997l-434 997h94z" />
    <glyph glyph-name="w" unicode="w" horiz-adv-x="1540" 
d="M104 946l334 -776l334 827l336 -827l328 776h94l-428 -997l-334 817l-332 -817l-426 997h94z" />
    <glyph glyph-name="x" unicode="x" horiz-adv-x="907" 
d="M393 500l-352 446h111l301 -383l303 383h110l-352 -446l385 -500h-108l-338 434l-336 -434h-109z" />
    <glyph glyph-name="y" unicode="y" horiz-adv-x="942" 
d="M440 -16l-454 962h96l403 -856l363 856h94l-635 -1499h-94z" />
    <glyph glyph-name="z" unicode="z" horiz-adv-x="983" 
d="M969 86v-86h-963l774 860h-649v86h842l-772 -860h768z" />
    <glyph glyph-name="braceleft" unicode="{" horiz-adv-x="614" 
d="M233 1208q1 182 63 257t234 79v-94q-199 0 -198 -164v-381q0 -143 -34 -212t-116 -122v-10q82 -53 116 -123t34 -221v-379q0 -164 198 -164v-90q-172 4 -234 79t-63 255v361q0 82 -35 135q-36 53 -114 108v90q80 58 115 106t34 130v360z" />
    <glyph glyph-name="bar" unicode="|" horiz-adv-x="655" 
d="M279 -438v2048h98v-2048h-98z" />
    <glyph glyph-name="braceright" unicode="}" horiz-adv-x="614" 
d="M381 279v-361q-1 -180 -63 -255t-234 -79v90q199 0 199 164v379q-1 151 33 221t116 123v10q-82 53 -116 122t-33 212v381q0 164 -199 164v94q172 -4 234 -79t63 -257v-360q1 -82 35 -130t114 -106v-90q-78 -55 -114 -108t-35 -135z" />
    <glyph glyph-name="asciitilde" unicode="~" 
d="M412 643q88 0 232 -71t172 -78q29 -6 46 -7q109 0 199 164l98 -47q-68 -102 -137 -163q-70 -60 -154 -60t-234 78t-217 78q-69 0 -115 -39t-95 -113l-96 47q8 16 60 74q51 58 63 66q55 41 92 56t86 15z" />
    <glyph glyph-name="Euro" 
d="M817 1473q-211 0 -355 -147t-175 -421h817l-29 -92h-796v-51q0 -33 4 -103h745l-29 -92h-702q43 -221 179 -358t351 -137q158 0 235 34t159 109v-119q-86 -66 -170 -94q-84 -23 -220 -22q-262 0 -426 164t-208 423h-181l29 92h139q-4 78 -4 111v43h-164l29 92h143
q35 287 203 473t430 187q262 0 430 -162l-30 -107q-84 96 -174 136t-230 41z" />
    <glyph glyph-name="Euro" unicode="&#x20ac;" 
d="M817 1473q-211 0 -355 -147t-175 -421h817l-29 -92h-796v-51q0 -33 4 -103h745l-29 -92h-702q43 -221 179 -358t351 -137q158 0 235 34t159 109v-119q-86 -66 -170 -94q-84 -23 -220 -22q-262 0 -426 164t-208 423h-181l29 92h139q-4 78 -4 111v43h-164l29 92h143
q35 287 203 473t430 187q262 0 430 -162l-30 -107q-84 96 -174 136t-230 41z" />
    <glyph glyph-name="Zcaron" horiz-adv-x="1163" 
d="M1112 92v-92h-1087l942 1452h-852v92h1024l-942 -1452h915zM889 1890l-283 -219l-282 219l77 58l205 -156l209 156z" />
    <glyph glyph-name="Zcaron" unicode="&#x17d;" horiz-adv-x="1163" 
d="M1112 92v-92h-1087l942 1452h-852v92h1024l-942 -1452h915zM889 1890l-283 -219l-282 219l77 58l205 -156l209 156z" />
    <glyph glyph-name="zcaron" horiz-adv-x="983" 
d="M969 86v-86h-963l774 860h-649v86h842l-772 -860h768zM825 1364l-282 -219l-283 219l78 57l205 -155l209 155z" />
    <glyph glyph-name="zcaron" unicode="&#x17e;" horiz-adv-x="983" 
d="M969 86v-86h-963l774 860h-649v86h842l-772 -860h768zM825 1364l-282 -219l-283 219l78 57l205 -155l209 155z" />
    <glyph glyph-name="nbspace" unicode="&#xa0;" horiz-adv-x="634" 
 />
    <glyph glyph-name="exclamdown" unicode="&#xa1;" horiz-adv-x="655" 
d="M328 967q36 0 60 -25q24 -26 24 -60t-25 -59t-59 -25t-60 26q-25 24 -24 59q0 35 24 59t60 25zM377 657v-1251h-98v1251h98z" />
    <glyph glyph-name="cent" unicode="&#xa2;" 
d="M1049 549v-125q-145 -123 -310 -131v-262h-92v264q-182 17 -305 157t-123 330t119 334q119 143 309 164v240h92v-238q172 -10 297 -119v-123q-131 143 -297 156v-817q184 16 305 170h5zM647 381v811q-145 -20 -240 -138t-95 -268t94 -268q96 -118 241 -137z" />
    <glyph glyph-name="sterling" unicode="&#xa3;" 
d="M276 496v92h230l-166 282q-57 92 -84 158t-27 150q0 166 122 276t291 111q169 0 283 -120t109 -288h-98q0 137 -85 226t-215 89t-219 -90q-89 -92 -89 -200t94 -254q16 -27 50 -81q107 -169 140 -259h279v-92h-260l4 -68q0 -141 -117 -258l21 -6q248 -92 299 -92
q129 0 217 168l84 -50q-51 -90 -126 -150t-156 -60t-237 60t-210 60q-103 1 -224 -120l-55 79q51 59 126 97t149 37q131 109 131 243l-7 60h-254z" />
    <glyph glyph-name="currency" unicode="&#xa4;" 
d="M635 102q-168 0 -336 119l-86 -86l-74 74l82 82q-109 167 -109 323t109 324l-82 82l74 74l86 -86q335 237 672 0l86 86l73 -74l-81 -82q109 -168 109 -324t-109 -323l81 -82l-73 -74l-86 86q-168 -119 -336 -119zM635 201q172 0 296 123q124 124 128 294t-120 288
t-304 122q-180 -4 -304 -122t-120 -289t128 -293t296 -123z" />
    <glyph glyph-name="yen" unicode="&#xa5;" 
d="M168 813v92h274l-370 639h118l445 -772l444 772h119l-371 -639h275v-92h-328l-90 -154h418v-92h-418v-567h-98v567h-418v92h418l-88 154h-330z" />
    <glyph glyph-name="brokenbar" unicode="&#xa6;" horiz-adv-x="655" 
d="M279 -182v512h98v-512h-98zM279 842v512h98v-512h-98z" />
    <glyph glyph-name="section" unicode="&#xa7;" 
d="M635 317q111 0 193 80t81 191q0 110 -82 192q-83 82 -193 82t-193 -82t-83 -192t83 -191q83 -80 194 -80zM897 1194q-3 279 -243 279q-124 0 -192 -67t-69 -173q-1 -107 63 -165t154 -86t180 -60t154 -116q63 -83 64 -224q0 -229 -232 -342q219 -84 219 -318
q0 -156 -101 -236t-273 -81q-172 0 -251 87t-75 265v20h98v-26q1 -129 57 -191t179 -63q123 0 195 62t73 179q0 117 -92 178q-49 32 -113 59t-94 34q-82 29 -134 55q-138 68 -179 172q-25 61 -25 164t60 195t172 139q-102 51 -150 122q-47 71 -47 185q0 154 101 239t270 85
t242 -91t87 -280h-98z" />
    <glyph glyph-name="dieresis" unicode="&#xa8;" horiz-adv-x="862" 
d="M240 1380q34 0 58 -24t24 -58t-24 -58t-58 -24t-59 24q-23 24 -23 58t23 59q24 23 59 23zM623 1380q35 0 59 -24t23 -58q0 -34 -24 -58q-25 -24 -59 -24t-58 24t-24 58t24 59q24 23 59 23z" />
    <glyph glyph-name="copyright" unicode="&#xa9;" horiz-adv-x="1638" 
d="M819 -20q-328 0 -560 233t-232 560t233 559t560 232t559 -232q233 -232 233 -559t-232 -560t-561 -233zM125 773q1 -291 203 -493t492 -202t492 203t202 493t-202 491t-492 201t-492 -202t-203 -491zM856 324q-194 0 -316 130t-122 328t117 326q117 127 315 127
q146 0 248 -80t125 -219h-99q-16 90 -95 145t-177 56q-152 1 -244 -101t-92 -252t95 -256t245 -106q98 0 177 58t91 151h99q-12 -137 -120 -222t-247 -85z" />
    <glyph glyph-name="ordfeminine" unicode="&#xaa;" horiz-adv-x="688" 
d="M339 1495q-99 0 -161 -68q-62 -67 -63 -159q0 -92 61 -159q60 -67 164 -67t170 68t66 163t-69 159q-69 63 -168 63zM645 1552v-567h-59v102h-4q-35 -53 -100 -83t-134 -31q-137 0 -220 86t-83 213t82 210q83 83 229 83t226 -111h4v98h59z" />
    <glyph glyph-name="guillemotleft" unicode="&#xab;" horiz-adv-x="813" 
d="M428 655l248 -290l-60 -56l-299 346l299 346l60 -55zM182 655l248 -290l-59 -56l-299 346l299 346l59 -55z" />
    <glyph glyph-name="logicalnot" unicode="&#xac;" 
d="M1061 203v446h-950v99h1048v-545h-98z" />
    <glyph glyph-name="hyphen" unicode="&#xad;" horiz-adv-x="389" 
d="M0 700h389v-92h-389v92z" />
    <glyph glyph-name="hyphen" unicode="&#x2010;" horiz-adv-x="389" 
d="M0 700h389v-92h-389v92z" />
    <glyph glyph-name="registered" unicode="&#xae;" horiz-adv-x="1638" 
d="M819 -20q-328 0 -560 233t-232 560t233 559t560 232t559 -232q233 -232 233 -559t-232 -560t-561 -233zM125 773q1 -291 203 -493t492 -202t492 203t202 493t-202 491t-492 201t-492 -202t-203 -491zM631 723v-399h-99v866h379q164 0 236 -58t72 -171q-1 -228 -273 -238
l262 -399h-127l-247 399h-203zM631 821h170q8 0 55 -1t102 2t74 15q20 11 45 26q43 26 43 100q0 129 -233 129h-256v-271z" />
    <glyph glyph-name="macron" unicode="&#xaf;" horiz-adv-x="933" 
d="M154 1380h624v-92h-624v92z" />
    <glyph glyph-name="degree" unicode="&#xb0;" horiz-adv-x="819" 
d="M717 1257q0 -127 -90 -217t-217 -90t-217 90t-91 217q0 127 89 217t217 91q128 -1 219 -91q90 -90 90 -217zM409 1479q-93 0 -157 -65t-64 -158t64 -156q64 -64 156 -64q94 0 158 65t65 157q-1 92 -65 156q-64 65 -157 65z" />
    <glyph glyph-name="plusminus" unicode="&#xb1;" 
d="M586 655v394h98v-394h475v-98h-475v-393h-98v393h-475v98h475zM111 0v98h1048v-98h-1048z" />
    <glyph glyph-name="twosuperior" unicode="&#xb2;" horiz-adv-x="761" 
d="M688 696v-69h-618l372 379q180 180 181 292q0 88 -66 142t-168 55q-101 0 -165 -55t-64 -148h-70q4 111 64 174q88 98 225 98t225 -77q88 -78 88 -203t-180 -305l-279 -283h455z" />
    <glyph glyph-name="threesuperior" unicode="&#xb3;" horiz-adv-x="761" 
d="M375 1075v70q92 0 150 50q59 50 59 129t-56 125t-139 46q-178 0 -188 -160h-70q10 105 78 167q67 62 179 62t189 -69q77 -70 76 -168q0 -154 -151 -215q74 -27 120 -89t46 -136q0 -117 -84 -195t-205 -78t-203 68t-82 172h70q23 -170 207 -170q95 0 161 56t66 144
t-63 140q-64 51 -160 51z" />
    <glyph glyph-name="acute" unicode="&#xb4;" horiz-adv-x="641" 
d="M360 1462l125 -39l-254 -297l-77 35z" />
    <glyph glyph-name="mu" unicode="&#xb5;" horiz-adv-x="966" 
d="M236 -553h-93v1499h93v-467q0 -153 35 -245t87 -130t129 -38q78 0 130 26q89 45 107 187q7 53 7 133v534h92v-567q0 -67 -1 -99t-15 -84t-41 -90q-94 -127 -283 -126q-69 0 -143 45t-100 122h-4v-700z" />
    <glyph glyph-name="paragraph" unicode="&#xb6;" 
d="M578 -365v1123q-154 0 -253 112t-100 277q0 397 416 397h403v-92h-81v-1817h-99v1817h-188v-1817h-98z" />
    <glyph glyph-name="periodcentered" unicode="&#xb7;" horiz-adv-x="634" 
d="M317 608q35 0 60 -24t25 -60t-26 -60q-24 -24 -59 -24t-59 25t-25 59q1 34 25 60q24 24 59 24z" />
    <glyph glyph-name="periodcentered" unicode="&#x22c5;" horiz-adv-x="634" 
d="M317 608q35 0 60 -24t25 -60t-26 -60q-24 -24 -59 -24t-59 25t-25 59q1 34 25 60q24 24 59 24z" />
    <glyph glyph-name="periodcentered" unicode="&#x2219;" horiz-adv-x="634" 
d="M317 608q35 0 60 -24t25 -60t-26 -60q-24 -24 -59 -24t-59 25t-25 59q1 34 25 60q24 24 59 24z" />
    <glyph glyph-name="cedilla" unicode="&#xb8;" horiz-adv-x="612" 
d="M459 -86l-228 -289l-77 39l190 295z" />
    <glyph glyph-name="onesuperior" unicode="&#xb9;" horiz-adv-x="761" 
d="M430 1475h-156l31 69h195v-917h-70v848z" />
    <glyph glyph-name="ordmasculine" unicode="&#xba;" horiz-adv-x="671" 
d="M334 1565q135 0 229 -85t94 -211t-94 -211t-227 -85t-227 87q-95 87 -95 209t92 209q93 87 228 87zM578 1268q0 96 -72 162t-173 65q-101 0 -170 -69q-69 -68 -69 -158t70 -158t169 -68t172 65t73 161z" />
    <glyph glyph-name="guillemotright" unicode="&#xbb;" horiz-adv-x="813" 
d="M137 365l248 290l-248 291l60 55l299 -346l-299 -346zM383 365l248 290l-248 291l59 55l299 -346l-299 -346z" />
    <glyph glyph-name="onequarter" unicode="&#xbc;" horiz-adv-x="1904" 
d="M360 1475h-155l31 69h194v-917h-70v848zM1565 238h135v-70h-135v-168h-70v168h-530v8l587 782h13v-720zM1495 238v514h-10l-381 -506v-8h391zM1329 1581l66 -37l-916 -1579l-65 37z" />
    <glyph glyph-name="onehalf" unicode="&#xbd;" horiz-adv-x="1904" 
d="M360 1475h-155l31 69h194v-917h-70v848zM1696 70v-70h-619l373 379q180 180 180 293q0 88 -65 142q-66 54 -168 54q-101 0 -165 -55t-65 -147h-69q4 111 63 174q87 98 225 98t226 -78t88 -202t-180 -306l-279 -282h455zM1239 1581l66 -37l-916 -1579l-65 37z" />
    <glyph glyph-name="threequarters" unicode="&#xbe;" horiz-adv-x="1904" 
d="M1647 238h135v-70h-135v-168h-70v168h-530v8l587 782h13v-720zM1577 238v514h-10l-381 -506v-8h391zM403 1075v70q92 0 151 50q58 50 58 129t-55 125t-139 46q-178 0 -189 -160h-69q10 105 78 167t180 62t188 -69q76 -70 76 -168q0 -154 -152 -215q74 -27 120 -89
t46 -136q0 -117 -84 -195t-205 -78t-203 68t-81 172h70q23 -170 206 -170q96 0 162 56t66 144t-64 140q-64 51 -160 51zM1438 1581l65 -37l-915 -1579l-66 37z" />
    <glyph glyph-name="questiondown" unicode="&#xbf;" horiz-adv-x="1005" 
d="M281 326h-99q-8 141 83 235t231 94t235 -87q94 -87 94 -219q-1 -132 -77 -205t-216 -107q-80 -19 -122 -35q-125 -47 -157 -127q-19 -49 -20 -121q0 -120 76 -200t195 -80q120 0 194 74t74 186q0 66 -10 108h94q14 -76 14 -131q0 -143 -110 -236t-264 -93
q-156 0 -258 103t-103 265q0 162 86 244t254 123q156 37 204 91t48 143t-64 151q-65 61 -165 61t-159 -69q-58 -70 -58 -168zM508 967q36 0 60 -25q24 -26 24 -60t-25 -59t-59 -25t-60 26q-24 24 -24 59t24 59t60 25z" />
    <glyph glyph-name="Agrave" unicode="&#xc0;" horiz-adv-x="1312" 
d="M1202 0l-545 1346l-546 -1346h-101l647 1595l646 -1595h-101zM489 1950l125 39l207 -301l-78 -35z" />
    <glyph glyph-name="Aacute" unicode="&#xc1;" horiz-adv-x="1312" 
d="M1202 0l-545 1346l-546 -1346h-101l647 1595l646 -1595h-101zM696 1989l125 -39l-254 -297l-78 35z" />
    <glyph glyph-name="Acircumflex" unicode="&#xc2;" horiz-adv-x="1312" 
d="M1202 0l-545 1346l-546 -1346h-101l647 1595l646 -1595h-101zM375 1731l282 217l283 -217l-78 -60l-205 158l-208 -158z" />
    <glyph glyph-name="Atilde" unicode="&#xc3;" horiz-adv-x="1312" 
d="M1202 0l-545 1346l-546 -1346h-101l647 1595l646 -1595h-101zM519 1903q53 0 145 -40t129 -40q70 0 98 84l59 -45q-14 -54 -61 -94t-97 -40t-139 42q-88 40 -145 40t-86 -84l-62 46q23 55 65 93t94 38z" />
    <glyph glyph-name="Adieresis" unicode="&#xc4;" horiz-adv-x="1312" 
d="M1202 0l-545 1346l-546 -1346h-101l647 1595l646 -1595h-101zM465 1907q35 0 59 -24q24 -25 23 -59q0 -34 -24 -58q-25 -24 -59 -24t-58 24t-23 59q-1 35 23 59t59 23zM848 1907q34 0 58 -24q24 -25 24 -59t-24 -58t-58 -24t-58 24t-24 59t24 59t58 23z" />
    <glyph glyph-name="Aring" unicode="&#xc5;" horiz-adv-x="1312" 
d="M1202 0l-545 1346l-546 -1346h-101l647 1595l646 -1595h-101zM657 1989q74 -1 126 -53q53 -52 53 -126t-52 -126t-127 -52q-74 0 -126 52t-52 126t52 126t126 53zM657 1907q-41 0 -69 -28t-27 -69q0 -40 28 -68q29 -28 69 -28t68 28t28 68t-28 69q-28 28 -69 28z" />
    <glyph glyph-name="AE" unicode="&#xc6;" horiz-adv-x="1929" 
d="M983 508h-661l-201 -508h-111l623 1544h674l34 -92h-636l229 -561h620l39 -92h-620l287 -707h638l37 -92h-747zM944 600l-295 727l-289 -727h584z" />
    <glyph glyph-name="Ccedilla" unicode="&#xc7;" horiz-adv-x="1513" 
d="M874 1473q-286 0 -494 -212q-208 -213 -208 -493t207 -483q102 -97 233 -155t265 -58t284 66t232 169v-135q-231 -193 -514 -192q-326 0 -566 233q-239 233 -239 559t239 559t551 233t529 -200v-135q-91 109 -233 177t-286 67zM909 -86l-227 -289l-78 39l191 295z" />
    <glyph glyph-name="Egrave" unicode="&#xc8;" horiz-adv-x="1038" 
d="M903 1452h-639v-561h623v-92h-623v-707h639v-92h-737v1544h737v-92zM352 1950l125 39l207 -301l-78 -35z" />
    <glyph glyph-name="Eacute" unicode="&#xc9;" horiz-adv-x="1038" 
d="M903 1452h-639v-561h623v-92h-623v-707h639v-92h-737v1544h737v-92zM600 1989l125 -39l-254 -297l-78 35z" />
    <glyph glyph-name="Ecircumflex" unicode="&#xca;" horiz-adv-x="1038" 
d="M903 1452h-639v-561h623v-92h-623v-707h639v-92h-737v1544h737v-92zM238 1731l282 217l283 -217l-78 -60l-205 158l-209 -158z" />
    <glyph glyph-name="Edieresis" unicode="&#xcb;" horiz-adv-x="1038" 
d="M903 1452h-639v-561h623v-92h-623v-707h639v-92h-737v1544h737v-92zM328 1907q34 0 58 -24q24 -25 24 -59t-24 -58t-58 -24t-59 24q-24 24 -23 59q0 35 24 59t58 23zM711 1907q35 0 59 -24q24 -25 23 -59q0 -34 -24 -58q-25 -24 -59 -24t-58 24t-23 59q-1 35 23 59t59 23
z" />
    <glyph glyph-name="Igrave" unicode="&#xcc;" horiz-adv-x="430" 
d="M264 1544v-1544h-98v1544h98zM49 1950l125 39l207 -301l-78 -35z" />
    <glyph glyph-name="Iacute" unicode="&#xcd;" horiz-adv-x="430" 
d="M264 1544v-1544h-98v1544h98zM256 1989l125 -39l-254 -297l-78 35z" />
    <glyph glyph-name="Icircumflex" unicode="&#xce;" horiz-adv-x="430" 
d="M264 1544v-1544h-98v1544h98zM-68 1731l283 217l283 -217l-78 -60l-205 158l-209 -158z" />
    <glyph glyph-name="Idieresis" unicode="&#xcf;" horiz-adv-x="430" 
d="M264 1544v-1544h-98v1544h98zM25 1907q35 0 59 -24q24 -25 22 -59q0 -34 -24 -58t-58 -24t-58 24t-23 59q-1 35 23 59t59 23zM408 1907q34 0 58 -24q24 -25 24 -59t-24 -58t-58 -24t-59 24q-24 24 -23 59q0 35 24 59t58 23z" />
    <glyph glyph-name="Eth" unicode="&#xd0;" horiz-adv-x="1335" 
d="M264 1452v-563h354v-92h-354v-705h178q330 0 519 187q205 205 205 505t-224 500q-104 94 -223 131t-277 37h-178zM166 0v797h-166v92h166v655h278q184 0 318 -42t256 -152q246 -230 246 -574t-238 -571q-121 -117 -258 -161t-324 -44h-278z" />
    <glyph glyph-name="Ntilde" unicode="&#xd1;" horiz-adv-x="1726" 
d="M1561 1544v-1595l-1297 1378v-1327h-98v1565l1296 -1368v1347h99zM726 1903q52 0 144 -40t129 -40q70 0 99 84l59 -45q-14 -54 -61 -94q-48 -40 -98 -40t-138 42q-88 40 -145 40t-86 -84l-62 46q23 55 65 93t94 38z" />
    <glyph glyph-name="Ograve" unicode="&#xd2;" horiz-adv-x="1748" 
d="M873 1565q327 1 565 -233t238 -560t-238 -559t-564 -233t-564 233t-236 559q0 326 236 560t563 233zM873 1473q-289 0 -495 -207t-206 -494q0 -288 207 -494t495 -206t495 208q208 208 208 494t-208 492q-208 207 -496 207zM709 1950l125 39l206 -301l-77 -35z" />
    <glyph glyph-name="Oacute" unicode="&#xd3;" horiz-adv-x="1748" 
d="M873 1565q327 1 565 -233t238 -560t-238 -559t-564 -233t-564 233t-236 559q0 326 236 560t563 233zM873 1473q-289 0 -495 -207t-206 -494q0 -288 207 -494t495 -206t495 208q208 208 208 494t-208 492q-208 207 -496 207zM915 1989l125 -39l-254 -297l-77 35z" />
    <glyph glyph-name="Ocircumflex" unicode="&#xd4;" horiz-adv-x="1748" 
d="M873 1565q327 1 565 -233t238 -560t-238 -559t-564 -233t-564 233t-236 559q0 326 236 560t563 233zM873 1473q-289 0 -495 -207t-206 -494q0 -288 207 -494t495 -206t495 208q208 208 208 494t-208 492q-208 207 -496 207zM592 1731l282 217l283 -217l-78 -60l-205 158
l-208 -158z" />
    <glyph glyph-name="Otilde" unicode="&#xd5;" horiz-adv-x="1748" 
d="M873 1565q327 1 565 -233t238 -560t-238 -559t-564 -233t-564 233t-236 559q0 326 236 560t563 233zM873 1473q-289 0 -495 -207t-206 -494q0 -288 207 -494t495 -206t495 208q208 208 208 494t-208 492q-208 207 -496 207zM738 1903q52 0 144 -40t130 -40q70 0 98 84
l59 -45q-14 -54 -61 -94t-97 -40q-51 0 -139 42q-88 40 -145 40t-86 -84l-61 46q23 55 64 93q42 38 94 38z" />
    <glyph glyph-name="Odieresis" unicode="&#xd6;" horiz-adv-x="1748" 
d="M873 1565q327 1 565 -233t238 -560t-238 -559t-564 -233t-564 233t-236 559q0 326 236 560t563 233zM873 1473q-289 0 -495 -207t-206 -494q0 -288 207 -494t495 -206t495 208q208 208 208 494t-208 492q-208 207 -496 207zM684 1907q34 0 58 -24q24 -25 24 -59t-24 -58
t-58 -24t-58 24t-24 59t24 59t58 23zM1067 1907q35 0 59 -24q24 -25 23 -59q0 -34 -24 -58q-25 -24 -59 -24t-58 24t-23 59q-1 35 23 59t59 23z" />
    <glyph glyph-name="multiply" unicode="&#xd7;" 
d="M571 524l-460 455l61 70l463 -463l463 463l61 -70l-459 -455l459 -458l-61 -66l-463 461l-461 -461l-63 66z" />
    <glyph glyph-name="Oslash" unicode="&#xd8;" horiz-adv-x="1748" 
d="M172 782q0 -278 178 -473l985 985q-195 178 -473 178t-484 -206t-206 -484zM885 72q276 0 484 208t208 485t-184 474l-985 -987q201 -180 477 -180zM74 784q0 314 236 547q237 233 550 233t543 -202l186 186l60 -53l-189 -188q215 -227 215 -544q1 -317 -237 -550
t-558 -233t-538 206l-186 -186l-56 59l185 185q-211 226 -211 540z" />
    <glyph glyph-name="Ugrave" unicode="&#xd9;" horiz-adv-x="1351" 
d="M1102 610v934h98v-962q0 -102 -3 -156t-28 -129q-25 -76 -73 -137q-76 -88 -188 -134t-232 -46t-233 46q-112 46 -187 134q-49 61 -74 137t-27 129q-3 53 -3 156v962h98v-934q0 -94 3 -145t21 -124q40 -163 207 -229q99 -40 195 -40t194 40t144 98q73 93 85 255
q3 51 3 145zM479 1950l125 39l207 -301l-78 -35z" />
    <glyph glyph-name="Uacute" unicode="&#xda;" horiz-adv-x="1351" 
d="M1102 610v934h98v-962q0 -102 -3 -156t-28 -129q-25 -76 -73 -137q-76 -88 -188 -134t-232 -46t-233 46q-112 46 -187 134q-49 61 -74 137t-27 129q-3 53 -3 156v962h98v-934q0 -94 3 -145t21 -124q40 -163 207 -229q99 -40 195 -40t194 40t144 98q73 93 85 255
q3 51 3 145zM748 1989l124 -39l-254 -297l-77 35z" />
    <glyph glyph-name="Ucircumflex" unicode="&#xdb;" horiz-adv-x="1351" 
d="M1102 610v934h98v-962q0 -102 -3 -156t-28 -129q-25 -76 -73 -137q-76 -88 -188 -134t-232 -46t-233 46q-112 46 -187 134q-49 61 -74 137t-27 129q-3 53 -3 156v962h98v-934q0 -94 3 -145t21 -124q40 -163 207 -229q99 -40 195 -40t194 40t144 98q73 93 85 255
q3 51 3 145zM393 1731l283 217l282 -217l-77 -60l-205 158l-209 -158z" />
    <glyph glyph-name="Udieresis" unicode="&#xdc;" horiz-adv-x="1351" 
d="M1102 610v934h98v-962q0 -102 -3 -156t-28 -129q-25 -76 -73 -137q-76 -88 -188 -134t-232 -46t-233 46q-112 46 -187 134q-49 61 -74 137t-27 129q-3 53 -3 156v962h98v-934q0 -94 3 -145t21 -124q40 -163 207 -229q99 -40 195 -40t194 40t144 98q73 93 85 255
q3 51 3 145zM485 1907q35 0 59 -24q24 -25 24 -59t-24 -58t-59 -24t-59 24t-23 59q-1 35 23 59t59 23zM868 1907q35 0 59 -24q23 -25 23 -59t-24 -58t-58 -24t-58 24t-24 59t24 59t58 23z" />
    <glyph glyph-name="Yacute" unicode="&#xdd;" horiz-adv-x="1144" 
d="M621 0h-99v659l-514 885h109l454 -782l455 782h109l-514 -885v-659zM674 1989l125 -39l-254 -297l-78 35z" />
    <glyph glyph-name="Thorn" unicode="&#xde;" horiz-adv-x="966" 
d="M166 0v1544h98v-327h174q111 1 190 -17t144 -74q139 -114 139 -316t-129 -306q-115 -98 -344 -98h-174v-406h-98zM264 498h178q176 0 274 88t97 240q0 152 -117 237q-82 61 -270 61h-162v-626z" />
    <glyph glyph-name="germandbls" unicode="&#xdf;" horiz-adv-x="1093" 
d="M158 0v860h-101v86h101v385q0 188 69 268q92 117 273 117q141 0 233 -95t92 -237q0 -94 -48 -171t-132 -107v-4q171 -49 277 -201t106 -332q0 -229 -162 -395t-393 -186v86q195 31 329 167q134 137 134 333t-130 327t-333 152v86q117 3 189 71t72 178t-71 176
q-71 67 -178 66q-139 0 -196 -98q-39 -63 -39 -234v-1298h-92z" />
    <glyph glyph-name="agrave" unicode="&#xe0;" horiz-adv-x="1146" 
d="M529 881q-165 0 -268 -121t-103 -286t103 -287q103 -121 273 -121t270 121q99 122 99 296t-104 286q-105 112 -270 112zM989 946v-946h-92v170h-4q-53 -88 -153 -139t-208 -51q-210 0 -338 143t-128 356t125 350q126 137 337 138q113 0 209 -48t156 -137h4v164h92z
M377 1423l125 39l207 -301l-78 -35z" />
    <glyph glyph-name="aacute" unicode="&#xe1;" horiz-adv-x="1146" 
d="M529 881q-165 0 -268 -121t-103 -286t103 -287q103 -121 273 -121t270 121q99 122 99 296t-104 286q-105 112 -270 112zM989 946v-946h-92v170h-4q-53 -88 -153 -139t-208 -51q-210 0 -338 143t-128 356t125 350q126 137 337 138q113 0 209 -48t156 -137h4v164h92z
M645 1462l125 -39l-254 -297l-78 35z" />
    <glyph glyph-name="acircumflex" unicode="&#xe2;" horiz-adv-x="1146" 
d="M529 881q-165 0 -268 -121t-103 -286t103 -287q103 -121 273 -121t270 121q99 122 99 296t-104 286q-105 112 -270 112zM989 946v-946h-92v170h-4q-53 -88 -153 -139t-208 -51q-210 0 -338 143t-128 356t125 350q126 137 337 138q113 0 209 -48t156 -137h4v164h92z
M291 1204l282 217l283 -217l-78 -59l-205 158l-208 -158z" />
    <glyph glyph-name="atilde" unicode="&#xe3;" horiz-adv-x="1146" 
d="M529 881q-165 0 -268 -121t-103 -286t103 -287q103 -121 273 -121t270 121q99 122 99 296t-104 286q-105 112 -270 112zM989 946v-946h-92v170h-4q-53 -88 -153 -139t-208 -51q-210 0 -338 143t-128 356t125 350q126 137 337 138q113 0 209 -48t156 -137h4v164h92z
M437 1376q53 0 145 -40t129 -40q70 0 98 84l59 -45q-14 -55 -61 -94t-97 -39t-139 41q-88 41 -145 41t-86 -84l-61 45q23 55 64 93q42 38 94 38z" />
    <glyph glyph-name="adieresis" unicode="&#xe4;" horiz-adv-x="1146" 
d="M529 881q-165 0 -268 -121t-103 -286t103 -287q103 -121 273 -121t270 121q99 122 99 296t-104 286q-105 112 -270 112zM989 946v-946h-92v170h-4q-53 -88 -153 -139t-208 -51q-210 0 -338 143t-128 356t125 350q126 137 337 138q113 0 209 -48t156 -137h4v164h92z
M383 1380q35 0 59 -24t23 -58q0 -34 -24 -58q-25 -24 -59 -24t-58 24t-23 58q-1 34 23 58t59 24zM766 1380q34 0 58 -24t24 -58t-24 -58t-58 -24t-58 24t-24 58t24 58t58 24z" />
    <glyph glyph-name="aring" unicode="&#xe5;" horiz-adv-x="1146" 
d="M529 881q-165 0 -268 -121t-103 -286t103 -287q103 -121 273 -121t270 121q99 122 99 296t-104 286q-105 112 -270 112zM989 946v-946h-92v170h-4q-53 -88 -153 -139t-208 -51q-210 0 -338 143t-128 356t125 350q126 137 337 138q113 0 209 -48t156 -137h4v164h92z
M573 1462q74 0 126 -52q53 -52 53 -126t-52 -126t-127 -52q-74 0 -126 52t-52 126t52 126t126 52zM573 1380q-41 0 -69 -28t-27 -68q0 -41 28 -69q29 -27 69 -27t68 28t28 68t-28 68t-69 28z" />
    <glyph glyph-name="ae" unicode="&#xe6;" horiz-adv-x="1738" 
d="M852 549h729q-17 133 -121 232t-242 99t-246 -98t-120 -233zM476 485q-98 0 -165 -16q-68 -17 -122 -67t-54 -126q0 -114 91 -162t212 -48t221 53q101 53 101 159t-93 157q-93 50 -191 50zM428 -20q-142 0 -264 76t-121 221q0 143 127 219q126 76 302 76t288 -101
q0 182 -81 296t-255 114q-135 0 -318 -86v94q156 78 312 78q299 0 395 -262q49 117 161 189t240 73q207 1 333 -147t126 -357h-821q4 -166 107 -282t266 -115q213 0 338 213l79 -54q-160 -246 -421 -245q-123 0 -232 62t-155 171h-5q-31 -117 -145 -175t-256 -58z" />
    <glyph glyph-name="ccedilla" unicode="&#xe7;" horiz-adv-x="976" 
d="M564 881q-178 0 -293 -121q-113 -121 -113 -285t112 -287t277 -122q205 0 348 170v-125q-151 -131 -351 -131t-339 143t-139 351t140 350t338 142t339 -116v-123q-141 154 -319 154zM641 -86l-227 -289l-78 39l190 295z" />
    <glyph glyph-name="egrave" unicode="&#xe8;" horiz-adv-x="1044" 
d="M979 465h-821q-4 -178 104 -289t275 -110q109 0 195 57t138 158l78 -45q-137 -256 -424 -256q-206 0 -332 144t-126 349t128 349t334 144t328 -144q123 -144 123 -357zM158 551h729q-19 135 -119 232t-242 97t-248 -96q-108 -98 -120 -233zM326 1423l125 39l206 -301
l-77 -35z" />
    <glyph glyph-name="eacute" unicode="&#xe9;" horiz-adv-x="1044" 
d="M979 465h-821q-4 -178 104 -289t275 -110q109 0 195 57t138 158l78 -45q-137 -256 -424 -256q-206 0 -332 144t-126 349t128 349t334 144t328 -144q123 -144 123 -357zM158 551h729q-19 135 -119 232t-242 97t-248 -96q-108 -98 -120 -233zM594 1462l125 -39l-254 -297
l-78 35z" />
    <glyph glyph-name="ecircumflex" unicode="&#xea;" horiz-adv-x="1044" 
d="M979 465h-821q-4 -178 104 -289t275 -110q109 0 195 57t138 158l78 -45q-137 -256 -424 -256q-206 0 -332 144t-126 349t128 349t334 144t328 -144q123 -144 123 -357zM158 551h729q-19 135 -119 232t-242 97t-248 -96q-108 -98 -120 -233zM240 1204l282 217l283 -217
l-78 -59l-205 158l-209 -158z" />
    <glyph glyph-name="edieresis" unicode="&#xeb;" horiz-adv-x="1044" 
d="M979 465h-821q-4 -178 104 -289t275 -110q109 0 195 57t138 158l78 -45q-137 -256 -424 -256q-206 0 -332 144t-126 349t128 349t334 144t328 -144q123 -144 123 -357zM158 551h729q-19 135 -119 232t-242 97t-248 -96q-108 -98 -120 -233zM332 1380q34 0 58 -24t24 -58
t-24 -58t-58 -24t-59 24q-23 24 -23 58t23 59q24 23 59 23zM715 1380q35 0 59 -24t23 -58q0 -34 -24 -58q-25 -24 -59 -24t-58 24t-24 58t24 59q24 23 59 23z" />
    <glyph glyph-name="igrave" unicode="&#xec;" horiz-adv-x="479" 
d="M285 946v-946h-92v946h92zM43 1423l125 39l207 -301l-78 -35z" />
    <glyph glyph-name="iacute" unicode="&#xed;" horiz-adv-x="479" 
d="M285 946v-946h-92v946h92zM311 1462l125 -39l-254 -297l-78 35z" />
    <glyph glyph-name="icircumflex" unicode="&#xee;" horiz-adv-x="479" 
d="M285 946v-946h-92v946h92zM-43 1204l283 217l282 -217l-78 -59l-204 158l-209 -158z" />
    <glyph glyph-name="idieresis" unicode="&#xef;" horiz-adv-x="479" 
d="M285 946v-946h-92v946h92zM49 1380q35 0 59 -24t24 -58t-24 -58t-59 -24t-59 24t-23 58q-1 34 23 58t59 24zM432 1380q34 0 58 -24t24 -58t-24 -58t-58 -24t-58 24t-24 58t24 58t58 24z" />
    <glyph glyph-name="eth" unicode="&#xf0;" horiz-adv-x="1120" 
d="M1055 532q0 -184 -75 -313q-139 -239 -423 -239q-205 0 -348 145t-143 347t143 349t341 147t359 -143q-57 164 -143 294t-248 278l-299 -168l-51 69l281 154q-89 76 -267 182l66 62q180 -109 284 -195l318 178l51 -67l-301 -168q211 -186 333 -418t122 -494zM556 881
q-171 0 -285 -121q-113 -121 -113 -287t114 -287q114 -120 283 -120q170 0 289 116t119 291q0 174 -118 291t-289 117z" />
    <glyph glyph-name="ntilde" unicode="&#xf1;" horiz-adv-x="1003" 
d="M250 946v-147h4q41 80 115 124t166 44q175 1 243 -99t68 -297v-571h-92v571q0 136 -40 223t-188 87q-276 0 -276 -414v-467h-92v946h92zM366 1376q52 0 144 -40t129 -40q70 0 98 84l60 -45q-13 -55 -61 -94t-98 -39t-138 41t-146 41t-86 -84l-61 45q23 55 64 93
q43 38 95 38z" />
    <glyph glyph-name="ograve" unicode="&#xf2;" horiz-adv-x="1120" 
d="M66 473q0 203 143 349t350 145t351 -143t144 -351t-144 -351t-350 -142t-350 145t-144 348zM556 881q-171 0 -285 -121q-113 -121 -113 -287t114 -287q114 -120 283 -120q170 0 289 116t119 291q0 174 -118 291t-289 117zM362 1423l125 39l207 -301l-78 -35z" />
    <glyph glyph-name="oacute" unicode="&#xf3;" horiz-adv-x="1120" 
d="M66 473q0 203 143 349t350 145t351 -143t144 -351t-144 -351t-350 -142t-350 145t-144 348zM556 881q-171 0 -285 -121q-113 -121 -113 -287t114 -287q114 -120 283 -120q170 0 289 116t119 291q0 174 -118 291t-289 117zM631 1462l125 -39l-254 -297l-78 35z" />
    <glyph glyph-name="ocircumflex" unicode="&#xf4;" horiz-adv-x="1120" 
d="M66 473q0 203 143 349t350 145t351 -143t144 -351t-144 -351t-350 -142t-350 145t-144 348zM556 881q-171 0 -285 -121q-113 -121 -113 -287t114 -287q114 -120 283 -120q170 0 289 116t119 291q0 174 -118 291t-289 117zM279 1204l282 217l283 -217l-78 -59l-205 158
l-209 -158z" />
    <glyph glyph-name="otilde" unicode="&#xf5;" horiz-adv-x="1120" 
d="M66 473q0 203 143 349t350 145t351 -143t144 -351t-144 -351t-350 -142t-350 145t-144 348zM556 881q-171 0 -285 -121q-113 -121 -113 -287t114 -287q114 -120 283 -120q170 0 289 116t119 291q0 174 -118 291t-289 117zM423 1376q52 0 144 -40t129 -40q70 0 99 84
l59 -45q-14 -55 -61 -94t-97 -39t-139 41q-88 41 -145 41t-86 -84l-62 45q23 55 65 93t94 38z" />
    <glyph glyph-name="odieresis" unicode="&#xf6;" horiz-adv-x="1120" 
d="M66 473q0 203 143 349t350 145t351 -143t144 -351t-144 -351t-350 -142t-350 145t-144 348zM556 881q-171 0 -285 -121q-113 -121 -113 -287t114 -287q114 -120 283 -120q170 0 289 116t119 291q0 174 -118 291t-289 117zM369 1380q35 0 59 -24t23 -58q0 -34 -24 -58
q-25 -24 -59 -24t-58 24t-24 58t24 59q24 23 59 23zM752 1380q34 0 58 -24t24 -58t-24 -58t-58 -24t-59 24q-23 24 -23 58t23 59q24 23 59 23z" />
    <glyph glyph-name="divide" unicode="&#xf7;" 
d="M111 475v98h1048v-98h-1048zM635 168q35 0 59 -25t25 -59q0 -34 -25 -60q-26 -24 -60 -24t-59 25t-25 59t26 60q24 24 59 24zM635 1049q35 0 59 -25q24 -26 25 -60q0 -34 -25 -59q-26 -25 -60 -25t-59 26q-25 24 -24 59t25 59t59 25z" />
    <glyph glyph-name="oslash" unicode="&#xf8;" horiz-adv-x="1120" 
d="M542 881q-158 0 -271 -121t-113 -278t86 -261l569 570q-113 90 -271 90zM563 66q162 0 281 116q118 116 118 278t-92 271l-573 -567q104 -98 266 -98zM1055 465q-1 -201 -145 -343t-342 -142t-332 122l-123 -122l-56 55l123 123q-114 134 -114 326t143 337t335 145
t333 -112l129 129l57 -59l-127 -127q119 -131 119 -332z" />
    <glyph glyph-name="ugrave" unicode="&#xf9;" horiz-adv-x="966" 
d="M731 946h92v-567q0 -67 -1 -99t-15 -84t-41 -90q-94 -126 -282 -126t-283 126q-27 38 -41 90t-16 84q-1 32 -1 99v567h93v-534q0 -153 37 -240q49 -108 210 -107q162 1 210 107q38 84 38 240v534zM266 1423l125 39l207 -301l-78 -35z" />
    <glyph glyph-name="uacute" unicode="&#xfa;" horiz-adv-x="966" 
d="M731 946h92v-567q0 -67 -1 -99t-15 -84t-41 -90q-94 -126 -282 -126t-283 126q-27 38 -41 90t-16 84q-1 32 -1 99v567h93v-534q0 -153 37 -240q49 -108 210 -107q162 1 210 107q38 84 38 240v534zM575 1462l125 -39l-254 -297l-77 35z" />
    <glyph glyph-name="ucircumflex" unicode="&#xfb;" horiz-adv-x="966" 
d="M731 946h92v-567q0 -67 -1 -99t-15 -84t-41 -90q-94 -126 -282 -126t-283 126q-27 38 -41 90t-16 84q-1 32 -1 99v567h93v-534q0 -153 37 -240q49 -108 210 -107q162 1 210 107q38 84 38 240v534zM201 1204l282 217l283 -217l-78 -59l-205 158l-209 -158z" />
    <glyph glyph-name="udieresis" unicode="&#xfc;" horiz-adv-x="966" 
d="M731 946h92v-567q0 -67 -1 -99t-15 -84t-41 -90q-94 -126 -282 -126t-283 126q-27 38 -41 90t-16 84q-1 32 -1 99v567h93v-534q0 -153 37 -240q49 -108 210 -107q162 1 210 107q38 84 38 240v534zM293 1380q35 0 59 -24t23 -58q0 -34 -24 -58q-25 -24 -59 -24t-58 24
t-24 58t24 59q24 23 59 23zM676 1380q34 0 58 -24t24 -58t-24 -58t-58 -24t-59 24q-23 24 -23 58t23 59q24 23 59 23z" />
    <glyph glyph-name="yacute" unicode="&#xfd;" horiz-adv-x="942" 
d="M440 -16l-454 962h96l403 -856l363 856h94l-635 -1499h-94zM573 1462l125 -39l-254 -297l-77 35z" />
    <glyph glyph-name="thorn" unicode="&#xfe;" horiz-adv-x="1146" 
d="M614 881q-170 0 -270 -124t-100 -298t103 -284q103 -109 269 -109t270 116q103 116 103 284q0 167 -102 291q-103 124 -273 124zM250 164v-717h-92v2243h92v-914h4q54 90 152 140t208 51q211 -1 339 -145t128 -356t-127 -349t-336 -137q-112 0 -208 47t-156 137h-4z" />
    <glyph glyph-name="ydieresis" unicode="&#xff;" horiz-adv-x="942" 
d="M440 -16l-454 962h96l403 -856l363 856h94l-635 -1499h-94zM291 1380q35 0 59 -24t23 -58q0 -34 -24 -58q-25 -24 -59 -24t-58 24t-24 58t24 59q24 23 59 23zM674 1380q34 0 58 -24t24 -58t-24 -58t-58 -24t-59 24q-23 24 -23 58t23 59q24 23 59 23z" />
    <glyph glyph-name="OE" unicode="&#x152;" horiz-adv-x="2443" 
d="M1571 0v397h-4q-92 -193 -285 -305t-410 -112q-152 0 -297 59t-256 164q-245 233 -245 566t238 564q239 231 569 232q215 0 403 -116t283 -306h4v401h737v-92h-639v-561h625v-92h-625v-707h639v-92h-737zM879 1473q-285 0 -496 -208t-211 -499t215 -494
q207 -201 487 -200q142 0 274 57t230 160q190 201 190 485t-202 492q-202 207 -487 207z" />
    <glyph glyph-name="oe" unicode="&#x153;" horiz-adv-x="1935" 
d="M1870 465h-817q-7 -166 101 -283t271 -116q231 0 334 219l78 -47q-61 -125 -171 -192q-110 -66 -247 -66t-251 76t-162 202q-60 -127 -182 -203t-261 -75q-209 0 -353 142t-144 350t146 351t355 144q139 0 261 -75t178 -200q49 129 158 202q110 73 251 73
q213 -1 334 -143t121 -359zM1053 551h725q-18 135 -118 232t-242 97t-248 -96q-106 -98 -117 -233zM560 881q-169 0 -286 -121q-116 -121 -116 -288t118 -287q118 -119 282 -119q165 0 284 118t119 287q0 168 -116 289t-285 121z" />
    <glyph glyph-name="Scaron" unicode="&#x160;" horiz-adv-x="1114" 
d="M1026 432q0 -192 -145 -322t-321 -130t-296 90q-121 90 -176 241l86 39q111 -279 373 -278q157 0 269 105t112 259q0 64 -20 96t-30 49q-9 17 -37 37t-38 30t-49 32q-39 21 -88 44q-48 23 -50 26l-278 147q-160 97 -160 273t112 286t283 109q117 -1 219 -59t158 -158
l-69 -58q-117 182 -314 183q-123 -1 -207 -87t-84 -212t131 -206q57 -36 148 -79l295 -154q176 -111 176 -303zM860 1890l-282 -219l-283 219l78 58l205 -156l208 156z" />
    <glyph glyph-name="scaron" unicode="&#x161;" horiz-adv-x="768" 
d="M688 257q0 -112 -88 -195q-88 -82 -212 -82t-213 68t-118 181l90 29q59 -193 236 -192q90 0 152 61q61 61 61 145t-47 124q-47 38 -119 64q-189 67 -241 125t-53 152t75 162t166 68q91 0 159 -43t99 -109l-80 -41q-49 106 -166 107q-61 0 -111 -44q-50 -45 -50 -105
t46 -99q47 -39 115 -63t136 -51q163 -66 163 -262zM668 1364l-283 -219l-283 219l78 57l205 -155l209 155z" />
    <glyph glyph-name="Ydieresis" unicode="&#x178;" horiz-adv-x="1144" 
d="M621 0h-99v659l-514 885h109l454 -782l455 782h109l-514 -885v-659zM406 1907q34 0 58 -24q24 -25 24 -59t-24 -58t-58 -24t-59 24q-24 24 -23 59q0 35 24 59t58 23zM788 1907q35 0 59 -24q23 -25 23 -59t-24 -58t-58 -24t-58 24t-23 59q0 35 23 59t58 23z" />
    <glyph glyph-name="florin" unicode="&#x192;" 
d="M284 -287q-56 0 -141 35l19 86q74 -29 150 -29q76 -1 107 49q30 50 64 207l162 842h-141l18 92h140l81 439q37 154 60 188q61 94 192 94q70 0 133 -30l-18 -84q-112 47 -197 -1q-51 -29 -74 -144q-10 -52 -16 -91l-67 -371h237l-18 -92h-236l-147 -778q-29 -174 -42 -205
q-12 -32 -26 -65t-27 -49t-37 -42q-24 -27 -72 -39t-104 -12z" />
    <glyph glyph-name="circumflex" unicode="&#x2c6;" horiz-adv-x="872" 
d="M154 1204l282 217l283 -217l-78 -59l-205 158l-209 -158z" />
    <glyph glyph-name="tilde" unicode="&#x2dc;" horiz-adv-x="899" 
d="M312 1376q52 0 144 -40t130 -40q70 0 98 84l59 -45q-14 -55 -61 -94t-97 -39q-51 0 -139 41t-145 41t-86 -84l-61 45q23 55 64 93q42 38 94 38z" />
    <glyph glyph-name="endash" unicode="&#x2013;" horiz-adv-x="1024" 
d="M0 700h1024v-92h-1024v92z" />
    <glyph glyph-name="emdash" unicode="&#x2014;" horiz-adv-x="2048" 
d="M266 700h1516v-92h-1516v92z" />
    <glyph glyph-name="quoteleft" unicode="&#x2018;" horiz-adv-x="530" 
d="M242 1073l-92 27l169 465l62 -23z" />
    <glyph glyph-name="quoteright" unicode="&#x2019;" horiz-adv-x="530" 
d="M289 1565l92 -27l-170 -465l-61 23z" />
    <glyph glyph-name="quotesinglbase" unicode="&#x201a;" horiz-adv-x="530" 
d="M289 152l92 -29l-170 -463l-61 23z" />
    <glyph glyph-name="quotedblleft" unicode="&#x201c;" horiz-adv-x="798" 
d="M510 1073l-92 27l170 465l61 -23zM242 1073l-92 27l169 465l62 -23z" />
    <glyph glyph-name="quotedblright" unicode="&#x201d;" horiz-adv-x="798" 
d="M289 1565l92 -27l-170 -465l-61 23zM557 1565l92 -27l-170 -465l-61 23z" />
    <glyph glyph-name="quotedblbase" unicode="&#x201e;" horiz-adv-x="798" 
d="M289 152l92 -29l-170 -463l-61 23zM557 152l92 -29l-170 -463l-61 23z" />
    <glyph glyph-name="dagger" unicode="&#x2020;" 
d="M586 1544h98v-407h371v-93h-371v-1409h-98v1409h-371v93h371v407z" />
    <glyph glyph-name="daggerdbl" unicode="&#x2021;" 
d="M586 1544h98v-407h371v-93h-371v-876h371v-92h-371v-441h-98v441h-371v92h371v876h-371v93h371v407z" />
    <glyph glyph-name="bullet" unicode="&#x2022;" 
d="M637 1159q165 -1 275 -113t110 -273t-111 -273t-275 -113q-164 0 -275 113q-111 114 -111 274t111 273q112 112 276 112z" />
    <glyph glyph-name="ellipsis" unicode="&#x2026;" horiz-adv-x="2048" 
d="M342 154q36 0 60 -25t24 -59t-25 -60q-25 -24 -59 -24t-60 24q-24 24 -24 60t24 60t60 24zM1024 154q36 0 60 -25t24 -59t-25 -60q-25 -24 -59 -24t-60 24q-24 24 -24 60t24 60t60 24zM1706 154q36 0 60 -25t24 -59t-25 -60q-25 -24 -59 -24t-60 24q-24 24 -24 60t24 60
t60 24z" />
    <glyph glyph-name="perthousand" unicode="&#x2030;" horiz-adv-x="2117" 
d="M1749 592q131 0 221 -87t90 -217t-90 -216t-221 -86t-221 86t-90 216t90 217t221 87zM1749 506q-92 0 -159 -64q-66 -64 -66 -154q0 -91 66 -154q67 -62 159 -62t159 62q66 62 66 154t-66 154q-66 64 -159 64zM369 1559q131 1 221 -87t90 -218t-90 -216t-221 -86t-222 86
q-90 86 -90 216q1 130 91 218t221 87zM369 1473q-92 1 -159 -63t-67 -156t67 -153q67 -63 159 -63q93 0 159 62t66 154q0 91 -66 155t-159 64zM1102 1579l67 -35l-917 -1579l-64 37zM991 592q131 0 221 -87t90 -217t-90 -216t-221 -86t-221 86t-90 216t90 217t221 87z
M991 506q-93 0 -159 -64t-66 -154q0 -92 67 -154t159 -62t158 62q67 62 67 154t-67 154q-67 64 -159 64z" />
    <glyph glyph-name="guilsinglleft" unicode="&#x2039;" horiz-adv-x="567" 
d="M182 655l248 -290l-59 -56l-299 346l299 346l59 -55z" />
    <glyph glyph-name="guilsinglright" unicode="&#x203a;" horiz-adv-x="567" 
d="M137 365l248 290l-248 291l60 55l299 -346l-299 -346z" />
    <glyph glyph-name="trademark" unicode="&#x2122;" horiz-adv-x="1925" 
d="M774 1544v-86h-285v-776h-86v776h-284v86h655zM944 1544h148l280 -670h4l285 670h147v-862h-86v776h-8l-338 -776h-4l-334 776h-8v-776h-86v862z" />
    <glyph glyph-name="CR" horiz-adv-x="634" 
 />
    <glyph glyph-name="Lslash" horiz-adv-x="669" 
d="M166 0v725l-166 -117v101l166 116v719h98v-651l262 182v-100l-262 -182v-701h393v-92h-491z" />
    <glyph glyph-name="breve" horiz-adv-x="888" 
d="M444 1255q158 0 201 125h88q-12 -102 -95 -159t-193 -57q-111 0 -195 56q-84 58 -96 160h90q42 -125 200 -125z" />
    <glyph glyph-name="caron" horiz-adv-x="872" 
d="M719 1364l-283 -219l-282 219l77 57l205 -155l209 155z" />
    <glyph glyph-name="dotaccent" horiz-adv-x="641" 
d="M322 1380q34 0 58 -24t24 -58t-24 -58t-58 -24t-59 24q-23 24 -23 58t23 59q24 23 59 23z" />
    <glyph glyph-name="dotlessi" horiz-adv-x="479" 
d="M285 946v-946h-92v946h92z" />
    <glyph glyph-name="fi" horiz-adv-x="972" 
d="M778 946v-946h-92v946h92zM733 1346q35 0 60 -25t25 -59t-26 -60q-24 -24 -59 -24t-59 24t-25 60q1 36 25 60t59 24zM250 860v-860h-92v860h-105v86h105v424q0 164 37 232q66 115 211 114q47 0 81 -14v-84q-49 12 -89 12t-77 -24q-71 -48 -71 -254v-406h237v-86h-237z
" />
    <glyph glyph-name="fl" horiz-adv-x="899" 
d="M250 860v-860h-92v860h-105v86h105v424q0 164 37 232q66 115 211 114q47 0 81 -14v-84q-49 12 -89 12t-77 -24q-71 -48 -71 -254v-406h237v-86h-237zM741 1690v-1690h-92v1690h92z" />
    <glyph glyph-name="fraction" horiz-adv-x="264" 
d="M557 1581l66 -37l-916 -1579l-65 37z" />
    <glyph glyph-name="hungarumlaut" horiz-adv-x="913" 
d="M362 1462l125 -39l-254 -297l-77 35zM635 1462l125 -39l-254 -297l-78 35z" />
    <glyph glyph-name="lslash" horiz-adv-x="468" 
d="M188 0v801l-153 -111v92l153 111v797h93v-732l153 109v-92l-153 -109v-866h-93z" />
    <glyph glyph-name="minus" 
d="M111 475v98h1048v-98h-1048z" />
    <glyph glyph-name="ogonek" horiz-adv-x="657" 
d="M401 4v-4q-158 -115 -157 -215q0 -59 40 -90t95 -31t123 25l-21 -90q-63 -18 -106 -19q-90 0 -156 54t-65 143q-1 123 159 227h88z" />
    <glyph glyph-name="ring" horiz-adv-x="663" 
d="M332 1462q74 0 126 -52t52 -126t-52 -126t-126 -52t-126 52t-52 126t52 126t126 52zM332 1380q-41 0 -69 -28q-27 -28 -27 -68q0 -41 28 -69q28 -27 68 -27t68 28t28 68t-28 68t-68 28z" />
    </font>
</defs>
</svg>
