<?xml version="1.0" standalone="no"?>
<!DOCTYPE svg PUBLIC "-//W3C//DTD SVG 1.1//EN" "http://www.w3.org/Graphics/SVG/1.1/DTD/svg11.dtd" >
<svg xmlns="http://www.w3.org/2000/svg">
<metadata>
Created by FontPrep 20130207 at Mon Apr 27 13:26:19 2015
 By Martin
(c) 1989, 1995, 2002 Adobe Systems Incorporated. All rights reserved.
</metadata>
<defs>
<font id="a1eb5a5cfcec2ff7c30fe732daf3b2e8" horiz-adv-x='1024' >
  <font-face 
    font-family="AvenirLTStd-Heavy"
    font-weight="700"
    font-stretch="normal"
    units-per-em="2048"
    panose-1="2 11 7 3 2 2 3 2 2 4"
    ascent="1548"
    descent="-500"
    x-height="983"
    cap-height="1450"
    bbox="-340 -512 2376 1923"
    underline-thickness="102"
    underline-position="-102"
    unicode-range="U+0020-FB02"
  />
<missing-glyph horiz-adv-x="1024" 
d="M102 1239v-1044l349 522zM164 102h696l-348 523zM573 717l349 -522v1044zM512 809l348 522h-696zM0 0v1434h1024v-1434h-1024z" />
    <glyph glyph-name="f_i" unicode="fi" horiz-adv-x="1214" 
d="M827 1317q0 59 45 103t112 44t113 -42t46 -105t-46 -105t-113 -43q-67 1 -112 45t-45 103zM860 0v983h246v-983h-246zM227 0v774h-202v209h202v139q0 225 77 338t290 113q84 0 156 -14l-17 -209q-61 14 -102 14q-94 0 -126 -53t-32 -150v-178h227v-209h-227v-774h-246z
" />
    <glyph glyph-name="f_l" unicode="fl" horiz-adv-x="1214" 
d="M860 0v1548h246v-1548h-246zM227 0v774h-202v209h202v139q0 225 77 338t290 113q84 0 156 -14l-17 -209q-61 14 -102 14q-94 0 -126 -53t-32 -150v-178h227v-209h-227v-774h-246z" />
    <glyph glyph-name=".notdef" horiz-adv-x="1024" 
d="M102 1239v-1044l349 522zM164 102h696l-348 523zM573 717l349 -522v1044zM512 809l348 522h-696zM0 0v1434h1024v-1434h-1024z" />
    <glyph glyph-name=".null" horiz-adv-x="0" 
 />
    <glyph glyph-name="nonmarkingreturn" horiz-adv-x="681" 
 />
    <glyph glyph-name="space" unicode=" " horiz-adv-x="606" 
 />
    <glyph glyph-name="exclam" unicode="!" horiz-adv-x="606" 
d="M139 143q0 66 48 113t116 47t116 -45t48 -111q0 -67 -48 -113t-115 -46t-116 44t-49 111zM426 1450v-995h-246v995h246z" />
    <glyph glyph-name="quotedbl" unicode="&#x22;" horiz-adv-x="1062" 
d="M608 909v541h209v-541h-209zM246 909v541h209v-541h-209z" />
    <glyph glyph-name="numbersign" unicode="#" horiz-adv-x="1212" 
d="M729 850h-211l-35 -250h211zM96 428v172h207l37 250h-184v172h206l62 428h180l-61 -428h211l61 428h178l-61 -428h184v-172h-209l-35 -250h185v-172h-205l-64 -428h-178l62 428h-213l-62 -428h-178l62 428h-185z" />
    <glyph glyph-name="dollar" unicode="$" horiz-adv-x="1212" 
d="M862 408q0 114 -150 167q-18 7 -61 21v-399q92 18 152 71q59 53 59 140zM541 874v375q-78 -12 -131 -62q-54 -50 -54 -115t16 -88q16 -24 24 -34q7 -10 37 -26t65 -31t43 -19zM651 1610v-135h19q110 0 218 -37t183 -105l-170 -190q-104 111 -250 110v-409
q281 -70 376 -169q95 -98 93 -249q0 -196 -132 -312t-337 -137v-147h-110v145q-301 -4 -478 183l187 190q94 -133 291 -151v432q-164 30 -303 128q-140 98 -140 283q0 186 130 300t313 133v137h110z" />
    <glyph glyph-name="percent" unicode="%" horiz-adv-x="1857" 
d="M420 12l852 1504l170 -78l-852 -1504zM627 1094q1 78 -53 131t-132 53t-131 -53t-53 -131t53 -131t131 -53t132 52q54 54 53 132zM61 1094q0 158 112 270q111 112 269 111q158 0 270 -112q112 -111 112 -269t-112 -270t-270 -112t-270 112t-111 270zM1599 356
q0 78 -54 131t-130 53t-130 -52q-54 -54 -54 -132t54 -131t130 -53t130 53t54 131zM1034 356q0 158 112 270t270 112t268 -112q112 -112 112 -270t-112 -270t-270 -111q-158 -1 -268 111q-112 112 -112 270z" />
    <glyph glyph-name="ampersand" unicode="&#x26;" horiz-adv-x="1517" 
d="M864 328l-297 323q-61 -37 -97 -63t-69 -77q-33 -50 -32 -108q-1 -94 67 -156q68 -63 162 -63t187 73q32 26 79 71zM664 1266q-70 0 -121 -41t-51 -114t137 -202q197 106 196 221q1 56 -45 96t-116 40zM590 -37q-203 0 -347 114t-145 312q0 139 88 247t226 161
q-57 63 -87 102t-55 101t-24 130q0 170 120 264t296 93q176 0 292 -88t117 -256q0 -225 -289 -375l234 -252l162 246h288l-290 -420l313 -342h-318l-153 166q-172 -203 -428 -203z" />
    <glyph glyph-name="quotesingle" unicode="'" horiz-adv-x="606" 
d="M199 909v541h209v-541h-209z" />
    <glyph glyph-name="parenleft" unicode="(" horiz-adv-x="606" 
d="M307 588q0 -430 262 -795l-172 -112q-299 414 -299 909t299 909l174 -106l-2 -9q-262 -366 -262 -796z" />
    <glyph glyph-name="parenright" unicode=")" horiz-adv-x="606" 
d="M299 590q0 430 -262 794l172 115q299 -414 299 -909t-299 -909l-174 106l2 8q262 365 262 795z" />
    <glyph glyph-name="asterisk" unicode="*" horiz-adv-x="948" 
d="M561 1450v-291l277 90l53 -164l-279 -90l176 -239l-141 -103l-176 242l-172 -236l-137 105l176 231l-281 97l54 163l278 -96v291h172z" />
    <glyph glyph-name="plus" unicode="+" horiz-adv-x="1363" 
d="M127 725h451v451h208v-451h451v-209h-451v-450h-208v450h-451v209z" />
    <glyph glyph-name="comma" unicode="," horiz-adv-x="606" 
d="M78 -258l143 541h250l-174 -541h-219z" />
    <glyph glyph-name="hyphen" unicode="-" horiz-adv-x="645" 
d="M575 608v-209h-505v209h505z" />
    <glyph glyph-name="period" unicode="." horiz-adv-x="606" 
d="M139 143q0 66 48 113t116 47t116 -45t48 -111q0 -67 -48 -113t-115 -46t-116 44t-49 111z" />
    <glyph glyph-name="slash" unicode="/" horiz-adv-x="796" 
d="M791 1487l-639 -1585l-170 61l639 1589z" />
    <glyph glyph-name="zero" unicode="0" horiz-adv-x="1212" 
d="M328 725q0 -371 155 -479q53 -37 123 -37t123 37q156 109 156 479t-156 479q-53 37 -123 37t-123 -37q-155 -108 -155 -479zM82 723q0 332 99 499q99 166 217 212q204 78 416 0q117 -45 218 -212q100 -167 99 -499t-100 -497t-217 -210q-204 -78 -416 0q-114 44 -216 209
q-100 166 -100 498z" />
    <glyph glyph-name="one" unicode="1" horiz-adv-x="1212" 
d="M549 0v1167l-273 -252l-143 170l438 365h224v-1450h-246z" />
    <glyph glyph-name="two" unicode="2" horiz-adv-x="1212" 
d="M121 0v260l563 545q47 45 72 73q26 28 52 76t26 97q0 86 -62 138t-150 52q-90 0 -150 -53t-73 -144l-258 21q19 197 149 303t335 106t336 -104q131 -106 131 -307q0 -127 -58 -226t-166 -200l-448 -416h672v-221h-971z" />
    <glyph glyph-name="three" unicode="3" horiz-adv-x="1212" 
d="M455 645v221h63q131 0 207 39t76 158q-1 84 -59 137t-140 53t-140 -43t-85 -116l-260 69q45 156 171 234t310 78q184 1 316 -101t133 -287q0 -119 -67 -209t-181 -118v-4q135 -18 209 -116t73 -237q0 -199 -142 -313q-143 -114 -339 -115q-196 0 -329 83
q-132 83 -177 257l262 70q49 -188 236 -188q100 1 172 65t72 162q0 221 -322 221h-59z" />
    <glyph glyph-name="four" unicode="4" horiz-adv-x="1212" 
d="M686 516v586h-4l-363 -586h367zM686 0v295h-616v244l583 911h279v-934h211v-221h-211v-295h-246z" />
    <glyph glyph-name="five" unicode="5" horiz-adv-x="1212" 
d="M1034 1450v-221h-583l-7 -289q59 18 156 18q215 0 349 -132t134 -355t-148 -359t-376 -137q-176 0 -298 84t-171 248l258 70q53 -168 238 -168q112 0 182 71t70 177q0 143 -96 212t-252 69t-295 -70l14 782h825z" />
    <glyph glyph-name="six" unicode="6" horiz-adv-x="1212" 
d="M348 473q0 -109 78 -187t186 -77q108 0 187 78q78 79 78 187t-78 186t-187 77q-108 1 -186 -77t-78 -187zM686 934q188 0 312 -135t124 -343t-145 -344t-373 -136t-372 132q-142 134 -142 361q0 182 135 397l371 584h299l-348 -537l4 -4q43 25 135 25z" />
    <glyph glyph-name="seven" unicode="7" horiz-adv-x="1212" 
d="M86 1217v233h985v-225l-579 -1225h-289l592 1217h-709z" />
    <glyph glyph-name="eight" unicode="8" horiz-adv-x="1212" 
d="M606 670q-102 0 -173 -65t-71 -165t69 -166t175 -66t175 66t69 166t-71 165t-173 65zM603 1266q-87 0 -141 -56t-54 -143q0 -86 54 -143q54 -58 140 -58t144 58t58 143q0 83 -56 141q-58 58 -145 58zM606 1475q190 -1 318 -103t127 -278q-1 -119 -57 -207t-163 -119v-4
q109 -23 187 -123t78 -229q0 -207 -138 -322t-352 -115q-213 0 -351 115t-138 322q0 129 79 229t185 123v4q-106 31 -163 119q-56 88 -56 207q0 176 127 278t317 103z" />
    <glyph glyph-name="nine" unicode="9" horiz-adv-x="1212" 
d="M864 977q0 109 -78 187t-186 77q-108 0 -186 -78q-78 -79 -78 -187t78 -186t186 -77q108 -1 186 77t78 187zM526 516q-188 0 -312 135t-124 343t146 344t373 136q229 0 371 -132q142 -134 142 -361q0 -182 -135 -397l-371 -584h-299l349 537l-4 4q-43 -25 -136 -25z" />
    <glyph glyph-name="colon" unicode=":" horiz-adv-x="606" 
d="M139 838q0 66 48 112t116 47q68 0 116 -45q48 -44 48 -110t-48 -113t-115 -47t-116 45t-49 111zM139 143q0 66 48 113t116 47t116 -45t48 -111q0 -67 -48 -113t-115 -46t-116 44t-49 111z" />
    <glyph glyph-name="semicolon" unicode=";" horiz-adv-x="606" 
d="M139 838q0 66 48 112t116 47q68 0 116 -45q48 -44 48 -110t-48 -113t-115 -47t-116 45t-49 111zM78 -258l143 541h250l-174 -541h-219z" />
    <glyph glyph-name="less" unicode="&#x3c;" horiz-adv-x="1363" 
d="M1200 86l-1036 461v147l1036 461v-225l-692 -309l692 -310v-225z" />
    <glyph glyph-name="equal" unicode="=" horiz-adv-x="1363" 
d="M127 541h1110v-209h-1110v209zM127 909h1110v-209h-1110v209z" />
    <glyph glyph-name="greater" unicode="&#x3e;" horiz-adv-x="1363" 
d="M164 1155l1036 -461v-147l-1036 -461v225l692 310l-692 309v225z" />
    <glyph glyph-name="question" unicode="?" horiz-adv-x="1062" 
d="M389 143q0 66 48 113t116 47t116 -45t48 -111q0 -67 -48 -113t-115 -46t-116 44t-49 111zM676 428h-246v113q0 86 21 128q20 42 90 111l157 160q52 51 52 132t-52 131t-135 50q-82 0 -138 -57t-65 -143l-262 20q23 193 152 303t321 111q193 1 315 -105t122 -295
q0 -77 -31 -145t-77 -118t-104 -104q-59 -54 -75 -72q-45 -52 -45 -142v-78z" />
    <glyph glyph-name="at" unicode="@" horiz-adv-x="1638" 
d="M860 -37q-332 0 -563 216t-231 543t228 546t554 219q184 0 347 -76q163 -75 271 -233t107 -365q0 -123 -36 -218t-88 -146t-136 -92t-179 -43q-96 -1 -136 32t-42 78h-4q-106 -111 -250 -111q-144 1 -225 97q-82 96 -82 266t113 306t287 136t231 -117h4l17 93h192
l-76 -404q-18 -88 -18 -117q0 -76 55 -75q72 0 124 78t52 227q0 239 -146 369t-394 130t-405 -162q-157 -163 -157 -422t169 -415t416 -156t405 125h225q-109 -150 -274 -230t-355 -79zM973 737q0 197 -165 197q-87 0 -145 -72t-59 -176q0 -188 170 -188q106 0 153 73
q46 74 46 166z" />
    <glyph glyph-name="A" unicode="A" horiz-adv-x="1478" 
d="M508 553h450l-223 590zM0 0l631 1450h223l625 -1450h-295l-135 332h-629l-131 -332h-289z" />
    <glyph glyph-name="B" unicode="B" horiz-adv-x="1327" 
d="M420 639v-418h237q317 0 318 213q0 111 -74 158t-233 47h-248zM420 1229v-369h235q125 0 192 49t66 133q0 186 -280 187h-213zM162 0v1450h565q184 0 314 -90t130 -275q1 -119 -67 -201t-184 -116v-4q137 -16 225 -114t88 -223q0 -126 -46 -210q-79 -145 -301 -195
q-93 -22 -202 -22h-522z" />
    <glyph glyph-name="C" unicode="C" horiz-adv-x="1402" 
d="M852 1253q-221 0 -359 -148q-139 -148 -139 -377q0 -228 138 -380t360 -151q188 0 326 176l213 -152q-187 -258 -533 -258t-560 209t-214 551t214 553q214 210 538 210t522 -229l-201 -147q-135 143 -305 143z" />
    <glyph glyph-name="D" unicode="D" horiz-adv-x="1554" 
d="M420 233h192q262 0 425 121t163 372t-146 371t-399 120h-235v-984zM162 0v1450h571q307 0 522 -188t215 -537q0 -177 -70 -321q-125 -254 -430 -359q-132 -45 -268 -45h-540z" />
    <glyph glyph-name="E" unicode="E" horiz-adv-x="1251" 
d="M162 0v1450h960v-233h-702v-357h665v-233h-665v-394h739v-233h-997z" />
    <glyph glyph-name="F" unicode="F" horiz-adv-x="1175" 
d="M162 0v1450h936v-233h-678v-381h639v-234h-639v-602h-258z" />
    <glyph glyph-name="G" unicode="G" horiz-adv-x="1593" 
d="M1450 848v-742q-268 -143 -603 -143t-549 209t-214 551t214 553t566 211t557 -182l-190 -193q-145 141 -373 141t-365 -148q-139 -148 -139 -377q0 -228 138 -380t353 -152q214 0 347 76v342h-297v234h555z" />
    <glyph glyph-name="H" unicode="H" horiz-adv-x="1517" 
d="M162 0v1450h258v-578h678v578h258v-1450h-258v639h-678v-639h-258z" />
    <glyph glyph-name="I" unicode="I" horiz-adv-x="569" 
d="M156 0v1450h258v-1450h-258z" />
    <glyph glyph-name="J" unicode="J" horiz-adv-x="1024" 
d="M872 1450v-1049q0 -184 -114 -311t-322 -127q-360 0 -426 334l242 57q12 -72 58 -114t114 -43q104 1 147 71t43 209v973h258z" />
    <glyph glyph-name="K" unicode="K" horiz-adv-x="1402" 
d="M162 0v1450h258v-614h12l600 614h348l-678 -670l723 -780h-362l-629 713h-14v-713h-258z" />
    <glyph glyph-name="L" unicode="L" horiz-adv-x="1062" 
d="M162 0v1450h258v-1217h616v-233h-874z" />
    <glyph glyph-name="M" unicode="M" horiz-adv-x="1896" 
d="M168 0v1450h393l387 -1016l391 1016h390v-1450h-246v1204h-4l-441 -1204h-180l-440 1204h-4v-1204h-246z" />
    <glyph glyph-name="N" unicode="N" horiz-adv-x="1630" 
d="M162 0v1450h342l702 -1077h4v1077h258v-1450h-327l-717 1112h-4v-1112h-258z" />
    <glyph glyph-name="O" unicode="O" horiz-adv-x="1705" 
d="M852 1253q-222 -1 -360 -149t-138 -376t138 -380t361 -152q222 0 360 152q139 152 139 380t-140 376t-360 149zM84 723q0 342 214 553t552 211q342 6 557 -204t215 -552t-215 -552t-557 -216q-338 0 -552 209t-214 551z" />
    <glyph glyph-name="P" unicode="P" horiz-adv-x="1251" 
d="M420 821h155q190 0 263 47q32 20 54 60t21 98q0 203 -309 203h-184v-408zM162 0v1450h487q235 0 385 -98t150 -322q0 -296 -244 -384q-128 -46 -336 -46h-184v-600h-258z" />
    <glyph glyph-name="Q" unicode="Q" horiz-adv-x="1744" 
d="M844 1253q-215 0 -352 -143q-138 -143 -138 -363q0 -221 140 -367t352 -146q213 0 352 146t139 366t-139 364q-139 143 -354 143zM1718 209v-209h-844q-346 0 -568 205t-222 535t223 539q223 208 539 208t538 -208q223 -208 224 -523q0 -369 -305 -543v-4h415z" />
    <glyph glyph-name="R" unicode="R" horiz-adv-x="1290" 
d="M420 836h201q182 0 247 47q66 47 67 162t-97 153q-81 31 -195 31h-223v-393zM162 0v1450h504q410 0 511 -248q30 -74 29 -168q0 -160 -88 -265t-248 -128l385 -641h-311l-336 614h-188v-614h-258z" />
    <glyph glyph-name="S" unicode="S" horiz-adv-x="1175" 
d="M381 1079q0 -140 178 -192q192 -58 332 -130q76 -40 127 -125t51 -206q1 -223 -151 -343t-379 -120q-309 0 -476 197l195 188q100 -152 287 -151q98 0 176 52t78 146q0 63 -38 109t-98 70q-61 26 -135 49t-148 53t-133 72q-61 44 -99 120t-37 181q-1 211 157 325t396 113
q238 0 397 -150l-189 -198q-82 115 -254 114q-98 0 -168 -47t-69 -127z" />
    <glyph glyph-name="T" unicode="T" horiz-adv-x="1175" 
d="M459 0v1217h-445v233h1147v-233h-444v-1217h-258z" />
    <glyph glyph-name="U" unicode="U" horiz-adv-x="1478" 
d="M1323 1450v-918q0 -258 -165 -414t-419 -155q-255 0 -419 156t-164 413v918h258v-909q0 -129 79 -231t247 -101q168 0 246 101q79 101 79 231v909h258z" />
    <glyph glyph-name="V" unicode="V" horiz-adv-x="1366" 
d="M563 0l-569 1450h297l395 -1096l408 1096h278l-586 -1450h-223z" />
    <glyph glyph-name="W" unicode="W" horiz-adv-x="2009" 
d="M428 0l-428 1450h283l272 -1044h4l326 1044h254l319 -1044h4l285 1044h262l-422 -1450h-246l-335 1104h-5l-335 -1104h-238z" />
    <glyph glyph-name="X" unicode="X" horiz-adv-x="1402" 
d="M0 0l516 758l-483 692h325l342 -537l338 537h314l-475 -692l526 -758h-328l-383 612l-381 -612h-311z" />
    <glyph glyph-name="Y" unicode="Y" horiz-adv-x="1290" 
d="M516 0v621l-545 829h324l356 -578l361 578h307l-545 -829v-621h-258z" />
    <glyph glyph-name="Z" unicode="Z" horiz-adv-x="1251" 
d="M72 0v233l774 984h-762v233h1083v-233l-780 -984h793v-233h-1108z" />
    <glyph glyph-name="bracketleft" unicode="[" horiz-adv-x="569" 
d="M528 1499v-160h-184v-1499h184v-159h-393v1818h393z" />
    <glyph glyph-name="backslash" unicode="\" horiz-adv-x="796" 
d="M6 1487l170 65l639 -1589l-170 -61z" />
    <glyph glyph-name="bracketright" unicode="]" horiz-adv-x="569" 
d="M41 -319v159h184v1499h-184v160h393v-1818h-393z" />
    <glyph glyph-name="asciicircum" unicode="^" horiz-adv-x="1363" 
d="M383 702h-242l457 748h168l457 -748h-242l-301 490z" />
    <glyph glyph-name="underscore" unicode="_" horiz-adv-x="1024" 
d="M1024 -256h-1024v102h1024v-102z" />
    <glyph glyph-name="grave" unicode="`" 
d="M160 1450l202 -295h-192l-289 295h279z" />
    <glyph glyph-name="a" unicode="a" horiz-adv-x="1099" 
d="M739 385v55h-51q-369 0 -369 -151q1 -63 53 -96t120 -33q123 0 185 60t62 165zM754 0v135h-6q-100 -160 -316 -160q-147 0 -253 78q-105 78 -105 226t108 222q108 75 235 93q128 18 275 18h62v27q0 88 -62 136t-164 48q-154 0 -262 -102l-129 129q156 158 418 158
q303 0 387 -209q29 -71 31 -131t2 -103v-565h-221z" />
    <glyph glyph-name="b" unicode="b" horiz-adv-x="1290" 
d="M954 492q0 122 -78 208t-210 86q-131 0 -210 -87t-79 -207t79 -208q79 -87 210 -87t210 87q78 87 78 208zM139 0v1548h246v-690h6q121 150 332 150t344 -148t133 -369q0 -223 -132 -369t-359 -146t-332 171h-4v-147h-234z" />
    <glyph glyph-name="c" unicode="c" horiz-adv-x="987" 
d="M625 786q-131 0 -210 -87t-79 -207t79 -208q79 -87 205 -87t195 92l164 -176q-68 -68 -171 -103t-183 -35q-227 1 -381 145t-154 372t154 371q154 145 378 145t359 -150l-170 -170q-94 98 -186 98z" />
    <glyph glyph-name="d" unicode="d" horiz-adv-x="1290" 
d="M336 492q0 -121 79 -208t210 -87t210 87t78 208q-1 122 -79 208t-209 86t-210 -86t-79 -208zM918 0v147h-5q-103 -172 -331 -172q-228 1 -360 147t-132 368t133 370t344 148t332 -150h6v690h246v-1548h-233z" />
    <glyph glyph-name="e" unicode="e" horiz-adv-x="1175" 
d="M594 823q-110 0 -177 -62t-81 -171h504q-2 109 -69 171t-177 62zM1085 406h-749q12 -106 86 -170t178 -64q156 0 264 133l176 -133q-160 -197 -401 -197q-241 1 -395 145t-154 372t154 371q154 145 372 145t344 -142t125 -393v-67z" />
    <glyph glyph-name="f" unicode="f" horiz-adv-x="720" 
d="M227 0v774h-202v209h202v139q0 225 77 338t290 113q84 0 156 -14l-17 -209q-61 14 -102 14q-94 0 -126 -53t-32 -150v-178h227v-209h-227v-774h-246z" />
    <glyph glyph-name="g" unicode="g" horiz-adv-x="1290" 
d="M918 500q0 126 -79 206t-210 80t-212 -80t-81 -206q0 -125 83 -208t211 -83t208 82t80 209zM918 983h233v-895q0 -274 -138 -427t-429 -153t-475 162l147 201q154 -141 330 -141t248 86t71 243v72h-4q-51 -71 -138 -107t-183 -36q-217 0 -354 145q-136 145 -136 363
t132 365t359 147t332 -172h5v147z" />
    <glyph glyph-name="h" unicode="h" horiz-adv-x="1175" 
d="M385 1548v-702h4q33 68 108 115t181 47q184 0 271 -110t87 -277v-621h-245v498q0 204 -80 261q-39 28 -101 27q-115 0 -170 -70t-55 -179v-537h-246v1548h246z" />
    <glyph glyph-name="i" unicode="i" 
d="M109 1317q0 59 45 103q46 44 112 44t112 -42t46 -105t-46 -105t-113 -43q-67 1 -111 45t-45 103zM143 0v983h246v-983h-246z" />
    <glyph glyph-name="j" unicode="j" 
d="M109 1317q0 59 45 103q46 44 112 44t112 -42t46 -105t-46 -105t-113 -43q-67 1 -111 45t-45 103zM143 983h246v-1042q0 -196 -65 -314q-65 -119 -267 -119q-78 0 -133 19l19 213q45 -10 79 -10q96 0 113 97q8 45 8 112v1044z" />
    <glyph glyph-name="k" unicode="k" horiz-adv-x="1099" 
d="M139 0v1548h246v-973l379 408h315l-422 -446l449 -537h-326l-391 502h-4v-502h-246z" />
    <glyph glyph-name="l" unicode="l" 
d="M143 0v1548h246v-1548h-246z" />
    <glyph glyph-name="m" unicode="m" horiz-adv-x="1781" 
d="M129 0v983h233v-154h5q84 179 308 179t300 -183q104 182 323 183q186 0 270 -115t85 -307v-586h-246v557q0 229 -182 229q-106 0 -159 -73q-52 -74 -52 -181v-532h-246v586q0 201 -168 200q-115 0 -170 -70t-55 -179v-537h-246z" />
    <glyph glyph-name="n" unicode="n" horiz-adv-x="1175" 
d="M139 0v983h234v-158h4q84 182 301 183q184 0 271 -110t87 -277v-621h-245v498q0 204 -80 261q-39 28 -101 27q-115 0 -170 -70t-55 -179v-537h-246z" />
    <glyph glyph-name="o" unicode="o" horiz-adv-x="1249" 
d="M336 492q0 -121 79 -208t210 -87t210 87t78 208q-1 122 -79 208t-209 86t-210 -86t-79 -208zM90 492q0 227 154 371q154 145 381 145t381 -144t154 -372q0 -227 -154 -372q-154 -144 -381 -144t-381 144q-154 145 -154 372z" />
    <glyph glyph-name="p" unicode="p" horiz-adv-x="1290" 
d="M954 492q0 122 -78 208t-210 86q-131 0 -210 -87t-79 -207t79 -208q79 -87 210 -87t210 87q78 87 78 208zM139 -467v1450h234v-147h4q103 172 331 172t360 -146t132 -369q0 -221 -133 -369t-344 -148t-332 149h-6v-592h-246z" />
    <glyph glyph-name="q" unicode="q" horiz-adv-x="1290" 
d="M336 492q0 -121 79 -208t210 -87t210 87t78 208q-1 122 -79 208t-209 86t-210 -86t-79 -208zM1151 983v-1450h-246v592h-6q-121 -150 -332 -150q-211 -1 -344 147t-133 370t132 369t359 147t332 -172h5v147h233z" />
    <glyph glyph-name="r" unicode="r" horiz-adv-x="796" 
d="M139 0v983h246v-156h4q41 84 118 132t173 49q37 0 88 -15v-237q-74 18 -136 18t-120 -30q-57 -30 -82 -74q-45 -80 -45 -144v-526h-246z" />
    <glyph glyph-name="s" unicode="s" horiz-adv-x="909" 
d="M471 811q-55 0 -99 -27q-44 -28 -44 -76t54 -74t133 -41t157 -40t132 -91t54 -171q0 -162 -126 -239t-298 -77q-248 0 -383 152l164 154q111 -121 234 -121q61 0 112 30t51 83q0 54 -54 83t-132 44t-157 38t-133 85t-54 167q0 154 116 236t279 82q239 0 350 -150
l-163 -147q-72 100 -193 100z" />
    <glyph glyph-name="t" unicode="t" horiz-adv-x="796" 
d="M227 774h-202v209h202v285h246v-285h270v-209h-270v-430q0 -80 30 -120q31 -40 115 -40t125 31v-207q-68 -33 -194 -33q-186 0 -254 82t-68 267v450z" />
    <glyph glyph-name="u" unicode="u" horiz-adv-x="1175" 
d="M1036 983v-983h-233v158h-4q-84 -182 -301 -183q-184 0 -272 110q-87 110 -87 277v621h246v-498q0 -204 80 -261q39 -28 100 -27q115 1 170 71t56 178v537h245z" />
    <glyph glyph-name="v" unicode="v" horiz-adv-x="1062" 
d="M408 0l-402 983h268l263 -688h4l264 688h252l-387 -983h-262z" />
    <glyph glyph-name="w" unicode="w" horiz-adv-x="1630" 
d="M348 0l-342 983h266l213 -688h4l199 688h266l213 -688h4l205 688h248l-334 -983h-243l-234 672h-4l-207 -672h-254z" />
    <glyph glyph-name="x" unicode="x" horiz-adv-x="1099" 
d="M-2 0l395 528l-340 455h299l197 -295l213 295h280l-335 -455l395 -528h-299l-256 352l-258 -352h-291z" />
    <glyph glyph-name="y" unicode="y" horiz-adv-x="1062" 
d="M217 -492q-96 0 -188 25l30 221q67 -24 139 -24t110 32t71 113l47 117l-420 991h270l275 -682h4l246 682h256l-465 -1194q-57 -147 -138 -214t-237 -67z" />
    <glyph glyph-name="z" unicode="z" horiz-adv-x="987" 
d="M70 0v227l526 555v4h-502v197h799v-223l-533 -563h558v-197h-848z" />
    <glyph glyph-name="braceleft" unicode="{" horiz-adv-x="569" 
d="M0 500v180q63 0 128 34t65 109v406q0 125 89 197t173 73h186v-172h-113q-127 0 -127 -143v-385q-2 -103 -64 -151t-136 -56v-4q199 -18 200 -219v-373q0 -143 127 -143h113v-172h-186q-84 1 -173 73t-89 197v391q0 84 -65 121t-128 37z" />
    <glyph glyph-name="bar" unicode="|" horiz-adv-x="454" 
d="M123 1536h209v-2048h-209v2048z" />
    <glyph glyph-name="braceright" unicode="}" horiz-adv-x="569" 
d="M569 680v-180q-63 0 -128 -34t-64 -110v-405q0 -125 -89 -198t-173 -72h-187v172h113q127 0 127 143v385q2 104 64 151t137 56v4q-199 18 -201 219v373q0 143 -127 143h-113v172h187q84 0 173 -73t89 -197v-391q1 -84 65 -121t127 -37z" />
    <glyph glyph-name="asciitilde" unicode="~" horiz-adv-x="1363" 
d="M888 440q-73 0 -198 70t-231 70t-178 -140l-74 172q92 176 250 176q101 0 292 -89q111 -50 151 -50t78 26t53 45t52 68l74 -172q-41 -55 -67 -86q-26 -30 -78 -60q-51 -30 -124 -30z" />
    <glyph glyph-name="uni00A0" unicode="&#xa0;" horiz-adv-x="606" 
 />
    <glyph glyph-name="exclamdown" unicode="&#xa1;" horiz-adv-x="606" 
d="M467 852q0 -66 -48 -113t-116 -47t-116 45t-48 111t48 113t115 47t116 -45t49 -111zM180 -455v998h246v-998h-246z" />
    <glyph glyph-name="cent" unicode="&#xa2;" horiz-adv-x="1212" 
d="M614 184v613q-108 -23 -164 -106t-56 -197t56 -198q58 -85 164 -112zM725 1145v-137q236 -8 348 -142l-158 -159q-82 86 -190 92v-615q115 0 199 95l149 -162q-123 -133 -348 -142v-147h-111v147q-206 19 -330 163t-124 356t122 349q122 136 332 165v137h111z" />
    <glyph glyph-name="sterling" unicode="&#xa3;" horiz-adv-x="1212" 
d="M135 0v197h209v448h-209v172h209v205q0 247 204 380q112 73 271 73q246 0 391 -132l-166 -178q-94 88 -210 88q-116 -1 -180 -75t-64 -177v-184h332v-172h-332v-448h518v-197h-973z" />
    <glyph glyph-name="currency" unicode="&#xa4;" horiz-adv-x="1212" 
d="M307 727q0 -141 81 -226t218 -85t218 85t81 226t-81 225t-218 84t-218 -84t-81 -225zM74 725q0 172 100 311l-100 101l123 120l100 -98q137 98 309 98t309 -98l101 98l123 -120l-101 -101q100 -137 100 -308t-100 -310l101 -101l-123 -122l-101 100q-135 -100 -308 -100
t-310 100l-100 -100l-123 122l100 101q-100 135 -100 307z" />
    <glyph glyph-name="yen" unicode="&#xa5;" horiz-adv-x="1212" 
d="M483 0v362h-348v160h348v99l-39 69h-309v160h221l-331 600h276l317 -602l306 602h264l-332 -600h221v-160h-309l-39 -69v-99h348v-160h-348v-362h-246z" />
    <glyph glyph-name="brokenbar" unicode="&#xa6;" horiz-adv-x="454" 
d="M123 358h209v-716h-209v716zM123 1382h209v-716h-209v716z" />
    <glyph glyph-name="section" unicode="&#xa7;" horiz-adv-x="1214" 
d="M836 533q0 33 -8 55t-17 35q-8 14 -32 31q-23 16 -31 22t-41 24t-37 21l-183 86q-59 -27 -89 -57t-30 -82q0 -51 32 -88q32 -36 59 -50t84 -41l198 -92q39 19 67 61t28 75zM620 1290q-66 0 -116 -35q-49 -35 -49 -98t63 -110q64 -47 154 -84t180 -81t154 -122t63 -174
q0 -96 -49 -168q-49 -70 -125 -107q125 -92 125 -243q0 -117 -71 -202q-134 -161 -386 -161q-342 0 -454 252l219 106q20 -73 86 -111t144 -38t134 32q58 32 58 97t-64 111t-154 82q-90 34 -180 76t-153 118t-64 182q0 197 197 303q-135 86 -135 240t126 243t275 89
q149 -1 263 -51t169 -156l-215 -121q-21 59 -75 95t-120 36z" />
    <glyph glyph-name="dieresis" unicode="&#xa8;" 
d="M319 1303q-1 59 45 103t112 44t113 -42q46 -42 46 -105t-46 -105t-113 -43q-67 1 -112 45t-45 103zM-102 1303q0 59 45 103t111 44t113 -42q46 -42 46 -105t-46 -105t-113 -43q-68 1 -112 45t-44 103z" />
    <glyph glyph-name="copyright" unicode="&#xa9;" horiz-adv-x="1638" 
d="M254 725q0 -248 164 -419t402 -171t401 171q164 171 163 419q0 248 -163 419q-164 171 -402 171q-237 0 -401 -171t-164 -419zM57 725q-1 315 223 539t539 223q315 0 539 -223q224 -222 223 -538q0 -316 -223 -540q-222 -224 -538 -223q-316 -1 -540 223t-223 539z
M840 293q-188 0 -298 124q-110 125 -110 317t106 310t298 117q143 0 244 -77t124 -220h-192q-25 125 -160 125q-113 -1 -168 -69t-55 -186t57 -194t162 -75q156 0 164 143h192q-20 -150 -122 -232t-242 -83z" />
    <glyph glyph-name="ordfeminine" unicode="&#xaa;" horiz-adv-x="714" 
d="M489 1133h-57q-203 0 -203 -76q0 -29 31 -46t72 -18q158 0 157 127v13zM498 883v80h-4q-55 -92 -211 -93q-113 0 -182 69q-44 44 -44 112q0 136 146 176q109 28 260 28h35v17q0 68 -142 67q-92 0 -170 -65l-88 108q104 92 266 92t228 -58q66 -60 65 -187v-346h-159z" />
    <glyph glyph-name="guillemotleft" unicode="&#xab;" horiz-adv-x="1062" 
d="M983 862l-235 -354l237 -358l-156 -105l-311 463l311 459zM526 862l-235 -354l237 -358l-155 -105l-312 463l312 459z" />
    <glyph glyph-name="logicalnot" unicode="&#xac;" horiz-adv-x="1363" 
d="M1028 301v399h-901v209h1110v-608h-209z" />
    <glyph glyph-name="uni00AD" unicode="&#xad;" horiz-adv-x="645" 
d="M575 608v-209h-505v209h505z" />
    <glyph glyph-name="registered" unicode="&#xae;" horiz-adv-x="1638" 
d="M254 725q0 -248 164 -419t402 -171t401 171q164 171 163 419q0 248 -163 419q-164 171 -402 171q-237 0 -401 -171t-164 -419zM57 725q-1 315 223 539t539 223q315 0 539 -223q224 -222 223 -538q0 -316 -223 -540q-222 -224 -538 -223q-316 -1 -540 223t-223 539z
M721 973v-172h96q129 0 129 86t-129 86h-96zM526 334v799h256q360 0 361 -236q1 -100 -55 -168t-125 -78l204 -317h-215l-182 307h-47v-307h-197z" />
    <glyph glyph-name="macron" unicode="&#xaf;" 
d="M594 1378v-159h-655v159h655z" />
    <glyph glyph-name="degree" unicode="&#xb0;" horiz-adv-x="819" 
d="M242 1147q0 -70 49 -119t119 -49t118 49t50 119q0 70 -50 119t-118 49q-70 0 -119 -49t-49 -119zM82 1147q0 135 96 231t232 96t231 -96q96 -96 96 -231t-96 -231t-231 -97q-135 0 -232 96q-96 97 -96 232z" />
    <glyph glyph-name="plusminus" unicode="&#xb1;" horiz-adv-x="1363" 
d="M127 66v208h1110v-208h-1110zM580 883v293h208v-293h449v-209h-449v-293h-208v293h-453v209h453z" />
    <glyph glyph-name="twosuperior" unicode="&#xb2;" horiz-adv-x="788" 
d="M63 592v194l369 312q84 74 84 112q0 80 -115 80q-53 0 -88 -32t-39 -78l-196 12q8 141 98 212t234 71t229 -68q86 -68 86 -198t-119 -220l-287 -221v-4h406v-172h-662z" />
    <glyph glyph-name="threesuperior" unicode="&#xb3;" horiz-adv-x="788" 
d="M299 958v172h66q143 0 143 93q0 67 -106 67t-128 -90l-211 41q55 233 336 234q133 -1 225 -61t93 -173q0 -74 -42 -125t-120 -65v-4q82 -11 130 -69t48 -136q0 -127 -96 -195t-244 -67q-285 0 -338 241l211 45q20 -102 127 -102q131 0 131 98q0 45 -28 67q-29 21 -61 25
t-89 4h-47z" />
    <glyph glyph-name="acute" unicode="&#xb4;" 
d="M170 1155l203 295h278l-289 -295h-192z" />
    <glyph glyph-name="mu" unicode="&#xb5;" horiz-adv-x="1175" 
d="M139 983h246v-498q0 -204 80 -261q39 -28 100 -27q115 1 170 71t56 178v537h245v-983h-233v158h-4q-84 -182 -301 -183q-68 0 -113 15v-457h-246v1450z" />
    <glyph glyph-name="paragraph" unicode="&#xb6;" horiz-adv-x="1228" 
d="M504 -258v950q-197 0 -319 104t-122 269q0 199 126 292t352 93h551v-1708h-185v1561h-219v-1561h-184z" />
    <glyph glyph-name="periodcentered" unicode="&#xb7;" horiz-adv-x="606" 
d="M139 596q0 66 48 113t116 47t116 -45t48 -111t-48 -113t-115 -47t-116 45t-49 111z" />
    <glyph glyph-name="cedilla" unicode="&#xb8;" 
d="M610 -293q0 -102 -87 -150q-87 -49 -199 -49t-215 58l45 94q78 -41 144 -41q140 0 140 86q0 37 -32 55q-62 34 -148 4l-55 52l127 184h119l-87 -123q184 0 228 -77q20 -36 20 -93z" />
    <glyph glyph-name="onesuperior" unicode="&#xb9;" horiz-adv-x="788" 
d="M367 592v649l-172 -154l-113 136l307 239h186v-870h-208z" />
    <glyph glyph-name="ordmasculine" unicode="&#xba;" horiz-adv-x="813" 
d="M403 1018q80 0 127 48q48 48 48 106t-48 106t-127 49q-79 0 -125 -48q-46 -47 -46 -107t45 -107q46 -47 126 -47zM404 870q-146 0 -244 85t-98 217t98 218t244 85q146 0 246 -85q100 -86 100 -218t-100 -217t-246 -85z" />
    <glyph glyph-name="guillemotright" unicode="&#xbb;" horiz-adv-x="1062" 
d="M80 150l235 354l-237 358l155 105l312 -463l-312 -459zM537 150l235 354l-237 358l155 105l311 -463l-311 -459z" />
    <glyph glyph-name="onequarter" unicode="&#xbc;" horiz-adv-x="1820" 
d="M377 12l852 1504l170 -78l-852 -1504zM344 592v649l-172 -154l-113 136l308 239h186v-870h-209zM1444 346v275l-2 4l-195 -279h197zM1444 0v174h-406v160l385 536h230v-524h108v-172h-108v-174h-209z" />
    <glyph glyph-name="onehalf" unicode="&#xbd;" horiz-adv-x="1820" 
d="M381 12l852 1504l170 -78l-852 -1504zM1096 0v195l366 311q84 74 84 112q0 80 -114 80q-53 0 -89 -31q-35 -32 -38 -79l-197 12q8 141 98 212t234 71t229 -68q86 -67 86 -197t-119 -221l-286 -221v-4h405v-172h-659zM350 592v649l-172 -154l-112 136l307 239h186v-870
h-209z" />
    <glyph glyph-name="threequarters" unicode="&#xbe;" horiz-adv-x="1820" 
d="M432 12l852 1504l170 -78l-852 -1504zM291 958v172h65q143 0 144 93q0 67 -106 67t-128 -90l-211 41q55 233 336 234q133 -1 225 -61t93 -173q0 -74 -42 -125t-120 -65v-4q82 -11 130 -69t48 -136q0 -127 -96 -195t-244 -67q-285 0 -338 241l211 45q20 -102 127 -102
q131 0 131 98q0 45 -29 67q-29 21 -61 25t-88 4h-47zM1458 0v174h-405v160l385 536h229v-524h107v-172h-107v-174h-209zM1464 322v364h-4l-241 -360v-4h245z" />
    <glyph glyph-name="questiondown" unicode="&#xbf;" horiz-adv-x="1062" 
d="M674 852q0 -66 -48 -113t-116 -47t-116 45t-48 111t48 113t115 47t116 -45t49 -111zM387 567h246v-112q-1 -86 -21 -128t-90 -112l-157 -160q-51 -51 -51 -132t52 -131t134 -50t138 57t64 144l263 -21q-23 -194 -152 -304t-321 -110t-315 106q-122 106 -122 294
q0 78 31 146t67 107q37 39 77 77q86 79 121 120q36 40 36 131v78z" />
    <glyph glyph-name="Agrave" unicode="&#xc0;" horiz-adv-x="1478" 
d="M633 1843l203 -295h-193l-289 295h279zM508 553h450l-223 590zM0 0l631 1450h223l625 -1450h-295l-135 332h-629l-131 -332h-289z" />
    <glyph glyph-name="Aacute" unicode="&#xc1;" horiz-adv-x="1478" 
d="M643 1548l203 295h278l-288 -295h-193zM508 553h450l-223 590zM0 0l631 1450h223l625 -1450h-295l-135 332h-629l-131 -332h-289z" />
    <glyph glyph-name="Acircumflex" unicode="&#xc2;" horiz-adv-x="1478" 
d="M1112 1548h-233l-142 185l-141 -185h-229l235 295h277zM508 553h450l-223 590zM0 0l631 1450h223l625 -1450h-295l-135 332h-629l-131 -332h-289z" />
    <glyph glyph-name="Atilde" unicode="&#xc3;" horiz-adv-x="1478" 
d="M887 1741q68 0 94 86h135q-45 -260 -229 -260q-61 0 -165 39t-130 39q-65 -1 -94 -89h-136q45 260 230 261q60 0 164 -38t131 -38zM508 553h450l-223 590zM0 0l631 1450h223l625 -1450h-295l-135 332h-629l-131 -332h-289z" />
    <glyph glyph-name="Adieresis" unicode="&#xc4;" horiz-adv-x="1478" 
d="M793 1696q0 59 45 103q46 44 112 44t112 -42t46 -105q0 -64 -46 -106t-113 -42t-111 44t-45 104zM371 1696q0 59 45 103q46 44 112 44t112 -42t46 -105q0 -64 -46 -106t-113 -42t-111 44t-45 104zM508 553h450l-223 590zM0 0l631 1450h223l625 -1450h-295l-135 332h-629
l-131 -332h-289z" />
    <glyph glyph-name="Aring" unicode="&#xc5;" horiz-adv-x="1478" 
d="M856 1714q0 47 -35 79t-82 32t-82 -32t-35 -79t36 -79q34 -31 81 -31t82 32t35 78zM954 1714q0 -90 -61 -149t-153 -59t-153 58q-63 60 -63 149t62 149t153 61q92 0 154 -59q61 -60 61 -150zM508 553h450l-223 590zM0 0l631 1450h223l625 -1450h-295l-135 332h-629
l-131 -332h-289z" />
    <glyph glyph-name="AE" unicode="&#xc6;" horiz-adv-x="2048" 
d="M1083 602v615h-30l-383 -615h413zM1083 0v381h-548l-234 -381h-313l927 1450h1016v-233h-590v-357h553v-233h-553v-394h615v-233h-873z" />
    <glyph glyph-name="Ccedilla" unicode="&#xc7;" horiz-adv-x="1402" 
d="M852 1253q-221 0 -359 -148q-139 -148 -139 -377q0 -228 138 -380t360 -151q188 0 326 176l213 -152q-184 -254 -533 -258l-59 -86q185 0 227 -77q20 -36 21 -93q1 -102 -87 -150q-88 -49 -200 -49t-215 58l45 94q78 -41 144 -41q141 0 140 86q0 37 -32 55q-62 34 -148 4
l-55 52l104 153q-297 35 -478 238t-181 531t214 538t538 210t522 -229l-201 -147q-135 143 -305 143z" />
    <glyph glyph-name="Egrave" unicode="&#xc8;" horiz-adv-x="1251" 
d="M520 1843l203 -295h-193l-288 295h278zM162 0v1450h960v-233h-702v-357h665v-233h-665v-394h739v-233h-997z" />
    <glyph glyph-name="Eacute" unicode="&#xc9;" horiz-adv-x="1251" 
d="M530 1548l203 295h279l-289 -295h-193zM162 0v1450h960v-233h-702v-357h665v-233h-665v-394h739v-233h-997z" />
    <glyph glyph-name="Ecircumflex" unicode="&#xca;" horiz-adv-x="1251" 
d="M999 1548h-233l-141 185l-142 -185h-229l235 295h277zM162 0v1450h960v-233h-702v-357h665v-233h-665v-394h739v-233h-997z" />
    <glyph glyph-name="Edieresis" unicode="&#xcb;" horiz-adv-x="1251" 
d="M680 1696q0 59 45 103t112 44t113 -42t45 -105q0 -64 -46 -106q-47 -42 -113 -42t-111 44t-45 104zM258 1696q0 59 45 103t112 44t113 -42t45 -105q0 -64 -46 -106q-47 -42 -113 -42t-111 44t-45 104zM162 0v1450h960v-233h-702v-357h665v-233h-665v-394h739v-233h-997z
" />
    <glyph glyph-name="Igrave" unicode="&#xcc;" horiz-adv-x="569" 
d="M178 1843l203 -295h-193l-288 295h278zM156 0v1450h258v-1450h-258z" />
    <glyph glyph-name="Iacute" unicode="&#xcd;" horiz-adv-x="569" 
d="M188 1548l203 295h279l-289 -295h-193zM156 0v1450h258v-1450h-258z" />
    <glyph glyph-name="Icircumflex" unicode="&#xce;" horiz-adv-x="569" 
d="M657 1548h-233l-141 185l-142 -185h-229l235 295h277zM156 0v1450h258v-1450h-258z" />
    <glyph glyph-name="Idieresis" unicode="&#xcf;" horiz-adv-x="569" 
d="M338 1696q0 59 45 103t112 44t113 -42t45 -105q0 -64 -46 -106q-47 -42 -113 -42t-111 44t-45 104zM-84 1696q0 59 45 103t112 44t113 -42t45 -105q0 -64 -46 -106q-47 -42 -113 -42t-111 44t-45 104zM156 0v1450h258v-1450h-258z" />
    <glyph glyph-name="Eth" unicode="&#xd0;" horiz-adv-x="1554" 
d="M420 233h192q262 0 425 121t163 372t-146 371t-399 120h-235v-381h442v-172h-442v-431zM162 0v664h-135v172h135v614h571q307 0 522 -188t215 -537q0 -177 -70 -321q-125 -254 -430 -359q-132 -45 -268 -45h-540z" />
    <glyph glyph-name="Ntilde" unicode="&#xd1;" horiz-adv-x="1630" 
d="M963 1741q68 0 94 86h135q-45 -260 -229 -260q-61 0 -165 39t-130 39q-66 -1 -95 -89h-135q45 260 230 261q60 0 164 -38t131 -38zM162 0v1450h342l702 -1077h4v1077h258v-1450h-327l-717 1112h-4v-1112h-258z" />
    <glyph glyph-name="Ograve" unicode="&#xd2;" horiz-adv-x="1705" 
d="M748 1843l202 -295h-192l-289 295h279zM852 1253q-222 -1 -360 -149t-138 -376t138 -380t361 -152q222 0 360 152q139 152 139 380t-140 376t-360 149zM84 723q0 342 214 553t552 211q342 6 557 -204t215 -552t-215 -552t-557 -216q-338 0 -552 209t-214 551z" />
    <glyph glyph-name="Oacute" unicode="&#xd3;" horiz-adv-x="1705" 
d="M758 1548l203 295h278l-289 -295h-192zM852 1253q-222 -1 -360 -149t-138 -376t138 -380t361 -152q222 0 360 152q139 152 139 380t-140 376t-360 149zM84 723q0 342 214 553t552 211q342 6 557 -204t215 -552t-215 -552t-557 -216q-338 0 -552 209t-214 551z" />
    <glyph glyph-name="Ocircumflex" unicode="&#xd4;" horiz-adv-x="1705" 
d="M1227 1548h-234l-141 185l-141 -185h-230l236 295h276zM852 1253q-222 -1 -360 -149t-138 -376t138 -380t361 -152q222 0 360 152q139 152 139 380t-140 376t-360 149zM84 723q0 342 214 553t552 211q342 6 557 -204t215 -552t-215 -552t-557 -216q-338 0 -552 209
t-214 551z" />
    <glyph glyph-name="Otilde" unicode="&#xd5;" horiz-adv-x="1705" 
d="M1001 1741q68 0 95 86h135q-45 -260 -230 -260q-61 0 -164 39t-130 39q-66 -1 -95 -89h-135q45 260 230 261q61 0 164 -38t130 -38zM852 1253q-222 -1 -360 -149t-138 -376t138 -380t361 -152q222 0 360 152q139 152 139 380t-140 376t-360 149zM84 723q0 342 214 553
t552 211q342 6 557 -204t215 -552t-215 -552t-557 -216q-338 0 -552 209t-214 551z" />
    <glyph glyph-name="Odieresis" unicode="&#xd6;" horiz-adv-x="1705" 
d="M907 1696q0 59 45 103t112 44t113 -42t46 -105q0 -64 -46 -106t-113 -42t-112 44t-45 104zM485 1696q0 59 45 103t112 44t113 -42t46 -105q0 -64 -46 -106t-113 -42t-112 44t-45 104zM852 1253q-222 -1 -360 -149t-138 -376t138 -380t361 -152q222 0 360 152
q139 152 139 380t-140 376t-360 149zM84 723q0 342 214 553t552 211q342 6 557 -204t215 -552t-215 -552t-557 -216q-338 0 -552 209t-214 551z" />
    <glyph glyph-name="multiply" unicode="&#xd7;" horiz-adv-x="1363" 
d="M307 1141l375 -375l373 373l143 -144l-371 -370l379 -381l-151 -152l-375 371l-371 -371l-151 150l379 372l-377 381z" />
    <glyph glyph-name="Oslash" unicode="&#xd8;" horiz-adv-x="1705" 
d="M1622 723q0 -334 -215 -544t-557 -216q-283 0 -483 152l-174 -189l-103 88l178 193q-184 207 -184 512q0 346 214 557t552 211q266 6 471 -133l178 192l100 -88l-176 -192q199 -209 199 -543zM852 197q223 -1 361 151q139 152 139 369t-111 350l-700 -764
q133 -106 311 -106zM852 1253q-221 0 -359 -148q-138 -147 -138 -353t94 -349l696 758q-127 92 -293 92z" />
    <glyph glyph-name="Ugrave" unicode="&#xd9;" horiz-adv-x="1478" 
d="M633 1843l203 -295h-193l-289 295h279zM1323 1450v-918q0 -258 -165 -414t-419 -155q-255 0 -419 156t-164 413v918h258v-909q0 -129 79 -231t247 -101q168 0 246 101q79 101 79 231v909h258z" />
    <glyph glyph-name="Uacute" unicode="&#xda;" horiz-adv-x="1478" 
d="M643 1548l203 295h278l-288 -295h-193zM1323 1450v-918q0 -258 -165 -414t-419 -155q-255 0 -419 156t-164 413v918h258v-909q0 -129 79 -231t247 -101q168 0 246 101q79 101 79 231v909h258z" />
    <glyph glyph-name="Ucircumflex" unicode="&#xdb;" horiz-adv-x="1478" 
d="M1112 1548h-233l-142 185l-141 -185h-229l235 295h277zM1323 1450v-918q0 -258 -165 -414t-419 -155q-255 0 -419 156t-164 413v918h258v-909q0 -129 79 -231t247 -101q168 0 246 101q79 101 79 231v909h258z" />
    <glyph glyph-name="Udieresis" unicode="&#xdc;" horiz-adv-x="1478" 
d="M793 1696q0 59 45 103q46 44 112 44t112 -42t46 -105q0 -64 -46 -106t-113 -42t-111 44t-45 104zM371 1696q0 59 45 103q46 44 112 44t112 -42t46 -105q0 -64 -46 -106t-113 -42t-111 44t-45 104zM1323 1450v-918q0 -258 -165 -414t-419 -155q-255 0 -419 156t-164 413
v918h258v-909q0 -129 79 -231t247 -101q168 0 246 101q79 101 79 231v909h258z" />
    <glyph glyph-name="Yacute" unicode="&#xdd;" horiz-adv-x="1290" 
d="M549 1548l203 295h278l-289 -295h-192zM516 0v621l-545 829h324l356 -578l361 578h307l-545 -829v-621h-258z" />
    <glyph glyph-name="Thorn" unicode="&#xde;" horiz-adv-x="1251" 
d="M420 541h155q194 0 263 47q31 20 53 60q23 40 22 97q0 203 -309 203h-184v-407zM162 0v1450h258v-281h229q235 0 385 -98t150 -321q0 -300 -244 -384q-125 -45 -336 -47h-184v-319h-258z" />
    <glyph glyph-name="germandbls" unicode="&#xdf;" horiz-adv-x="1251" 
d="M115 0v1047q0 274 121 400t370 126q188 0 316 -99t129 -280q0 -233 -217 -324v-4q158 -20 242 -136t85 -284q0 -209 -135 -340t-346 -131q-94 0 -172 23v207q47 -20 113 -21q131 0 213 77t82 212t-86 211q-85 76 -226 76h-29v209h17q92 0 152 52t60 138t-60 139
q-60 54 -162 54t-162 -68q-59 -68 -60 -180v-1104h-245z" />
    <glyph glyph-name="agrave" unicode="&#xe0;" horiz-adv-x="1099" 
d="M444 1450l203 -295h-192l-289 295h278zM739 385v55h-51q-369 0 -369 -151q1 -63 53 -96t120 -33q123 0 185 60t62 165zM754 0v135h-6q-100 -160 -316 -160q-147 0 -253 78q-105 78 -105 226t108 222q108 75 235 93q128 18 275 18h62v27q0 88 -62 136t-164 48
q-154 0 -262 -102l-129 129q156 158 418 158q303 0 387 -209q29 -71 31 -131t2 -103v-565h-221z" />
    <glyph glyph-name="aacute" unicode="&#xe1;" horiz-adv-x="1099" 
d="M455 1155l202 295h279l-289 -295h-192zM739 385v55h-51q-369 0 -369 -151q1 -63 53 -96t120 -33q123 0 185 60t62 165zM754 0v135h-6q-100 -160 -316 -160q-147 0 -253 78q-105 78 -105 226t108 222q108 75 235 93q128 18 275 18h62v27q0 88 -62 136t-164 48
q-154 0 -262 -102l-129 129q156 158 418 158q303 0 387 -209q29 -71 31 -131t2 -103v-565h-221z" />
    <glyph glyph-name="acircumflex" unicode="&#xe2;" horiz-adv-x="1099" 
d="M924 1155h-234l-141 184l-141 -184h-230l236 295h276zM739 385v55h-51q-369 0 -369 -151q1 -63 53 -96t120 -33q123 0 185 60t62 165zM754 0v135h-6q-100 -160 -316 -160q-147 0 -253 78q-105 78 -105 226t108 222q108 75 235 93q128 18 275 18h62v27q0 88 -62 136
t-164 48q-154 0 -262 -102l-129 129q156 158 418 158q303 0 387 -209q29 -71 31 -131t2 -103v-565h-221z" />
    <glyph glyph-name="atilde" unicode="&#xe3;" horiz-adv-x="1099" 
d="M403 1423q61 0 165 -38t130 -37q68 0 95 86h135q-45 -260 -230 -260q-61 0 -164 38t-131 39q-65 0 -94 -88h-135q45 260 229 260zM739 385v55h-51q-369 0 -369 -151q1 -63 53 -96t120 -33q123 0 185 60t62 165zM754 0v135h-6q-100 -160 -316 -160q-147 0 -253 78
q-105 78 -105 226t108 222q108 75 235 93q128 18 275 18h62v27q0 88 -62 136t-164 48q-154 0 -262 -102l-129 129q156 158 418 158q303 0 387 -209q29 -71 31 -131t2 -103v-565h-221z" />
    <glyph glyph-name="adieresis" unicode="&#xe4;" horiz-adv-x="1099" 
d="M604 1303q0 59 45 103t112 44t113 -42t46 -105t-46 -105t-114 -43q-66 1 -111 45t-45 103zM182 1303q0 59 45 103t112 44t113 -42t46 -105t-46 -105t-113 -43q-67 1 -112 45t-45 103zM739 385v55h-51q-369 0 -369 -151q1 -63 53 -96t120 -33q123 0 185 60t62 165zM754 0
v135h-6q-100 -160 -316 -160q-147 0 -253 78q-105 78 -105 226t108 222q108 75 235 93q128 18 275 18h62v27q0 88 -62 136t-164 48q-154 0 -262 -102l-129 129q156 158 418 158q303 0 387 -209q29 -71 31 -131t2 -103v-565h-221z" />
    <glyph glyph-name="aring" unicode="&#xe5;" horiz-adv-x="1099" 
d="M668 1341q0 47 -35 79t-82 32t-82 -32t-35 -79t35 -79t82 -31q47 -1 82 31t35 79zM766 1341q0 -90 -61 -149t-153 -59t-154 59t-62 148q0 90 61 150t153 60t155 -59q61 -60 61 -150zM739 385v55h-51q-369 0 -369 -151q1 -63 53 -96t120 -33q123 0 185 60t62 165zM754 0
v135h-6q-100 -160 -316 -160q-147 0 -253 78q-105 78 -105 226t108 222q108 75 235 93q128 18 275 18h62v27q0 88 -62 136t-164 48q-154 0 -262 -102l-129 129q156 158 418 158q303 0 387 -209q29 -71 31 -131t2 -103v-565h-221z" />
    <glyph glyph-name="ae" unicode="&#xe6;" horiz-adv-x="1744" 
d="M1200 823q-104 1 -170 -65t-72 -168h476q-6 106 -68 170t-166 63zM489 162q119 0 190 70t71 161v25h-123q-307 0 -308 -129q1 -63 55 -95t115 -32zM1671 485v-67h-717q-4 -113 74 -186t166 -72q154 0 262 133l170 -121q-154 -197 -432 -197q-119 -1 -215 49t-152 128
q-113 -174 -395 -175q-145 0 -252 76q-106 77 -106 233t120 230t355 74h201q0 111 -58 173t-164 62q-154 0 -262 -102l-129 129q156 158 418 158q90 4 179 -34t147 -112q133 145 317 144q229 0 351 -147t122 -376z" />
    <glyph glyph-name="ccedilla" unicode="&#xe7;" horiz-adv-x="987" 
d="M625 786q-131 0 -210 -87t-79 -207t79 -208q79 -87 205 -87t195 92l164 -176q-68 -68 -170 -103t-180 -35l-70 -98q185 0 227 -77q20 -36 21 -93q0 -102 -87 -150q-87 -49 -200 -49t-215 58l45 94q78 -41 144 -41q140 0 141 86q0 37 -33 55q-63 34 -147 4l-56 52l117 170
q-186 33 -306 170t-120 350t154 357q154 145 378 145t359 -150l-170 -170q-94 98 -186 98z" />
    <glyph glyph-name="egrave" unicode="&#xe8;" horiz-adv-x="1175" 
d="M481 1450l203 -295h-192l-289 295h278zM594 823q-110 0 -177 -62t-81 -171h504q-2 109 -69 171t-177 62zM1085 406h-749q12 -106 86 -170t178 -64q156 0 264 133l176 -133q-160 -197 -401 -197q-241 1 -395 145t-154 372t154 371q154 145 372 145t344 -142t125 -393v-67z
" />
    <glyph glyph-name="eacute" unicode="&#xe9;" horiz-adv-x="1175" 
d="M492 1155l202 295h279l-289 -295h-192zM594 823q-110 0 -177 -62t-81 -171h504q-2 109 -69 171t-177 62zM1085 406h-749q12 -106 86 -170t178 -64q156 0 264 133l176 -133q-160 -197 -401 -197q-241 1 -395 145t-154 372t154 371q154 145 372 145t344 -142t125 -393v-67z
" />
    <glyph glyph-name="ecircumflex" unicode="&#xea;" horiz-adv-x="1175" 
d="M961 1155h-234l-141 184l-142 -184h-229l236 295h276zM594 823q-110 0 -177 -62t-81 -171h504q-2 109 -69 171t-177 62zM1085 406h-749q12 -106 86 -170t178 -64q156 0 264 133l176 -133q-160 -197 -401 -197q-241 1 -395 145t-154 372t154 371q154 145 372 145t344 -142
t125 -393v-67z" />
    <glyph glyph-name="edieresis" unicode="&#xeb;" horiz-adv-x="1175" 
d="M641 1303q0 59 45 103t112 44q66 0 112 -42t46 -105t-46 -105t-112 -43q-66 1 -112 45q-45 44 -45 103zM219 1303q0 59 45 103t112 44q66 0 112 -42t46 -105t-46 -105t-112 -43q-66 1 -112 45q-45 44 -45 103zM594 823q-110 0 -177 -62t-81 -171h504q-2 109 -69 171
t-177 62zM1085 406h-749q12 -106 86 -170t178 -64q156 0 264 133l176 -133q-160 -197 -401 -197q-241 1 -395 145t-154 372t154 371q154 145 372 145t344 -142t125 -393v-67z" />
    <glyph glyph-name="igrave" unicode="&#xec;" 
d="M184 1450l203 -295h-192l-289 295h278zM143 0v983h246v-983h-246z" />
    <glyph glyph-name="iacute" unicode="&#xed;" 
d="M145 1155l203 295h279l-289 -295h-193zM143 0v983h246v-983h-246z" />
    <glyph glyph-name="icircumflex" unicode="&#xee;" 
d="M639 1155h-233l-142 184l-141 -184h-229l235 295h277zM143 0v983h246v-983h-246z" />
    <glyph glyph-name="idieresis" unicode="&#xef;" 
d="M319 1303q-1 59 45 103t112 44t113 -42q46 -42 46 -105t-46 -105t-113 -43q-67 1 -112 45t-45 103zM-102 1303q0 59 45 103t111 44t113 -42q46 -42 46 -105t-46 -105t-113 -43q-68 1 -112 45t-44 103zM143 0v983h246v-983h-246z" />
    <glyph glyph-name="eth" unicode="&#xf0;" horiz-adv-x="1249" 
d="M625 197q131 0 210 87t78 208q-1 122 -79 208t-209 86t-210 -87t-79 -207t79 -208q79 -87 210 -87zM1159 567q0 -266 -139 -429q-138 -163 -380 -163q-242 1 -396 145t-154 372t151 371q151 144 363 145q154 0 234 -78l4 4q-87 140 -264 317l-218 -100l-122 117l219 102
q-38 38 -92 80t-66 53l205 119q57 -45 174 -154l227 105l131 -115l-239 -110q362 -397 362 -781z" />
    <glyph glyph-name="ntilde" unicode="&#xf1;" horiz-adv-x="1175" 
d="M440 1423q60 0 164 -38t131 -37q68 0 94 86h136q-45 -260 -230 -260q-61 0 -165 38t-130 39q-65 0 -94 -88h-135q45 260 229 260zM139 0v983h234v-158h4q84 182 301 183q184 0 271 -110t87 -277v-621h-245v498q0 204 -80 261q-39 28 -101 27q-115 0 -170 -70t-55 -179
v-537h-246z" />
    <glyph glyph-name="ograve" unicode="&#xf2;" horiz-adv-x="1249" 
d="M518 1450l203 -295h-193l-288 295h278zM336 492q0 -121 79 -208t210 -87t210 87t78 208q-1 122 -79 208t-209 86t-210 -86t-79 -208zM90 492q0 227 154 371q154 145 381 145t381 -144t154 -372q0 -227 -154 -372q-154 -144 -381 -144t-381 144q-154 145 -154 372z" />
    <glyph glyph-name="oacute" unicode="&#xf3;" horiz-adv-x="1249" 
d="M528 1155l203 295h279l-289 -295h-193zM336 492q0 -121 79 -208t210 -87t210 87t78 208q-1 122 -79 208t-209 86t-210 -86t-79 -208zM90 492q0 227 154 371q154 145 381 145t381 -144t154 -372q0 -227 -154 -372q-154 -144 -381 -144t-381 144q-154 145 -154 372z" />
    <glyph glyph-name="ocircumflex" unicode="&#xf4;" horiz-adv-x="1249" 
d="M997 1155h-233l-141 184l-142 -184h-229l235 295h277zM336 492q0 -121 79 -208t210 -87t210 87t78 208q-1 122 -79 208t-209 86t-210 -86t-79 -208zM90 492q0 227 154 371q154 145 381 145t381 -144t154 -372q0 -227 -154 -372q-154 -144 -381 -144t-381 144
q-154 145 -154 372z" />
    <glyph glyph-name="otilde" unicode="&#xf5;" horiz-adv-x="1249" 
d="M477 1423q61 0 165 -38t130 -37q68 0 94 86h135q-45 -260 -229 -260q-60 0 -164 38t-131 39q-65 0 -94 -88h-135q45 260 229 260zM336 492q0 -121 79 -208t210 -87t210 87t78 208q-1 122 -79 208t-209 86t-210 -86t-79 -208zM90 492q0 227 154 371q154 145 381 145
t381 -144t154 -372q0 -227 -154 -372q-154 -144 -381 -144t-381 144q-154 145 -154 372z" />
    <glyph glyph-name="odieresis" unicode="&#xf6;" horiz-adv-x="1249" 
d="M678 1303q0 59 45 103t112 44t113 -42t45 -105q0 -63 -46 -105q-47 -42 -113 -43q-66 1 -111 45t-45 103zM256 1303q0 59 45 103t112 44t113 -42t45 -105q0 -63 -46 -105q-47 -42 -113 -43q-66 1 -111 45t-45 103zM336 492q0 -121 79 -208t210 -87t210 87t78 208
q-1 122 -79 208t-209 86t-210 -86t-79 -208zM90 492q0 227 154 371q154 145 381 145t381 -144t154 -372q0 -227 -154 -372q-154 -144 -381 -144t-381 144q-154 145 -154 372z" />
    <glyph glyph-name="divide" unicode="&#xf7;" horiz-adv-x="1363" 
d="M528 252q0 63 45 108q45 46 109 46t108 -46q46 -46 46 -108t-45 -108t-109 -46t-109 45q-45 46 -45 109zM528 989q0 63 45 109t109 45q64 0 108 -45q46 -44 46 -108t-45 -109t-109 -45t-109 45t-45 108zM127 725h1110v-209h-1110v209z" />
    <glyph glyph-name="oslash" unicode="&#xf8;" horiz-adv-x="1249" 
d="M1159 476q0 -210 -153 -356q-154 -144 -381 -145q-186 0 -326 101l-143 -146l-82 84l137 140q-121 137 -121 351t154 358q154 145 362 145t348 -103l146 148l86 -82l-144 -146q117 -139 117 -349zM625 197q131 0 210 87t79 192t-44 175l-405 -407q66 -47 160 -47z
M625 786q-131 0 -210 -87t-79 -193t47 -178l403 409q-70 49 -161 49z" />
    <glyph glyph-name="ugrave" unicode="&#xf9;" horiz-adv-x="1175" 
d="M481 1450l203 -295h-192l-289 295h278zM1036 983v-983h-233v158h-4q-84 -182 -301 -183q-184 0 -272 110q-87 110 -87 277v621h246v-498q0 -204 80 -261q39 -28 100 -27q115 1 170 71t56 178v537h245z" />
    <glyph glyph-name="uacute" unicode="&#xfa;" horiz-adv-x="1175" 
d="M492 1155l202 295h279l-289 -295h-192zM1036 983v-983h-233v158h-4q-84 -182 -301 -183q-184 0 -272 110q-87 110 -87 277v621h246v-498q0 -204 80 -261q39 -28 100 -27q115 1 170 71t56 178v537h245z" />
    <glyph glyph-name="ucircumflex" unicode="&#xfb;" horiz-adv-x="1175" 
d="M961 1155h-234l-141 184l-142 -184h-229l236 295h276zM1036 983v-983h-233v158h-4q-84 -182 -301 -183q-184 0 -272 110q-87 110 -87 277v621h246v-498q0 -204 80 -261q39 -28 100 -27q115 1 170 71t56 178v537h245z" />
    <glyph glyph-name="udieresis" unicode="&#xfc;" horiz-adv-x="1175" 
d="M641 1303q0 59 45 103t112 44q66 0 112 -42t46 -105t-46 -105t-112 -43q-66 1 -112 45q-45 44 -45 103zM219 1303q0 59 45 103t112 44q66 0 112 -42t46 -105t-46 -105t-112 -43q-66 1 -112 45q-45 44 -45 103zM1036 983v-983h-233v158h-4q-84 -182 -301 -183
q-184 0 -272 110q-87 110 -87 277v621h246v-498q0 -204 80 -261q39 -28 100 -27q115 1 170 71t56 178v537h245z" />
    <glyph glyph-name="yacute" unicode="&#xfd;" horiz-adv-x="1062" 
d="M436 1155l203 295h279l-289 -295h-193zM217 -492q-96 0 -188 25l30 221q67 -24 139 -24t110 32t71 113l47 117l-420 991h270l275 -682h4l246 682h256l-465 -1194q-57 -147 -138 -214t-237 -67z" />
    <glyph glyph-name="thorn" unicode="&#xfe;" horiz-adv-x="1290" 
d="M954 492q0 122 -78 208t-210 86q-131 0 -210 -87t-79 -207t79 -208q79 -87 210 -87t210 87q78 87 78 208zM139 -467v2015h246v-692h4q43 72 131 112t195 40q221 0 353 -146t132 -369q0 -221 -133 -369t-344 -148t-332 149h-6v-592h-246z" />
    <glyph glyph-name="ydieresis" unicode="&#xff;" horiz-adv-x="1062" 
d="M586 1303q0 59 45 103t111 44t113 -42q46 -42 46 -105t-46 -105t-113 -43q-68 1 -112 45t-44 103zM164 1303q0 59 45 103t111 44t113 -42q46 -42 46 -105t-46 -105t-113 -43q-68 1 -112 45t-44 103zM217 -492q-96 0 -188 25l30 221q67 -24 139 -24t110 32t71 113l47 117
l-420 991h270l275 -682h4l246 682h256l-465 -1194q-57 -147 -138 -214t-237 -67z" />
    <glyph glyph-name="dotlessi" unicode="&#x131;" 
d="M143 0v983h246v-983h-246z" />
    <glyph glyph-name="Lslash" unicode="&#x141;" horiz-adv-x="1062" 
d="M162 0v383l-144 -127v225l144 127v842h258v-614l422 370v-223l-422 -373v-377h616v-233h-874z" />
    <glyph glyph-name="lslash" unicode="&#x142;" 
d="M143 0v559l-141 -141v223l141 141v766h246v-522l141 141v-219l-141 -139v-809h-246z" />
    <glyph glyph-name="OE" unicode="&#x152;" horiz-adv-x="2048" 
d="M1063 233v984h-129q-142 0 -274 -60q-77 -35 -136 -87t-99 -142t-40 -203t40 -203t99 -142t161 -98t249 -49h129zM1321 1217v-357h553v-233h-553v-394h625v-233h-1018q-381 0 -603 205q-223 205 -223 522t222 520t604 203h983v-233h-590z" />
    <glyph glyph-name="oe" unicode="&#x153;" horiz-adv-x="1896" 
d="M319 492q0 -128 79 -218t211 -90t212 89t80 219t-80 218q-80 89 -212 89t-211 -89t-79 -218zM1352 823q-98 0 -175 -62t-79 -171h479q-3 106 -65 170t-160 63zM1823 418h-717q-4 -104 75 -175t165 -71q154 0 262 133l170 -121q-150 -209 -432 -209q-246 0 -365 158
q-143 -158 -371 -158q-228 1 -383 145q-153 144 -153 372t153 371q154 145 383 145t375 -160q129 160 361 160t355 -146q122 -146 122 -377v-67z" />
    <glyph glyph-name="Scaron" unicode="&#x160;" horiz-adv-x="1175" 
d="M217 1843h234l141 -184l141 184h225l-235 -295h-272zM381 1079q0 -140 178 -192q192 -58 332 -130q76 -40 127 -125t51 -206q1 -223 -151 -343t-379 -120q-309 0 -476 197l195 188q100 -152 287 -151q98 0 176 52t78 146q0 63 -38 109t-98 70q-61 26 -135 49t-148 53
t-133 72q-61 44 -99 120t-37 181q-1 211 157 325t396 113q238 0 397 -150l-189 -198q-82 115 -254 114q-98 0 -168 -47t-69 -127z" />
    <glyph glyph-name="scaron" unicode="&#x161;" horiz-adv-x="909" 
d="M84 1450h233l142 -184l141 184h225l-235 -295h-273zM471 811q-55 0 -99 -27q-44 -28 -44 -76t54 -74t133 -41t157 -40t132 -91t54 -171q0 -162 -126 -239t-298 -77q-248 0 -383 152l164 154q111 -121 234 -121q61 0 112 30t51 83q0 54 -54 83t-132 44t-157 38t-133 85
t-54 167q0 154 116 236t279 82q239 0 350 -150l-163 -147q-72 100 -193 100z" />
    <glyph glyph-name="Ydieresis" unicode="&#x178;" horiz-adv-x="1290" 
d="M698 1696q0 59 45 103t112 44t113 -42t46 -105q0 -64 -46 -106t-113 -42t-112 44t-45 104zM276 1696q0 59 46 103t112 44t112 -42t46 -105q0 -64 -46 -106t-113 -42t-112 44t-45 104zM516 0v621l-545 829h324l356 -578l361 578h307l-545 -829v-621h-258z" />
    <glyph glyph-name="Zcaron" unicode="&#x17d;" horiz-adv-x="1251" 
d="M256 1843h233l142 -184l141 184h225l-235 -295h-273zM72 0v233l774 984h-762v233h1083v-233l-780 -984h793v-233h-1108z" />
    <glyph glyph-name="zcaron" unicode="&#x17e;" horiz-adv-x="987" 
d="M123 1450h233l142 -184l141 184h225l-235 -295h-273zM70 0v227l526 555v4h-502v197h799v-223l-533 -563h558v-197h-848z" />
    <glyph glyph-name="florin" unicode="&#x192;" horiz-adv-x="1212" 
d="M983 872v-184h-283l-116 -590q-39 -198 -131 -290t-252 -93q-113 0 -209 49l92 189q42 -29 106 -29t99 53t55 160l109 551h-232v184h268l46 228q35 174 118 274q84 100 250 101q123 0 240 -64l-94 -190q-55 33 -105 33t-81 -18q-61 -34 -93 -192l-37 -172h250z" />
    <glyph glyph-name="circumflex" unicode="&#x2c6;" 
d="M639 1155h-233l-142 184l-141 -184h-229l235 295h277z" />
    <glyph glyph-name="caron" unicode="&#x2c7;" 
d="M-104 1450h233l141 -184l142 184h225l-236 -295h-272z" />
    <glyph glyph-name="uni02C9" unicode="&#x2c9;" 
d="M594 1378v-159h-655v159h655z" />
    <glyph glyph-name="breve" unicode="&#x2d8;" 
d="M266 1315q94 0 144 26q49 27 69 109h135q-14 -147 -107 -221t-244 -74t-244 74t-101 221h137q25 -135 211 -135z" />
    <glyph glyph-name="dotaccent" unicode="&#x2d9;" 
d="M109 1303q0 59 45 103q46 44 112 44t112 -42t46 -105t-46 -105t-113 -43q-67 1 -111 45t-45 103z" />
    <glyph glyph-name="ring" unicode="&#x2da;" 
d="M383 1341q0 47 -35 79t-82 32t-82 -32q-34 -32 -34 -79t34 -79t82 -31q47 -1 82 31t35 79zM481 1341q0 -90 -61 -149q-60 -59 -152 -59t-154 59t-62 148q0 90 60 150q62 60 154 60t154 -59q61 -60 61 -150z" />
    <glyph glyph-name="ogonek" unicode="&#x2db;" 
d="M220 -479q-96 0 -160 49q-62 49 -62 131t62 166t143 145h125q-62 -53 -116 -128t-54 -124q0 -48 28 -76t76 -28q49 0 100 43l52 -100q-98 -78 -194 -78z" />
    <glyph glyph-name="tilde" unicode="&#x2dc;" 
d="M119 1423q61 0 165 -38t130 -37q68 0 94 86h135q-45 -260 -229 -260q-60 0 -164 38t-131 39q-65 0 -94 -88h-136q45 260 230 260z" />
    <glyph glyph-name="hungarumlaut" unicode="&#x2dd;" 
d="M379 1155l203 295h278l-289 -295h-192zM-41 1155l203 295h278l-288 -295h-193z" />
    <glyph glyph-name="uni03A9" unicode="&#x3a9;" horiz-adv-x="1554" 
d="M399 182v6q-121 102 -199 256q-79 154 -79 347q0 287 187 481t476 194t467 -200t179 -465q0 -197 -81 -356t-202 -257v-6h311v-182h-555v135q127 80 210 236t83 376q0 221 -112 377t-302 156t-309 -152t-119 -374t85 -384q85 -163 210 -235v-135h-557v182h307z" />
    <glyph glyph-name="uni03BC" unicode="&#x3bc;" horiz-adv-x="1175" 
d="M139 983h246v-498q0 -204 80 -261q39 -28 100 -27q115 1 170 71t56 178v537h245v-983h-233v158h-4q-84 -182 -301 -183q-68 0 -113 15v-457h-246v1450z" />
    <glyph glyph-name="pi" unicode="&#x3c0;" horiz-adv-x="1275" 
d="M1061 889v-576q0 -207 29 -313h-224q-37 57 -37 299v590h-335q-8 -203 -50 -475t-96 -414h-225q55 166 97 432t46 457q-160 0 -225 -23l-29 150q90 66 336 65h893l-18 -192h-162z" />
    <glyph glyph-name="uni2010" unicode="&#x2010;" horiz-adv-x="645" 
d="M575 608v-209h-505v209h505z" />
    <glyph glyph-name="endash" unicode="&#x2013;" horiz-adv-x="1024" 
d="M1024 602v-196h-1024v196h1024z" />
    <glyph glyph-name="emdash" unicode="&#x2014;" horiz-adv-x="2048" 
d="M2048 602v-196h-2048v196h2048z" />
    <glyph glyph-name="quoteleft" unicode="&#x2018;" horiz-adv-x="606" 
d="M500 1450l-144 -541h-250l175 541h219z" />
    <glyph glyph-name="quoteright" unicode="&#x2019;" horiz-adv-x="606" 
d="M106 909l144 541h250l-174 -541h-220z" />
    <glyph glyph-name="quotesinglbase" unicode="&#x201a;" horiz-adv-x="606" 
d="M106 -258l144 541h250l-174 -541h-220z" />
    <glyph glyph-name="quotedblleft" unicode="&#x201c;" horiz-adv-x="1062" 
d="M944 1450l-143 -541h-250l174 541h219zM512 1450l-143 -541h-250l174 541h219z" />
    <glyph glyph-name="quotedblright" unicode="&#x201d;" horiz-adv-x="1062" 
d="M119 909l143 541h250l-174 -541h-219zM551 909l143 541h250l-174 -541h-219z" />
    <glyph glyph-name="quotedblbase" unicode="&#x201e;" horiz-adv-x="1062" 
d="M121 -258l143 541h250l-174 -541h-219zM549 -258l143 541h250l-174 -541h-219z" />
    <glyph glyph-name="dagger" unicode="&#x2020;" horiz-adv-x="1214" 
d="M723 1450v-416h407v-196h-407v-1096h-234v1096h-405v196h405v416h234z" />
    <glyph glyph-name="daggerdbl" unicode="&#x2021;" horiz-adv-x="1214" 
d="M723 1450v-379h395v-197h-395v-555h395v-196h-395v-381h-234v381h-393v196h393v555h-393v197h393v379h234z" />
    <glyph glyph-name="bullet" unicode="&#x2022;" horiz-adv-x="1024" 
d="M150 725q0 152 105 257t257 105t257 -105t105 -257t-105 -257q-105 -106 -257 -106t-257 106t-105 257z" />
    <glyph glyph-name="ellipsis" unicode="&#x2026;" horiz-adv-x="2048" 
d="M1542 143q0 66 48 113t116 47t116 -45t48 -111q0 -67 -48 -113t-115 -46t-116 44t-49 111zM860 143q0 66 48 113t116 47t116 -45t48 -111q0 -67 -48 -113t-115 -46t-116 44t-49 111zM178 143q0 66 48 113t116 47t116 -45t48 -111q0 -67 -48 -113t-115 -46t-116 44
t-49 111z" />
    <glyph glyph-name="perthousand" unicode="&#x2030;" horiz-adv-x="2390" 
d="M274 12l852 1504l170 -78l-852 -1504zM199 1114q0 -78 50 -128t126 -50t127 50t51 127t-50 127t-127 50t-127 -49t-50 -127zM14 1114q0 150 106 255t255 105q150 0 256 -104q106 -106 106 -256t-106 -256t-256 -106q-149 0 -255 106t-106 256zM1837 337q0 -77 50 -127
t126 -50t127 51t51 127t-50 126t-127 50t-127 -50t-50 -127zM1653 338q0 150 105 255t255 105t256 -105q107 -105 107 -255t-106 -256t-257 -106q-150 0 -255 106t-105 256zM1026 337q0 -77 50 -127t126 -50t127 51t51 127t-50 126t-127 50t-127 -50t-50 -127zM842 338
q0 150 105 255t255 105t256 -105t106 -255t-106 -256t-256 -106t-255 106t-105 256z" />
    <glyph glyph-name="guilsinglleft" unicode="&#x2039;" horiz-adv-x="606" 
d="M526 862l-235 -354l237 -358l-155 -105l-312 463l312 459z" />
    <glyph glyph-name="guilsinglright" unicode="&#x203a;" horiz-adv-x="606" 
d="M80 150l235 354l-237 358l155 105l312 -463l-312 -459z" />
    <glyph glyph-name="fraction" unicode="&#x2044;" horiz-adv-x="342" 
d="M-340 12l852 1504l170 -78l-852 -1504z" />
    <glyph glyph-name="Euro" unicode="&#x20ac;" horiz-adv-x="1212" 
d="M168 706q0 48 4 113h-135l63 191h107q63 223 221 344t364 121t316 -68l-76 -211q-90 59 -227 59q-240 0 -328 -245h508l-59 -191h-488q-6 -55 -6 -111t2 -77h443l-60 -185h-356q68 -254 284 -253q154 0 248 112l154 -153q-53 -76 -164 -126t-250 -51q-446 0 -540 471
h-162l57 185h82q-2 27 -2 75z" />
    <glyph glyph-name="afii61289" unicode="&#x2113;" horiz-adv-x="1089" 
d="M451 1085v-380q285 309 284 532q0 193 -133 193q-61 0 -106 -82t-45 -263zM229 1069q-1 266 103 394t256 128t225 -100q74 -100 74 -258q0 -332 -436 -737v-74q2 -125 61 -191t150 -65q159 -1 284 196l98 -94q-152 -285 -436 -284q-174 0 -266 98t-109 254v24
q-109 -84 -116 -90l-62 123q14 11 79 63t95 81v532z" />
    <glyph glyph-name="trademark" unicode="&#x2122;" horiz-adv-x="2048" 
d="M983 606v844h291l201 -549l200 549h291v-844h-209v549h-4l-207 -549h-143l-207 549h-4v-549h-209zM332 606v660h-250v184h709v-184h-250v-660h-209z" />
    <glyph glyph-name="Omega" unicode="&#x2126;" horiz-adv-x="1554" 
d="M399 182v6q-121 102 -199 256q-79 154 -79 347q0 287 187 481t476 194t467 -200t179 -465q0 -197 -81 -356t-202 -257v-6h311v-182h-555v135q127 80 210 236t83 376q0 221 -112 377t-302 156t-309 -152t-119 -374t85 -384q85 -163 210 -235v-135h-557v182h307z" />
    <glyph glyph-name="estimated" unicode="&#x212e;" horiz-adv-x="1808" 
d="M1430 758v409q0 29 -21 50q-217 213 -508 213t-506 -220q-18 -23 -18 -51v-401q0 -14 10 -15h1034q9 1 9 15zM1735 705h-1348q-10 0 -10 -11v-407q0 -25 16 -47q215 -221 510 -222q158 0 297 67t240 181h121q-115 -133 -289 -211t-371 -78q-344 -1 -588 219t-243 529
q0 309 243 529q244 220 589 220t589 -218q244 -220 244 -531v-20z" />
    <glyph glyph-name="partialdiff" unicode="&#x2202;" horiz-adv-x="1216" 
d="M543 170h2q125 0 211 136t106 319q-24 69 -98 135t-184 66t-190 -106q-81 -104 -81 -242t65 -223t169 -85zM544 1626q236 0 402 -208t166 -584t-158 -613q-158 -238 -434 -237q-141 0 -245 77q-193 146 -193 397t134 399t329 149q125 0 214 -62t126 -125h2q2 20 2 78
q0 231 -109 388q-110 157 -272 157t-289 -101l-69 166q158 119 394 119z" />
    <glyph glyph-name="uni2206" unicode="&#x2206;" horiz-adv-x="1415" 
d="M297 182h807l-268 684q-12 40 -64 182t-65 193h-9q-10 -39 -56 -165t-62 -177zM59 0v137l516 1342h273l506 -1340v-139h-1295z" />
    <glyph glyph-name="product" unicode="&#x220f;" horiz-adv-x="1536" 
d="M1483 1241h-228v-1440h-225v1440h-524v-1440h-225v1440h-230v203h1432v-203z" />
    <glyph glyph-name="summation" unicode="&#x2211;" horiz-adv-x="1202" 
d="M1159 -199h-1112v144l545 676l-520 667v156h1052v-193h-741v-8l469 -588l-514 -641v-6h821v-207z" />
    <glyph glyph-name="minus" unicode="&#x2212;" horiz-adv-x="1363" 
d="M127 725h1110v-209h-1110v209z" />
    <glyph glyph-name="uni2215" unicode="&#x2215;" horiz-adv-x="342" 
d="M-340 12l852 1504l170 -78l-852 -1504z" />
    <glyph glyph-name="uni2219" unicode="&#x2219;" horiz-adv-x="606" 
d="M139 596q0 66 48 113t116 47t116 -45t48 -111t-48 -113t-115 -47t-116 45t-49 111z" />
    <glyph glyph-name="radical" unicode="&#x221a;" horiz-adv-x="1257" 
d="M1272 1724l-484 -2023h-188l-332 926l-159 -62l-41 127l338 135l245 -712q3 -15 19 -75t22 -87l4 -2q2 7 12 71t19 101l383 1601h162z" />
    <glyph glyph-name="infinity" unicode="&#x221e;" horiz-adv-x="1650" 
d="M1210 815h-2q-80 0 -149 -60t-112 -107q-42 -48 -46 -54q106 -125 172 -174t149 -49q83 -1 136 67t53 159t-55 155q-56 63 -146 63zM449 371h2q92 0 165 67t140 144q-136 183 -224 217q-43 16 -94 16q-92 1 -146 -65t-54 -160t59 -157q60 -62 152 -62zM1544 598v-2
q0 -158 -99 -256t-235 -98q-96 0 -186 57t-197 188q-98 -119 -188 -182t-215 -63t-222 98q-98 98 -98 250t98 251t247 99q109 0 201 -63t186 -181q115 129 174 172q100 72 227 71t217 -95t90 -246z" />
    <glyph glyph-name="integral" unicode="&#x222b;" horiz-adv-x="806" 
d="M291 1233q0 545 352 545q76 0 125 -27l-27 -154q-41 21 -94 21t-92 -53q-63 -76 -63 -355q0 -162 15 -494t15 -515q0 -279 -84 -414q-76 -135 -250 -135q-94 0 -155 35l30 159q49 -24 103 -24t90 43q66 86 66 303t-16 556q-15 339 -15 509z" />
    <glyph glyph-name="approxequal" unicode="&#x2248;" horiz-adv-x="1196" 
d="M817 256q-77 0 -155 39q-30 15 -122 67t-148 52t-98 -26t-64 -52t-58 -76l-84 76q49 94 131 152q81 58 161 58t130 -20q50 -21 81 -39q30 -18 37 -22q7 -5 35 -21q166 -98 262 -18q44 37 95 117l84 -78q-115 -209 -287 -209zM817 639q-61 0 -111 18t-153 78t-171 60
t-112 -39q-45 -39 -98 -115l-84 78q49 94 130 151q81 58 155 58t101 -10q78 -28 141 -65q63 -38 70 -41t42 -20q41 -20 97 -20t102 38q45 38 94 116l84 -78q-117 -209 -287 -209z" />
    <glyph glyph-name="notequal" unicode="&#x2260;" horiz-adv-x="1196" 
d="M1090 868v-133h-367l-133 -297h500v-133h-553l-113 -248l-107 47l93 201h-306v133h359l133 297h-492v133h545l109 242l108 -45l-90 -197h314z" />
    <glyph glyph-name="lessequal" unicode="&#x2264;" horiz-adv-x="1196" 
d="M1090 -16h-984v137h984v-137zM1083 203l-966 471v143l966 471v-155l-827 -383v-5l827 -387v-155z" />
    <glyph glyph-name="greaterequal" unicode="&#x2265;" horiz-adv-x="1196" 
d="M1085 -16h-976v137h976v-137zM119 1288l966 -471v-143l-966 -471v155l827 385v5l-827 385v155z" />
    <glyph glyph-name="lozenge" unicode="&#x25ca;" horiz-adv-x="1257" 
d="M944 715l-272 534q-25 53 -41 113h-6q-18 -61 -41 -113l-273 -524l277 -539q27 -61 37 -108h8q14 61 37 106zM1147 721l-432 -823h-183l-421 823l430 823h182z" />
    <glyph glyph-name="fi" unicode="&#xfb01;" horiz-adv-x="1214" 
d="M827 1317q0 59 45 103t112 44t113 -42t46 -105t-46 -105t-113 -43q-67 1 -112 45t-45 103zM860 0v983h246v-983h-246zM227 0v774h-202v209h202v139q0 225 77 338t290 113q84 0 156 -14l-17 -209q-61 14 -102 14q-94 0 -126 -53t-32 -150v-178h227v-209h-227v-774h-246z
" />
    <glyph glyph-name="fl" unicode="&#xfb02;" horiz-adv-x="1214" 
d="M860 0v1548h246v-1548h-246zM227 0v774h-202v209h202v139q0 225 77 338t290 113q84 0 156 -14l-17 -209q-61 14 -102 14q-94 0 -126 -53t-32 -150v-178h227v-209h-227v-774h-246z" />
    <glyph glyph-name="a.superior" horiz-adv-x="714" 
d="M489 1133h-57q-203 0 -203 -76q0 -29 31 -46t72 -18q158 0 157 127v13zM498 883v80h-4q-55 -92 -211 -93q-113 0 -182 69q-44 44 -44 112q0 136 146 176q109 28 260 28h35v17q0 68 -142 67q-92 0 -170 -65l-88 108q104 92 266 92t228 -58q66 -60 65 -187v-346h-159z" />
    <glyph glyph-name="o.superior" horiz-adv-x="813" 
d="M403 1018q80 0 127 48q48 48 48 106t-48 106t-127 49q-79 0 -125 -48q-46 -47 -46 -107t45 -107q46 -47 126 -47zM404 870q-146 0 -244 85t-98 217t98 218t244 85q146 0 246 -85q100 -86 100 -218t-100 -217t-246 -85z" />
    <glyph glyph-name="one.superior" horiz-adv-x="788" 
d="M367 592v649l-172 -154l-113 136l307 239h186v-870h-208z" />
    <glyph glyph-name="two.superior" horiz-adv-x="788" 
d="M63 592v194l369 312q84 74 84 112q0 80 -115 80q-53 0 -88 -32t-39 -78l-196 12q8 141 98 212t234 71t229 -68q86 -68 86 -198t-119 -220l-287 -221v-4h406v-172h-662z" />
    <glyph glyph-name="three.superior" horiz-adv-x="788" 
d="M299 958v172h66q143 0 143 93q0 67 -106 67t-128 -90l-211 41q55 233 336 234q133 -1 225 -61t93 -173q0 -74 -42 -125t-120 -65v-4q82 -11 130 -69t48 -136q0 -127 -96 -195t-244 -67q-285 0 -338 241l211 45q20 -102 127 -102q131 0 131 98q0 45 -28 67q-29 21 -61 25
t-89 4h-47z" />
    </font>
</defs>
</svg>
