<?xml version="1.0" standalone="no"?>
<!DOCTYPE svg PUBLIC "-//W3C//DTD SVG 1.1//EN" "http://www.w3.org/Graphics/SVG/1.1/DTD/svg11.dtd" >
<svg xmlns="http://www.w3.org/2000/svg">
<metadata>
Created by FontPrep 20130207 at Mon Apr 27 13:26:18 2015
 By Martin
(c) 1989, 1995, 2002 Adobe Systems Incorporated. All rights reserved.
</metadata>
<defs>
<font id="2d92c7089977381e7146422e05fbbf56" horiz-adv-x='1024' >
  <font-face 
    font-family="AvenirLTStd-BookOblique"
    font-weight="350"
    font-style="oblique"
    font-stretch="normal"
    units-per-em="2048"
    panose-1="2 11 5 2 2 2 3 2 2 4"
    ascent="1548"
    descent="-500"
    x-height="958"
    cap-height="1450"
    bbox="-342 -590 2138 1884"
    underline-thickness="102"
    underline-position="-102"
    slope="-8"
    unicode-range="U+0020-FB02"
  />
<missing-glyph horiz-adv-x="1224" 
d="M303 1239v-1044l348 522zM365 102h696l-348 523zM774 717l348 -522v1044zM713 809l348 522h-696zM201 0v1434h1024v-1434h-1024z" />
    <glyph glyph-name="f_i" unicode="fi" horiz-adv-x="1099" 
d="M1139 1327q-6 -41 -40 -70t-73 -29q-38 0 -64 30q-26 28 -20 69t40 70t73 29t65 -30q26 -28 19 -69zM1057 958l-135 -958h-136l136 958h135zM774 1573q49 0 115 -14l-41 -123q-57 14 -103 14q-104 0 -148 -64t-60 -182l-35 -246h227l-18 -122h-228l-116 -836h-136
l117 836h-203l19 122h203l36 263q49 352 371 352z" />
    <glyph glyph-name="f_l" unicode="fl" horiz-adv-x="1099" 
d="M1139 1548l-217 -1548h-136l218 1548h135zM774 1573q49 0 115 -14l-41 -123q-57 14 -103 14q-104 0 -148 -64t-60 -182l-35 -246h227l-18 -122h-228l-116 -836h-136l117 836h-203l19 122h203l36 263q49 352 371 352z" />
    <glyph glyph-name=".notdef" horiz-adv-x="1224" 
d="M303 1239v-1044l348 522zM365 102h696l-348 523zM774 717l348 -522v1044zM713 809l348 522h-696zM201 0v1434h1024v-1434h-1024z" />
    <glyph glyph-name=".null" horiz-adv-x="0" 
 />
    <glyph glyph-name="nonmarkingreturn" horiz-adv-x="681" 
 />
    <glyph glyph-name="space" unicode=" " horiz-adv-x="569" 
 />
    <glyph glyph-name="exclam" unicode="!" horiz-adv-x="569" 
d="M313 209q47 0 75 -33t22 -78t-43 -78q-37 -32 -84 -32t-74 32t-21 78q6 45 42 78t83 33zM563 1450l-149 -1057h-148l150 1057h147z" />
    <glyph glyph-name="quotedbl" unicode="&#x22;" horiz-adv-x="1062" 
d="M754 969l69 481h123l-69 -481h-123zM457 969l69 481h123l-69 -481h-123z" />
    <glyph glyph-name="numbersign" unicode="#" 
d="M592 893l-90 -332h272l90 332h-272zM219 0l123 438h-209l19 123h225l90 332h-221l18 123h240l121 434h125l-121 -434h272l121 434h125l-121 -434h184l-18 -123h-203l-90 -332h195l-19 -123h-211l-123 -438h-125l123 438h-272l-123 -438h-125z" />
    <glyph glyph-name="dollar" unicode="$" 
d="M535 100l79 572q-168 53 -264 146t-74 262t156 278q133 109 295 121l21 143h98l-19 -139q227 0 355 -174l-129 -99q-31 70 -99 105t-147 33l-76 -547q86 -33 143 -63q56 -30 116 -81q121 -104 96 -282q-26 -178 -158 -288t-314 -120l-20 -139h-98l18 135q-136 9 -242 71
t-157 154l135 88q53 -82 135 -130t150 -46zM709 643l-76 -541q141 0 235 106q55 62 70 157q31 192 -229 278zM637 829l72 517q-109 -8 -189 -82t-94 -176t42 -158q56 -58 169 -101z" />
    <glyph glyph-name="percent" unicode="%" horiz-adv-x="1705" 
d="M1571 1458l-1135 -1521l-100 55l1139 1521zM1282 98q98 0 177 68t93 168t-46 168t-158 68t-178 -68q-79 -68 -93 -168t46 -168q61 -68 159 -68zM1366 692q152 0 242 -103t67 -255t-141 -255t-270 -103t-242 102q-90 104 -68 256q23 152 142 255q118 103 270 103z
M629 1352q-98 0 -177 -68q-80 -68 -94 -168t45 -168t157 -68t180 68q80 68 94 168t-46 168t-159 68zM544 758q-152 0 -241 103q-91 103 -69 254t141 255t271 104t240 -102q90 -104 68 -256t-140 -255t-270 -103z" />
    <glyph glyph-name="ampersand" unicode="&#x26;" horiz-adv-x="1441" 
d="M564 98q114 0 199 54t183 159l-325 402q-158 -82 -227 -155q-69 -74 -85 -188t62 -193q79 -79 193 -79zM948 1298q-51 54 -139 54t-159 -58t-83 -140q-12 -81 29 -157t84 -118l46 23q38 18 51 26t46 27q41 23 96 75q56 51 68 133t-39 135zM826 1487q154 0 242 -86
q87 -87 68 -227q-18 -140 -118 -227t-256 -163l285 -344l247 344h166l-330 -448l279 -336h-209l-174 213q-114 -125 -226 -187t-253 -63q-188 0 -305 113t-90 301q37 270 389 428q-145 186 -121 340q20 158 136 250t270 92z" />
    <glyph glyph-name="quotesingle" unicode="'" horiz-adv-x="532" 
d="M340 969l70 481h122l-69 -481h-123z" />
    <glyph glyph-name="parenleft" unicode="(" horiz-adv-x="532" 
d="M618 1507l101 -69q-172 -226 -264 -416t-126 -430t2 -423t142 -415l-119 -82q-111 190 -152 430q-85 484 135 968q109 240 281 437z" />
    <glyph glyph-name="parenright" unicode=")" horiz-adv-x="532" 
d="M80 -328l-100 70q172 226 264 416t126 430t-2 423t-143 414l119 82q111 -190 153 -430q85 -485 -136 -967q-109 -241 -281 -438z" />
    <glyph glyph-name="asterisk" unicode="*" horiz-adv-x="909" 
d="M721 1450l-43 -293l301 92l27 -114l-301 -93l149 -247l-111 -74l-151 254l-225 -254l-86 74l219 247l-277 93l60 114l272 -92l43 293h123z" />
    <glyph glyph-name="plus" unicode="+" horiz-adv-x="1363" 
d="M903 1143l-63 -461h460l-18 -123h-461l-63 -461h-123l63 461h-460l18 123h461l63 461h123z" />
    <glyph glyph-name="comma" unicode="," horiz-adv-x="569" 
d="M463 195l-234 -482h-137l205 482h166z" />
    <glyph glyph-name="hyphen" unicode="-" horiz-adv-x="681" 
d="M682 559l-18 -135h-527l19 135h526z" />
    <glyph glyph-name="period" unicode="." horiz-adv-x="569" 
d="M313 209q47 0 75 -33t22 -78t-43 -78q-37 -32 -84 -32t-74 32t-21 78q6 45 42 78t83 33z" />
    <glyph glyph-name="slash" unicode="/" horiz-adv-x="757" 
d="M950 1446l-827 -1483l-113 39l830 1485z" />
    <glyph glyph-name="zero" unicode="0" 
d="M758 1339q-348 0 -430 -614q-88 -614 256 -614t432 614q82 614 -258 614zM776 1475q119 -1 203 -49t126 -122q112 -196 58 -579q-29 -217 -93 -361t-126 -218t-162 -122q-98 -48 -208 -48q-212 -1 -303 122q-92 123 -103 290q-19 278 47 525q66 248 185 392
q62 74 160 122t216 48z" />
    <glyph glyph-name="one" unicode="1" 
d="M918 1450l-205 -1450h-148l178 1266l-292 -230l-76 111l411 303h132z" />
    <glyph glyph-name="two" unicode="2" 
d="M1038 135l-18 -135h-922l25 170l659 588q63 57 103 97q39 41 79 105t48 125q16 117 -54 186t-184 69t-202 -62q-87 -61 -126 -166l-153 16q53 160 184 253t308 93t289 -98q112 -100 87 -278q-25 -199 -238 -398q-44 -41 -126 -112l-521 -453h762z" />
    <glyph glyph-name="three" unicode="3" 
d="M610 827q139 0 238 66q98 66 116 192q18 127 -44 191q-61 64 -189 63q-184 0 -299 -159l-121 65q160 229 434 230q179 1 285 -101t82 -276q-14 -115 -98 -207t-193 -125l4 -4q121 -27 183 -129t45 -240q-27 -195 -177 -307t-346 -111q-342 0 -415 293l164 47
q23 -104 89 -154t194 -50t228 80q99 81 117 221t-74 210q-93 71 -253 70h-64l19 135h75z" />
    <glyph glyph-name="four" unicode="4" 
d="M772 479l115 824h-4l-615 -824h504zM1057 1450l-137 -971h208l-18 -135h-209l-49 -344h-147l49 344h-627l23 168l718 938h189z" />
    <glyph glyph-name="five" unicode="5" 
d="M545 111q137 0 245 94q108 95 128 239t-67 239t-241 95t-313 -80l121 752h739l-20 -135h-594l-70 -436q92 35 201 34q202 0 312 -132q110 -133 81 -337t-187 -336t-368 -133q-139 0 -241 67q-101 67 -140 191l154 64q31 -86 99 -136t161 -50z" />
    <glyph glyph-name="six" unicode="6" 
d="M586 111q143 0 244 87q102 87 122 225t-57 226q-78 88 -221 88t-246 -87t-123 -225t59 -226t222 -88zM721 872q190 0 298 -127t81 -323q-26 -196 -178 -322q-152 -125 -357 -125t-319 125q-114 124 -88 316q27 192 180 397l481 637h174l-483 -623l4 -4q76 49 207 49z" />
    <glyph glyph-name="seven" unicode="7" 
d="M1176 1450l-21 -135l-768 -1315h-166l780 1315h-706l20 135h861z" />
    <glyph glyph-name="eight" unicode="8" 
d="M668 705q-138 0 -236 -84t-116 -213t56 -213q75 -84 214 -84q138 0 236 84t116 213t-56 213q-75 84 -214 84zM686 827q111 1 195 73t98 183q16 111 -47 184t-174 73t-195 -74q-84 -72 -99 -183t48 -183t174 -73zM564 -25q-189 0 -307 115t-91 297q20 141 108 245t215 136
v4q-90 33 -138 123t-34 201q25 168 158 273t301 105t272 -104q104 -106 80 -274q-14 -111 -88 -201t-174 -123v-4q117 -33 177 -136t40 -245q-27 -184 -179 -298t-340 -114z" />
    <glyph glyph-name="nine" unicode="9" 
d="M758 1339q-144 0 -246 -87t-122 -226t59 -226q78 -87 221 -87q144 0 246 88t120 225q20 137 -57 225q-78 88 -221 88zM623 578q-190 0 -299 127t-81 323t178 322q151 125 355 125t321 -125q116 -124 88 -318t-179 -395l-482 -637h-174l484 623l-5 4q-76 -49 -206 -49z
" />
    <glyph glyph-name="colon" unicode=":" horiz-adv-x="569" 
d="M313 209q47 0 75 -33t22 -78t-43 -78q-37 -32 -84 -32t-74 32t-21 78q6 45 42 78t83 33zM420 969q46 0 74 -33t22 -78t-43 -78q-37 -32 -84 -32t-74 32t-20 78q6 45 42 78t83 33z" />
    <glyph glyph-name="semicolon" unicode=";" horiz-adv-x="569" 
d="M438 969q47 0 75 -33t22 -78t-43 -78q-37 -32 -84 -32t-74 32t-21 78q6 45 42 78t83 33zM463 195l-234 -482h-137l205 482h166z" />
    <glyph glyph-name="less" unicode="&#x3c;" horiz-adv-x="1363" 
d="M1366 1155l-16 -123l-936 -411l819 -412l-16 -123l-977 487l14 95z" />
    <glyph glyph-name="equal" unicode="=" horiz-adv-x="1363" 
d="M233 528h1045l-16 -122h-1045zM276 836h1045l-16 -123h-1045z" />
    <glyph glyph-name="greater" unicode="&#x3e;" horiz-adv-x="1363" 
d="M305 1032l17 123l976 -487l-14 -95l-1112 -487l16 123l938 412z" />
    <glyph glyph-name="question" unicode="?" horiz-adv-x="987" 
d="M532 209q46 0 75 -33q28 -33 22 -78t-43 -78q-37 -32 -84 -32t-74 32t-20 78q6 45 42 78t82 33zM635 498l-14 -105h-148l25 170q18 111 148 219q54 45 110 90q131 107 147 221q16 115 -41 181q-58 66 -162 66t-182 -62q-78 -61 -110 -162l-152 19q45 159 171 249t292 90
t262 -94q96 -96 74 -264q-15 -96 -59 -168t-99 -116t-109 -86q-132 -102 -153 -248z" />
    <glyph glyph-name="at" unicode="@" horiz-adv-x="1638" 
d="M1028 1165q176 0 209 -168h4l64 129h114l-252 -577q-70 -142 9 -146q108 1 228 141t142 306q33 223 -122 375t-377 151q-262 0 -481 -196q-218 -197 -254 -455t127 -455t425 -196q154 0 304 66t249 182h129q-121 -168 -309 -264t-389 -95q-315 0 -509 221
q-194 220 -149 540q46 320 302 542t558 221q302 0 480 -178q178 -177 142 -437t-216 -426t-338 -165q-129 0 -125 120h-4q-135 -121 -270 -121t-203 86q-68 85 -49 222q33 223 193 400q161 177 368 177zM1147 838q12 86 -29 145t-106 59q-144 -6 -266 -147t-142 -295
q-12 -86 35 -141t131 -56q125 0 242 148t135 287z" />
    <glyph glyph-name="A" unicode="A" horiz-adv-x="1404" 
d="M883 1278l-424 -762h628zM385 381l-213 -381h-172l836 1450h143l426 -1450h-172l-107 381h-741z" />
    <glyph glyph-name="B" unicode="B" horiz-adv-x="1290" 
d="M645 135q170 0 286 69t135 208t-62 210q-82 71 -261 70h-301l-80 -557h283zM756 815q121 1 217 63t112 191q9 69 -28 143q-23 45 -86 74t-160 29h-283l-69 -500h297zM834 1450q204 0 322 -87t91 -278q-16 -119 -96 -205t-203 -112l-2 -4q152 -12 226 -108t53 -255
q-14 -87 -68 -164q-53 -77 -113 -123t-166 -80q-105 -34 -239 -34h-442l204 1450h433z" />
    <glyph glyph-name="C" unicode="C" horiz-adv-x="1441" 
d="M848 -37q-326 0 -509 216t-138 546t291 546t571 216q143 0 269 -57t200 -173l-141 -96q-35 74 -135 132t-212 59q-270 0 -458 -184t-226 -443q-38 -260 100 -443q138 -184 410 -184t445 217l108 -86q-93 -117 -247 -191t-328 -75z" />
    <glyph glyph-name="D" unicode="D" horiz-adv-x="1517" 
d="M629 135q313 0 506 173t226 411t-101 414q-66 84 -186 133t-279 49h-287l-166 -1180h287zM862 1450q228 0 414 -122q187 -122 238 -343q28 -121 8 -260q-33 -229 -173 -399q-139 -170 -321 -248t-371 -78h-481l205 1450h481z" />
    <glyph glyph-name="E" unicode="E" horiz-adv-x="1214" 
d="M440 686l-78 -551h777l-19 -135h-923l204 1450h899l-20 -135h-752l-69 -494h702l-18 -135h-703z" />
    <glyph glyph-name="F" unicode="F" 
d="M440 686l-96 -686h-147l204 1450h875l-21 -135h-727l-69 -494h676l-19 -135h-676z" />
    <glyph glyph-name="G" unicode="G" horiz-adv-x="1593" 
d="M1036 1352q-262 0 -450 -184t-226 -443q-38 -260 100 -443t408 -184q221 0 416 103l68 485h-346l18 135h494l-99 -710q-269 -147 -583 -147t-497 215q-183 216 -138 546t291 546t574 216t495 -195l-127 -108q-136 168 -398 168z" />
    <glyph glyph-name="H" unicode="H" horiz-adv-x="1478" 
d="M197 0l204 1450h148l-90 -629h790l90 629h148l-205 -1450h-147l96 686h-791l-96 -686h-147z" />
    <glyph glyph-name="I" unicode="I" horiz-adv-x="540" 
d="M549 1450l-205 -1450h-147l204 1450h148z" />
    <glyph glyph-name="J" unicode="J" horiz-adv-x="987" 
d="M422 98q256 0 305 361l141 991h148l-150 -1053q-20 -157 -127 -288q-117 -146 -363 -146q-132 0 -218 78q-88 78 -92 225l153 31q16 -199 203 -199z" />
    <glyph glyph-name="K" unicode="K" horiz-adv-x="1290" 
d="M549 1450l-90 -629h20l772 629h211l-825 -657l661 -793h-217l-608 748h-24l-105 -748h-147l204 1450h148z" />
    <glyph glyph-name="L" unicode="L" horiz-adv-x="1024" 
d="M549 1450l-187 -1315h676l-18 -135h-823l204 1450h148z" />
    <glyph glyph-name="M" unicode="M" horiz-adv-x="1822" 
d="M627 1450l323 -1180l656 1180h225l-205 -1450h-147l176 1253h-4l-701 -1253h-78l-348 1253h-4l-176 -1253h-147l204 1450h226z" />
    <glyph glyph-name="N" unicode="N" horiz-adv-x="1593" 
d="M586 1450l690 -1229h4l174 1229h148l-205 -1450h-185l-690 1241h-4l-174 -1241h-147l204 1450h185z" />
    <glyph glyph-name="O" unicode="O" horiz-adv-x="1708" 
d="M1552 725q37 260 -100 443q-138 184 -408 184t-458 -184t-226 -443q-38 -260 100 -443q138 -184 408 -184t458 184t226 443zM848 -37q-326 0 -509 216t-138 546t291 546t572 216t509 -216q184 -216 139 -546t-292 -546q-246 -216 -572 -216z" />
    <glyph glyph-name="P" unicode="P" horiz-adv-x="1175" 
d="M696 809q352 0 389 254q15 115 -59 183t-260 69h-238l-69 -506h237zM823 1450q225 0 337 -98t85 -290t-167 -290t-365 -98h-275l-94 -674h-147l204 1450h422z" />
    <glyph glyph-name="Q" unicode="Q" horiz-adv-x="1708" 
d="M831 0q-315 0 -494 211t-134 533t283 532q239 211 554 211q316 0 494 -211t133 -533q-59 -424 -424 -604l-2 -4h438l-18 -135h-830zM849 135q259 0 441 178t217 430q35 253 -96 431t-390 178t-441 -178t-218 -431q-36 -252 96 -430t391 -178z" />
    <glyph glyph-name="R" unicode="R" horiz-adv-x="1214" 
d="M721 809q352 0 389 254q16 115 -58 183t-261 69h-263l-69 -506h262zM848 1450q225 0 337 -98t85 -289q-22 -154 -134 -257t-290 -118l321 -688h-180l-303 674h-246l-94 -674h-147l204 1450h447z" />
    <glyph glyph-name="S" unicode="S" 
d="M553 -37q-299 0 -426 215l147 96q37 -82 116 -129t194 -47t221 72t123 192q12 82 -22 140t-94 89q-60 33 -136 57t-152 54t-135 71q-59 42 -90 118q-31 77 -13 197t100 216q157 182 419 183q262 0 391 -176l-143 -101q-74 141 -260 142q-127 0 -229 -68t-119 -206
q-18 -138 118 -209q61 -31 136 -57t151 -56t135 -73q59 -42 89 -118t16 -182q-27 -188 -190 -304t-347 -116z" />
    <glyph glyph-name="T" unicode="T" horiz-adv-x="1175" 
d="M846 1315l-184 -1315h-148l184 1315h-485l20 135h1119l-21 -135h-485z" />
    <glyph glyph-name="U" unicode="U" horiz-adv-x="1404" 
d="M696 -37q-126 0 -217 37q-92 37 -138 97q-107 139 -101 291q2 79 8 153l129 909h147l-127 -893q-16 -119 1 -208q18 -89 54 -135t89 -74t93 -35t83 -7t85 7t103 35t110 74q48 46 90 135t58 208l127 893h148l-129 -909q-21 -166 -106 -308q-49 -80 -113 -137t-166 -95
t-228 -38z" />
    <glyph glyph-name="V" unicode="V" horiz-adv-x="1251" 
d="M362 1450l287 -1229h4l650 1229h159l-770 -1450h-147l-346 1450h163z" />
    <glyph glyph-name="W" unicode="W" horiz-adv-x="1933" 
d="M369 1450l172 -1241h4l540 1241h177l188 -1241h4l520 1241h164l-633 -1450h-172l-190 1241h-4l-539 -1241h-172l-223 1450h164z" />
    <glyph glyph-name="X" unicode="X" horiz-adv-x="1290" 
d="M457 1450l313 -580l487 580h185l-590 -688l426 -762h-195l-350 657l-536 -657h-185l637 762l-391 688h199z" />
    <glyph glyph-name="Y" unicode="Y" horiz-adv-x="1175" 
d="M750 625l-88 -625h-148l88 625l-426 825h184l336 -684l529 684h184z" />
    <glyph glyph-name="Z" unicode="Z" 
d="M1284 1450l-18 -123l-1014 -1192h858l-18 -135h-1045l16 123l1016 1192h-835l20 135h1020z" />
    <glyph glyph-name="bracketleft" unicode="[" horiz-adv-x="532" 
d="M676 1499l-17 -110h-196l-223 -1598h196l-16 -110h-332l256 1818h332z" />
    <glyph glyph-name="backslash" unicode="\" horiz-adv-x="757" 
d="M623 -37l-410 1483l123 41l412 -1485z" />
    <glyph glyph-name="bracketright" unicode="]" horiz-adv-x="532" 
d="M23 -319l16 110h197l223 1598h-197l17 110h331l-256 -1818h-331z" />
    <glyph glyph-name="asciicircum" unicode="^" horiz-adv-x="1363" 
d="M244 563l594 887h98l344 -887h-127l-289 740l-493 -740h-127z" />
    <glyph glyph-name="underscore" unicode="_" horiz-adv-x="1024" 
d="M-37 -256l14 102h1024l-14 -102h-1024z" />
    <glyph glyph-name="grave" unicode="`" horiz-adv-x="491" 
d="M412 1155l-228 295h187l161 -295h-120z" />
    <glyph glyph-name="a" unicode="a" horiz-adv-x="1062" 
d="M760 477q-446 0 -475 -203q-12 -88 48 -132t152 -44q141 0 228 87q86 87 106 223l10 69h-69zM776 588h68l4 24q33 248 -211 248q-168 0 -309 -112l-68 96q156 139 424 139q152 0 239 -87t64 -253l-59 -428q-14 -102 -15 -215h-131q-4 72 11 156h-5q-137 -180 -364 -181
q-137 0 -222 74t-67 207q13 88 63 154t113 98q154 80 465 80z" />
    <glyph glyph-name="b" unicode="b" horiz-adv-x="1251" 
d="M673 98q165 0 279 108t137 272q23 165 -61 274q-84 108 -249 108t-289 -110t-146 -271t70 -271q94 -110 259 -110zM797 983q223 0 347 -143q124 -142 93 -360t-195 -361t-387 -144q-104 -1 -200 47t-146 138h-4l-22 -160h-136l218 1548h135l-105 -749h4q76 90 185 137
t213 47z" />
    <glyph glyph-name="c" unicode="c" horiz-adv-x="987" 
d="M1071 817l-123 -84q-27 55 -86 91t-135 36q-165 2 -277 -106t-137 -275t59 -275t249 -106q77 0 145 36t111 91l100 -84q-162 -162 -384 -165q-222 -2 -340 140t-87 363t189 364q159 142 380 139t336 -165z" />
    <glyph glyph-name="d" unicode="d" horiz-adv-x="1251" 
d="M607 98q165 0 289 110t146 272t-70 271q-93 109 -258 109t-279 -107q-113 -108 -137 -273q-24 -166 60 -274t249 -108zM729 983q103 0 201 -47t147 -137h4l105 749h135l-217 -1548h-135l22 160h-4q-75 -90 -185 -137t-214 -48q-223 -1 -346 143t-92 361t193 361
q163 143 386 143z" />
    <glyph glyph-name="e" unicode="e" 
d="M708 860q-138 0 -252 -94q-116 -94 -132 -213h647q18 139 -53 223q-72 84 -210 84zM590 -25q-213 -1 -334 143t-90 360t189 361q159 144 367 143t313 -138t77 -340l-10 -62h-799q-8 -145 78 -244t227 -100q100 0 188 48t142 118l92 -86q-188 -203 -440 -203z" />
    <glyph glyph-name="f" unicode="f" horiz-adv-x="606" 
d="M774 1573q49 0 115 -14l-41 -123q-57 14 -103 14q-104 0 -148 -64t-60 -182l-35 -246h227l-18 -122h-228l-116 -836h-136l117 836h-203l19 122h203l36 263q49 352 371 352z" />
    <glyph glyph-name="g" unicode="g" horiz-adv-x="1251" 
d="M730 860q-156 0 -274 -108t-141 -260t65 -261t240 -109t275 104q123 103 139 266q23 156 -62 262t-242 106zM537 -369q193 -1 297 103t129 274l22 172h-4q-143 -180 -383 -180q-209 0 -335 139t-96 349t187 353q158 142 382 142t333 -184h4l23 159h135l-133 -950
q-24 -179 -142 -325q-63 -80 -177 -127t-267 -48q-280 0 -434 193l117 106q49 -82 139 -129t203 -47z" />
    <glyph glyph-name="h" unicode="h" 
d="M745 983q180 0 257 -97t53 -278l-86 -608h-135l73 530q25 168 -21 249t-192 81q-50 0 -109 -26q-58 -26 -101 -61q-42 -35 -80 -109t-52 -172l-69 -492h-136l218 1548h135l-105 -743h4q55 78 153 128t193 50z" />
    <glyph glyph-name="i" unicode="i" horiz-adv-x="491" 
d="M530 1327q-6 -41 -40 -70t-72 -29t-65 30q-26 28 -19 69q6 41 40 70t72 29t65 -29q25 -29 19 -70zM449 958l-136 -958h-135l135 958h136z" />
    <glyph glyph-name="j" unicode="j" horiz-adv-x="491" 
d="M530 1327q-6 -41 -40 -70t-72 -29t-65 30q-26 28 -19 69q6 41 40 70t72 29t65 -29q25 -29 19 -70zM-94 -354q112 -37 176 19q39 34 51 72t21 95l159 1126h136l-162 -1148q-20 -141 -80 -209q-80 -92 -234 -93q-55 1 -102 21z" />
    <glyph glyph-name="k" unicode="k" horiz-adv-x="987" 
d="M500 1548l-144 -1022l514 432h203l-538 -438l454 -520h-209l-426 504l-71 -504h-136l218 1548h135z" />
    <glyph glyph-name="l" unicode="l" horiz-adv-x="491" 
d="M530 1548l-217 -1548h-135l217 1548h135z" />
    <glyph glyph-name="m" unicode="m" horiz-adv-x="1744" 
d="M733 983q229 0 279 -199q53 90 148 144t194 55q180 0 257 -97t52 -278l-86 -608h-135l78 559q24 153 -20 227t-181 74t-217 -100t-101 -250l-71 -510h-135l77 559q23 153 -20 227t-178 74q-49 0 -104 -26q-56 -26 -94 -62t-74 -108q-36 -74 -50 -172l-69 -492h-136
l105 745q6 39 20 213h146l-21 -145h4q57 80 149 125t183 45z" />
    <glyph glyph-name="n" unicode="n" 
d="M745 983q180 0 257 -97t53 -278l-86 -608h-135l73 530q25 168 -21 249t-192 81q-50 0 -109 -26q-58 -26 -101 -61q-42 -35 -80 -109t-52 -172l-69 -492h-136l105 748q4 26 20 210h140q-2 -68 -17 -153h4q55 78 153 128t193 50z" />
    <glyph glyph-name="o" unicode="o" horiz-adv-x="1214" 
d="M621 98q164 0 277 108t137 272q24 165 -60 274q-84 108 -247 108q-164 0 -278 -108t-137 -273t61 -273t247 -108zM744 983q222 0 347 -143q124 -144 93 -361t-195 -360t-386 -143t-345 142q-123 144 -92 361t193 361q163 143 385 143z" />
    <glyph glyph-name="p" unicode="p" horiz-adv-x="1251" 
d="M673 98q165 0 279 108t137 272q23 165 -61 274q-84 108 -249 108t-289 -110t-146 -271t70 -271q94 -110 259 -110zM797 983q223 0 347 -143q124 -142 93 -360t-195 -361t-387 -144q-104 -1 -200 47t-146 138h-4l-104 -750h-135l217 1548h135l-23 -159h4q76 90 185 137
t213 47z" />
    <glyph glyph-name="q" unicode="q" horiz-adv-x="1251" 
d="M607 98q165 0 289 110t146 272t-70 271q-93 109 -258 109t-279 -107q-113 -108 -137 -273q-24 -166 60 -274t249 -108zM729 983q103 0 201 -47t147 -137h4l23 159h135l-217 -1548h-135l104 750h-4q-75 -90 -185 -137t-214 -48q-223 -1 -346 143t-92 361t193 361
q163 143 386 143z" />
    <glyph glyph-name="r" unicode="r" horiz-adv-x="679" 
d="M735 983q57 0 101 -12l-48 -133q-25 10 -75 10q-141 0 -233 -97t-107 -210l-76 -541h-135l92 659q6 39 14 116t21 183h133l-25 -178h4q45 86 131 144t203 59z" />
    <glyph glyph-name="s" unicode="s" horiz-adv-x="872" 
d="M569 860q-81 0 -145 -36t-73 -103t30 -100t137 -56l133 -33q98 -25 155 -94q56 -70 42 -168q-24 -147 -142 -221t-274 -74q-244 0 -342 187l129 80q72 -143 232 -144q91 0 163 41t82 113t-32 104t-127 56l-127 30q-238 61 -209 252q18 141 132 215t261 74q236 0 297 -172
l-133 -80q-47 129 -189 129z" />
    <glyph glyph-name="t" unicode="t" horiz-adv-x="679" 
d="M522 98q72 0 142 37l-11 -125q-82 -35 -183 -35q-102 -1 -164 57t-42 199l84 605h-203l19 122h203l36 271h136l-37 -271h276l-18 -122h-277l-77 -566q-14 -100 16 -136q28 -36 100 -36z" />
    <glyph glyph-name="u" unicode="u" 
d="M557 98q50 0 109 26t101 62t80 109q38 74 52 172l70 491h135l-107 -747q-2 -23 -5 -59t-7 -81q-4 -46 -6 -71h-139q2 68 16 154h-4q-56 -78 -154 -128t-194 -51q-358 0 -307 375l86 608h135l-76 -530q-22 -168 24 -249t191 -81z" />
    <glyph glyph-name="v" unicode="v" horiz-adv-x="987" 
d="M1094 958l-525 -958h-151l-254 958h162l190 -806h4l420 806h154z" />
    <glyph glyph-name="w" unicode="w" horiz-adv-x="1478" 
d="M164 958h160l110 -778h4l367 778h139l146 -778h4l331 778h160l-438 -958h-152l-143 786h-4l-365 -786h-151z" />
    <glyph glyph-name="x" unicode="x" horiz-adv-x="987" 
d="M0 0l467 512l-285 446h185l215 -358l305 358h168l-398 -446l330 -512h-184l-262 420l-369 -420h-172z" />
    <glyph glyph-name="y" unicode="y" horiz-adv-x="987" 
d="M124 -369q65 0 112 42t94 130l94 185l-256 970h170l188 -792l406 792h164l-650 -1208q-125 -242 -316 -242q-97 0 -142 15l32 131q39 -23 104 -23z" />
    <glyph glyph-name="z" unicode="z" horiz-adv-x="872" 
d="M940 958l-14 -98l-666 -737h582l-17 -123h-778l14 98l664 738h-532l18 122h729z" />
    <glyph glyph-name="braceleft" unicode="{" horiz-adv-x="532" 
d="M639 1499h131l-18 -123h-115q-47 0 -75 -30t-36 -59q-8 -30 -14 -81l-49 -352q-18 -129 -90 -191t-129 -71l-2 -4q57 -8 110 -70t35 -192l-49 -353q-16 -59 -2 -114t82 -56h114l-18 -122h-131q-98 0 -152 60q-53 60 -32 196l51 364q12 103 -33 165t-119 62l19 123
q74 1 136 63t77 165l51 364q39 256 258 256z" />
    <glyph glyph-name="bar" unicode="|" horiz-adv-x="739" 
d="M414 1706h118v-2273h-118v2273z" />
    <glyph glyph-name="braceright" unicode="}" horiz-adv-x="532" 
d="M59 -319h-131l19 122h114q47 0 75 30q28 29 36 59t14 81l50 353q18 129 90 191t129 71l2 4q-57 8 -111 70t-35 192l49 352q16 58 2 114t-81 56h-115l18 123h131q97 0 151 -60t34 -196l-51 -364q-15 -102 31 -165t120 -63l-18 -123q-74 0 -138 -62t-75 -165l-52 -364
q-39 -256 -258 -256z" />
    <glyph glyph-name="asciitilde" unicode="~" horiz-adv-x="1363" 
d="M968 481q-65 0 -100 9q-39 10 -144 78q-105 69 -163 69q-104 0 -225 -150l-74 82q47 55 84 90t98 68t126 33t104 -10t121 -64q83 -54 115 -68t67 -14q104 0 225 150l74 -82q-47 -55 -84 -90t-98 -68t-126 -33z" />
    <glyph glyph-name="uni00A0" unicode="&#xa0;" horiz-adv-x="569" 
 />
    <glyph glyph-name="exclamdown" unicode="&#xa1;" horiz-adv-x="569" 
d="M393 774q-47 0 -74 33q-26 33 -20 78t42 78t83 33t75 -34q27 -32 21 -77t-43 -78t-84 -33zM145 -467l148 1057h147l-147 -1057h-148z" />
    <glyph glyph-name="cent" unicode="&#xa2;" 
d="M809 858l-107 -758q150 10 236 125l100 -84q-152 -154 -354 -164l-16 -124h-99l19 129q-195 20 -292 158t-69 339q29 201 164 339t336 159l18 129h99l-19 -125q199 -10 308 -164l-123 -84q-25 51 -78 86t-123 39zM604 104l107 750q-133 -23 -225 -126q-92 -104 -111 -250
q-20 -146 41 -248t188 -126z" />
    <glyph glyph-name="sterling" unicode="&#xa3;" 
d="M987 809l-18 -123h-344l-80 -563h518l-16 -123h-875l16 123h209l80 563h-196l18 123h197l24 178q70 487 502 488q201 0 301 -123l-111 -105q-80 104 -213 105q-89 0 -155 -38t-101 -100q-61 -108 -77 -239l-23 -166h344z" />
    <glyph glyph-name="currency" unicode="&#xa4;" 
d="M618 338q154 0 278 114t146 274t-69 272q-92 114 -247 114q-154 0 -278 -114t-147 -273t69 -273q94 -114 248 -114zM599 215q-167 0 -292 109l-123 -109l-78 90l123 109q-90 143 -63 311q20 172 151 311l-92 109l103 90l92 -109q156 109 322 109t292 -109l125 109l78 -90
l-125 -109q92 -141 68 -312t-156 -310l94 -109l-102 -90l-94 109q-156 -109 -323 -109z" />
    <glyph glyph-name="yen" unicode="&#xa5;" 
d="M225 457h334l23 157l-11 25h-319l14 111h254l-319 700h174l301 -696l498 696h174l-519 -700h252l-14 -111h-319l-19 -25l-22 -157h333l-14 -111h-334l-49 -346h-147l49 346h-334z" />
    <glyph glyph-name="brokenbar" unicode="&#xa6;" horiz-adv-x="737" 
d="M414 397h116v-792h-116v792zM414 1536h116v-797h-116v797z" />
    <glyph glyph-name="section" unicode="&#xa7;" 
d="M612 827l-37 -14q-160 -63 -176 -172q-6 -15 -1 -33t6 -29q0 -11 12 -25t17 -24q5 -8 21 -20t25 -18t27 -16t26 -14q8 -5 26 -13t26 -13l125 -65q61 25 114 75t63 118q10 69 -36 119q-45 50 -129 91zM776 1352q-123 0 -181 -64q-57 -64 -67 -126t26 -104t114 -85
l209 -115q184 -102 159 -280t-217 -273q69 -53 93 -110t12 -146q-23 -162 -147 -248t-275 -86q-150 -1 -250 59t-131 177l143 65q18 -90 86 -134t162 -44t171 50t93 159t-117 180l-262 138q-172 90 -146 269t251 271q-76 57 -105 111t-18 135q20 152 136 238t257 86
q140 -1 228 -55t108 -138l-129 -61q-51 131 -203 131z" />
    <glyph glyph-name="dieresis" unicode="&#xa8;" horiz-adv-x="491" 
d="M643 1430q45 0 71 -32t20 -73t-41 -73q-34 -32 -79 -32q-44 0 -70 32t-20 73t40 73t79 32zM250 1430q45 0 71 -32q25 -32 19 -73t-40 -73t-79 -32t-71 32t-19 73q6 41 40 73t79 32z" />
    <glyph glyph-name="copyright" unicode="&#xa9;" horiz-adv-x="1638" 
d="M829 74q270 0 485 188q214 188 253 464t-123 464q-162 186 -432 186t-484 -188t-254 -464q-39 -276 123 -462q162 -188 432 -188zM1028 1487q317 0 512 -219t150 -539q-31 -215 -160 -391q-130 -176 -320 -276t-397 -99q-315 0 -511 219q-195 220 -149 542t302 543
q256 220 573 220zM887 258q-205 0 -313 132t-78 337t169 334q140 129 347 129q152 0 246 -81t96 -230h-115q-4 88 -71 144t-171 56q-152 0 -255 -99q-104 -100 -124 -248t59 -256t224 -107q104 -1 185 59t112 150h117q-55 -148 -171 -234t-257 -86z" />
    <glyph glyph-name="ordfeminine" unicode="&#xaa;" horiz-adv-x="690" 
d="M602 1145q-254 0 -268 -101q-6 -37 26 -57t82 -20q162 0 187 178h-27zM401 868q-90 0 -147 44t-44 135q28 196 386 196h45q9 75 -20 105q-29 29 -93 28q-102 0 -190 -61l-55 76q101 84 247 84q146 -1 198 -59t44 -126l-41 -280q-2 -8 -8 -129h-111l4 73h-2
q-70 -86 -213 -86z" />
    <glyph glyph-name="guillemotleft" unicode="&#xab;" horiz-adv-x="987" 
d="M981 852l-285 -360l185 -361l-107 -68l-225 429l346 428zM608 852l-284 -360l184 -361l-107 -68l-225 429l346 428z" />
    <glyph glyph-name="logicalnot" unicode="&#xac;" horiz-adv-x="1363" 
d="M1321 836l-80 -570h-123l64 447h-922l16 123h1045z" />
    <glyph glyph-name="uni00AD" unicode="&#xad;" horiz-adv-x="681" 
d="M682 559l-18 -135h-527l19 135h526z" />
    <glyph glyph-name="registered" unicode="&#xae;" horiz-adv-x="1638" 
d="M829 74q270 0 485 188q214 188 253 464t-123 464q-162 186 -432 186t-484 -188t-254 -464q-39 -276 123 -462q162 -188 432 -188zM1028 1487q317 0 512 -219t150 -539q-31 -215 -160 -391q-130 -176 -320 -276t-397 -99q-315 0 -511 219q-195 220 -149 542t302 543
q256 220 573 220zM918 768q107 0 155 16q86 28 103 129q10 82 -40 110t-141 28h-190l-39 -283h152zM1022 1161q160 0 226 -61t48 -193q-31 -215 -266 -239l199 -389h-133l-189 378h-157l-54 -378h-123l125 882h324z" />
    <glyph glyph-name="macron" unicode="&#xaf;" horiz-adv-x="491" 
d="M711 1339l-17 -110h-553l17 110h553z" />
    <glyph glyph-name="degree" unicode="&#xb0;" horiz-adv-x="819" 
d="M602 1376q-86 0 -155 -60t-81 -146t41 -147q52 -60 138 -60q87 0 155 60t80 146q12 87 -40 147t-138 60zM532 864q-132 0 -208 86q-74 86 -56 218t116 220t231 87q132 -1 207 -87t57 -218q-19 -132 -117 -219t-230 -87z" />
    <glyph glyph-name="plusminus" unicode="&#xb1;" horiz-adv-x="1363" 
d="M174 98l16 123h1045l-16 -123h-1045zM260 711l16 123h461l45 319h123l-45 -319h461l-16 -123h-461l-43 -310h-123l43 310h-461z" />
    <glyph glyph-name="twosuperior" unicode="&#xb2;" horiz-adv-x="739" 
d="M571 1364q-61 0 -115 -33t-77 -82l-113 19q33 98 120 152t203 54q115 0 189 -58q74 -60 60 -167q-8 -61 -50 -121t-76 -95q-36 -34 -108 -91l-301 -240h465l-14 -110h-600l16 117l397 335q43 37 66 59q23 21 49 61t33 83q6 43 -38 80t-106 37z" />
    <glyph glyph-name="threesuperior" unicode="&#xb3;" horiz-adv-x="739" 
d="M291 817q31 -127 171 -127q72 0 133 45t69 101t-34 104t-165 49h-59l14 111h49q88 0 153 36q64 36 72 96t-28 96t-98 36t-104 -20t-89 -74l-86 67q113 137 289 138q116 -1 186 -61t55 -165q-10 -70 -65 -125t-131 -77v-5q88 -14 131 -72t32 -141q-16 -117 -111 -183
t-224 -66q-225 0 -275 176z" />
    <glyph glyph-name="acute" unicode="&#xb4;" horiz-adv-x="491" 
d="M717 1450l-314 -295h-120l247 295h187z" />
    <glyph glyph-name="mu" unicode="&#xb5;" 
d="M548 98q136 0 231 98t120 271l70 491h135l-107 -747q-6 -44 -11 -115t-7 -96h-145l22 156h-4q-56 -74 -156 -127t-192 -54q-139 0 -217 60l-70 -502h-135l201 1425h135l-76 -530q-26 -180 22 -255t184 -75z" />
    <glyph glyph-name="paragraph" unicode="&#xb6;" horiz-adv-x="1228" 
d="M770 1450h485l-241 -1708h-135l225 1597h-254l-225 -1597h-136l127 905q-186 0 -290 110t-82 271q27 198 168 310t358 112z" />
    <glyph glyph-name="periodcentered" unicode="&#xb7;" horiz-adv-x="569" 
d="M360 532q-46 0 -74 33t-22 78t43 78t84 33t73 -33t21 -78q-6 -45 -42 -78t-83 -33z" />
    <glyph glyph-name="cedilla" unicode="&#xb8;" horiz-adv-x="491" 
d="M306 -111q50 0 90 -42q40 -43 29 -121t-88 -124t-177 -46t-187 49l43 73q66 -36 132 -36q144 1 155 92q5 40 -24 60q-60 43 -162 -1l-33 35l152 172h83l-108 -123l2 -2q43 14 93 14z" />
    <glyph glyph-name="onesuperior" unicode="&#xb9;" horiz-adv-x="739" 
d="M666 1462l-121 -870h-123l104 747l-186 -137l-49 78l264 182h111z" />
    <glyph glyph-name="ordmasculine" unicode="&#xba;" horiz-adv-x="788" 
d="M587 1376q-89 0 -157 -60t-79 -146t39 -144q50 -59 139 -59t158 59t80 144q11 86 -40 146t-140 60zM600 1475q144 -1 226 -87q81 -86 63 -217q-19 -131 -123 -217t-248 -86t-227 86q-82 86 -64 217q17 131 123 217t250 87z" />
    <glyph glyph-name="guillemotright" unicode="&#xbb;" horiz-adv-x="987" 
d="M143 131l287 361l-186 360l106 68l228 -428l-349 -429zM516 131l287 361l-187 360l107 68l227 -428l-348 -429z" />
    <glyph glyph-name="onequarter" unicode="&#xbc;" horiz-adv-x="1708" 
d="M686 1462l-121 -870h-123l105 747l-187 -137l-49 78l264 182h111zM1374 303l62 445h-4l-340 -445h282zM412 -66l-99 66l1137 1516l96 -64zM1577 870l-80 -567h123l-16 -110h-123l-27 -193h-123l27 193h-393l18 126l444 551h150z" />
    <glyph glyph-name="onehalf" unicode="&#xbd;" horiz-adv-x="1708" 
d="M1446 772q-62 0 -116 -33t-77 -82l-112 19q35 98 122 152t203 54t188 -58q73 -60 58 -167q-8 -61 -49 -121t-77 -94t-107 -92l-299 -239h465l-17 -111h-600l16 117l398 336q223 186 109 282q-43 37 -105 37zM635 1462l-121 -870h-123l105 747l-187 -137l-49 78l264 182
h111zM360 -66l-98 66l1137 1516l96 -64z" />
    <glyph glyph-name="threequarters" unicode="&#xbe;" horiz-adv-x="1708" 
d="M487 1100q90 0 154 37q63 37 72 108q8 49 -29 84t-98 35q-62 0 -104 -20t-89 -74l-86 67q113 137 289 138q116 -1 186 -61t56 -165q-10 -70 -66 -125t-131 -77v-5q88 -14 131 -72t33 -141q-15 -117 -111 -183t-225 -66q-225 0 -272 176l112 61q31 -127 183 -127
q61 0 121 45q61 45 69 101t-34 104t-165 49h-59l14 111h49zM1415 303l62 445h-4l-340 -445h282zM494 -66l-99 66l1137 1516l96 -64zM1618 870l-80 -567h123l-16 -110h-123l-27 -193h-123l27 193h-393l18 126l444 551h150z" />
    <glyph glyph-name="questiondown" unicode="&#xbf;" horiz-adv-x="987" 
d="M592 774q-47 0 -74 33q-26 33 -20 78t42 78t83 33t75 -34q28 -32 21 -77q-6 -45 -43 -78t-84 -33zM489 485l15 105h147l-22 -170q-18 -108 -151 -219q-54 -45 -109 -90q-134 -109 -148 -223q-14 -113 43 -179q58 -65 162 -65t182 61t111 162l151 -19q-45 -158 -172 -248
q-126 -90 -292 -92q-166 0 -262 96t-73 261q24 166 128 257q104 92 161 136q109 87 129 227z" />
    <glyph glyph-name="Agrave" unicode="&#xc0;" horiz-adv-x="1404" 
d="M920 1513l-230 295h187l163 -295h-120zM883 1278l-424 -762h628zM385 381l-213 -381h-172l836 1450h143l426 -1450h-172l-107 381h-741z" />
    <glyph glyph-name="Aacute" unicode="&#xc1;" horiz-adv-x="1404" 
d="M1223 1808l-312 -295h-120l245 295h187zM883 1278l-424 -762h628zM385 381l-213 -381h-172l836 1450h143l426 -1450h-172l-107 381h-741z" />
    <glyph glyph-name="Acircumflex" unicode="&#xc2;" horiz-adv-x="1404" 
d="M1038 1808l183 -295h-136l-139 222l-201 -222h-135l264 295h164zM883 1278l-424 -762h628zM385 381l-213 -381h-172l836 1450h143l426 -1450h-172l-107 381h-741z" />
    <glyph glyph-name="Atilde" unicode="&#xc3;" horiz-adv-x="1404" 
d="M805 1751q57 0 143 -47q94 -47 131 -47q74 0 115 102h88q-70 -213 -219 -213q-45 0 -143 47q-82 47 -129 47q-78 0 -115 -102h-88q66 213 217 213zM883 1278l-424 -762h628zM385 381l-213 -381h-172l836 1450h143l426 -1450h-172l-107 381h-741z" />
    <glyph glyph-name="Adieresis" unicode="&#xc4;" horiz-adv-x="1404" 
d="M1151 1788q45 0 70 -32t19 -73t-40 -73q-35 -32 -80 -31q-46 -1 -70 31t-18 73q4 41 39 73t80 32zM758 1788q46 0 70 -32t19 -73t-40 -73t-80 -31q-45 -1 -69 31t-19 73q4 41 39 73t80 32zM883 1278l-424 -762h628zM385 381l-213 -381h-172l836 1450h143l426 -1450h-172
l-107 381h-741z" />
    <glyph glyph-name="Aring" unicode="&#xc5;" horiz-adv-x="1404" 
d="M924 1569q51 0 91 35t48 86t-24 86q-32 34 -83 34t-91 -34t-48 -86q-8 -51 24 -86t83 -35zM912 1495q-81 0 -131 56q-50 57 -38 139t78 138t147 56t131 -56t38 -138t-78 -138t-147 -57zM883 1278l-424 -762h628zM385 381l-213 -381h-172l836 1450h143l426 -1450h-172
l-107 381h-741z" />
    <glyph glyph-name="AE" unicode="&#xc6;" horiz-adv-x="1933" 
d="M598 541h524l109 774h-23zM1378 1315l-69 -494h565l-19 -135h-565l-78 -551h627l-18 -135h-774l57 406h-610l-320 -406h-174l1149 1450h852l-21 -135h-602z" />
    <glyph glyph-name="Ccedilla" unicode="&#xc7;" horiz-adv-x="1441" 
d="M848 -37q-29 0 -41 4l-80 -90l2 -2q43 14 93 14t90 -42q40 -43 29 -121t-88 -124t-177 -46t-187 49l43 73q66 -36 132 -36q144 1 155 92q5 39 -23 60q-59 44 -163 -1l-33 35l127 145q-274 41 -422 249q-147 208 -104 503q45 330 291 546t571 216q143 0 269 -57t200 -173
l-141 -96q-35 74 -135 132t-212 59q-270 0 -458 -184t-226 -443q-38 -260 100 -443q138 -184 410 -184t445 217l108 -86q-93 -117 -247 -191t-328 -75z" />
    <glyph glyph-name="Egrave" unicode="&#xc8;" horiz-adv-x="1214" 
d="M825 1513l-229 295h186l164 -295h-121zM440 686l-78 -551h777l-19 -135h-923l204 1450h899l-20 -135h-752l-69 -494h702l-18 -135h-703z" />
    <glyph glyph-name="Eacute" unicode="&#xc9;" horiz-adv-x="1214" 
d="M1128 1808l-311 -295h-121l246 295h186zM440 686l-78 -551h777l-19 -135h-923l204 1450h899l-20 -135h-752l-69 -494h702l-18 -135h-703z" />
    <glyph glyph-name="Ecircumflex" unicode="&#xca;" horiz-adv-x="1214" 
d="M944 1808l182 -295h-135l-139 222l-201 -222h-135l264 295h164zM440 686l-78 -551h777l-19 -135h-923l204 1450h899l-20 -135h-752l-69 -494h702l-18 -135h-703z" />
    <glyph glyph-name="Edieresis" unicode="&#xcb;" horiz-adv-x="1214" 
d="M1057 1788q45 0 69 -32t20 -73q-5 -41 -40 -73t-80 -31q-46 -1 -70 31t-18 73q4 41 39 73t80 32zM664 1788q46 0 70 -32t19 -73t-40 -73t-80 -31q-45 -1 -69 31t-19 73q4 41 39 73t80 32zM440 686l-78 -551h777l-19 -135h-923l204 1450h899l-20 -135h-752l-69 -494h702
l-18 -135h-703z" />
    <glyph glyph-name="Igrave" unicode="&#xcc;" horiz-adv-x="540" 
d="M487 1513l-229 295h186l164 -295h-121zM549 1450l-205 -1450h-147l204 1450h148z" />
    <glyph glyph-name="Iacute" unicode="&#xcd;" horiz-adv-x="540" 
d="M791 1808l-312 -295h-121l246 295h187zM549 1450l-205 -1450h-147l204 1450h148z" />
    <glyph glyph-name="Icircumflex" unicode="&#xce;" horiz-adv-x="540" 
d="M606 1808l182 -295h-135l-139 222l-201 -222h-135l264 295h164zM549 1450l-205 -1450h-147l204 1450h148z" />
    <glyph glyph-name="Idieresis" unicode="&#xcf;" horiz-adv-x="540" 
d="M719 1788q45 0 69 -32t20 -73q-5 -41 -40 -73t-80 -31q-46 -1 -70 31t-18 73q4 41 39 73t80 32zM326 1788q46 0 70 -32t19 -73t-40 -73t-80 -31q-45 -1 -69 31t-19 73q4 41 39 73t80 32zM549 1450l-205 -1450h-147l204 1450h148z" />
    <glyph glyph-name="Eth" unicode="&#xd0;" horiz-adv-x="1517" 
d="M629 135q313 0 506 173t226 411t-101 414q-66 84 -186 133t-279 49h-287l-70 -494h529l-15 -110h-528l-82 -576h287zM862 1450q228 0 414 -122q187 -122 238 -343q28 -121 8 -260q-33 -229 -173 -399q-139 -170 -321 -248t-371 -78h-481l100 711h-149l14 110h150l90 629
h481z" />
    <glyph glyph-name="Ntilde" unicode="&#xd1;" horiz-adv-x="1593" 
d="M899 1751q57 0 143 -47q94 -47 132 -47q74 0 114 102h88q-70 -213 -219 -213q-45 0 -143 47q-82 47 -129 47q-78 0 -115 -102h-88q66 213 217 213zM586 1450l690 -1229h4l174 1229h148l-205 -1450h-185l-690 1241h-4l-174 -1241h-147l204 1450h185z" />
    <glyph glyph-name="Ograve" unicode="&#xd2;" horiz-adv-x="1708" 
d="M1071 1513l-229 295h186l164 -295h-121zM1552 725q37 260 -100 443q-138 184 -408 184t-458 -184t-226 -443q-38 -260 100 -443q138 -184 408 -184t458 184t226 443zM848 -37q-326 0 -509 216t-138 546t291 546t572 216t509 -216q184 -216 139 -546t-292 -546
q-246 -216 -572 -216z" />
    <glyph glyph-name="Oacute" unicode="&#xd3;" horiz-adv-x="1708" 
d="M1374 1808l-311 -295h-121l246 295h186zM1552 725q37 260 -100 443q-138 184 -408 184t-458 -184t-226 -443q-38 -260 100 -443q138 -184 408 -184t458 184t226 443zM848 -37q-326 0 -509 216t-138 546t291 546t572 216t509 -216q184 -216 139 -546t-292 -546
q-246 -216 -572 -216z" />
    <glyph glyph-name="Ocircumflex" unicode="&#xd4;" horiz-adv-x="1708" 
d="M1190 1808l182 -295h-135l-139 222l-201 -222h-135l264 295h164zM1552 725q37 260 -100 443q-138 184 -408 184t-458 -184t-226 -443q-38 -260 100 -443q138 -184 408 -184t458 184t226 443zM848 -37q-326 0 -509 216t-138 546t291 546t572 216t509 -216
q184 -216 139 -546t-292 -546q-246 -216 -572 -216z" />
    <glyph glyph-name="Otilde" unicode="&#xd5;" horiz-adv-x="1708" 
d="M956 1751q58 0 148 -47t127 -47q74 0 115 102h88q-70 -213 -220 -213q-45 0 -143 47q-82 47 -129 47q-78 0 -115 -102h-88q66 213 217 213zM1552 725q37 260 -100 443q-138 184 -408 184t-458 -184t-226 -443q-38 -260 100 -443q138 -184 408 -184t458 184t226 443z
M848 -37q-326 0 -509 216t-138 546t291 546t572 216t509 -216q184 -216 139 -546t-292 -546q-246 -216 -572 -216z" />
    <glyph glyph-name="Odieresis" unicode="&#xd6;" horiz-adv-x="1708" 
d="M1303 1788q45 0 69 -32t20 -73q-5 -41 -40 -73t-80 -31q-46 -1 -70 31t-18 73q4 41 39 73t80 32zM909 1788q45 0 70 -32t19 -73t-40 -73q-36 -32 -80 -31q-44 -1 -68 31t-19 73q4 41 38 73q35 32 80 32zM1552 725q37 260 -100 443q-138 184 -408 184t-458 -184t-226 -443
q-38 -260 100 -443q138 -184 408 -184t458 184t226 443zM848 -37q-326 0 -509 216t-138 546t291 546t572 216t509 -216q184 -216 139 -546t-292 -546q-246 -216 -572 -216z" />
    <glyph glyph-name="multiply" unicode="&#xd7;" horiz-adv-x="1363" 
d="M502 1034l280 -325l369 325l76 -86l-371 -327l279 -326l-101 -88l-276 325l-373 -325l-74 88l373 326l-281 327z" />
    <glyph glyph-name="Oslash" unicode="&#xd8;" horiz-adv-x="1708" 
d="M440 311l969 903q-137 137 -365 138q-270 0 -458 -184t-224 -434q-36 -251 78 -423zM1470 1139l-968 -903q137 -137 366 -138q270 0 458 184t224 433q35 250 -80 424zM848 -37q-281 0 -459 166l-180 -166l-66 70l181 168q-168 211 -123 533t291 537q246 216 571 216
q279 0 461 -166l178 166l65 -70l-178 -168q166 -209 122 -531t-291 -539q-247 -216 -572 -216z" />
    <glyph glyph-name="Ugrave" unicode="&#xd9;" horiz-adv-x="1404" 
d="M920 1513l-230 295h187l163 -295h-120zM696 -37q-126 0 -217 37q-92 37 -138 97q-107 139 -101 291q2 79 8 153l129 909h147l-127 -893q-16 -119 1 -208q18 -89 54 -135t89 -74t93 -35t83 -7t85 7t103 35t110 74q48 46 90 135t58 208l127 893h148l-129 -909
q-21 -166 -106 -308q-49 -80 -113 -137t-166 -95t-228 -38z" />
    <glyph glyph-name="Uacute" unicode="&#xda;" horiz-adv-x="1404" 
d="M1223 1808l-312 -295h-120l245 295h187zM696 -37q-126 0 -217 37q-92 37 -138 97q-107 139 -101 291q2 79 8 153l129 909h147l-127 -893q-16 -119 1 -208q18 -89 54 -135t89 -74t93 -35t83 -7t85 7t103 35t110 74q48 46 90 135t58 208l127 893h148l-129 -909
q-21 -166 -106 -308q-49 -80 -113 -137t-166 -95t-228 -38z" />
    <glyph glyph-name="Ucircumflex" unicode="&#xdb;" horiz-adv-x="1404" 
d="M1038 1808l183 -295h-136l-139 222l-201 -222h-135l264 295h164zM696 -37q-126 0 -217 37q-92 37 -138 97q-107 139 -101 291q2 79 8 153l129 909h147l-127 -893q-16 -119 1 -208q18 -89 54 -135t89 -74t93 -35t83 -7t85 7t103 35t110 74q48 46 90 135t58 208l127 893
h148l-129 -909q-21 -166 -106 -308q-49 -80 -113 -137t-166 -95t-228 -38z" />
    <glyph glyph-name="Udieresis" unicode="&#xdc;" horiz-adv-x="1404" 
d="M1151 1788q45 0 70 -32t19 -73t-40 -73q-35 -32 -80 -31q-46 -1 -70 31t-18 73q4 41 39 73t80 32zM758 1788q46 0 70 -32t19 -73t-40 -73t-80 -31q-45 -1 -69 31t-19 73q4 41 39 73t80 32zM696 -37q-126 0 -217 37q-92 37 -138 97q-107 139 -101 291q2 79 8 153l129 909
h147l-127 -893q-16 -119 1 -208q18 -89 54 -135t89 -74t93 -35t83 -7t85 7t103 35t110 74q48 46 90 135t58 208l127 893h148l-129 -909q-21 -166 -106 -308q-49 -80 -113 -137t-166 -95t-228 -38z" />
    <glyph glyph-name="Yacute" unicode="&#xdd;" horiz-adv-x="1175" 
d="M1108 1808l-311 -295h-121l246 295h186zM750 625l-88 -625h-148l88 625l-426 825h184l336 -684l529 684h184z" />
    <glyph glyph-name="Thorn" unicode="&#xde;" horiz-adv-x="1175" 
d="M651 489q136 0 238 38q127 50 153 224q25 174 -133 223q-69 21 -188 21h-238l-69 -506h237zM831 1130q187 0 291 -99t78 -289t-158 -288q-131 -99 -321 -100h-328l-49 -354h-147l204 1450h148l-45 -320h327z" />
    <glyph glyph-name="germandbls" unicode="&#xdf;" horiz-adv-x="1214" 
d="M825 1573q169 0 267 -97t73 -266q-33 -240 -282 -325l-2 -4q171 -15 243 -135t47 -289q-31 -217 -183 -349t-370 -133q-66 0 -116 17l16 117q41 -10 98 -11q164 0 275 96t135 272q24 175 -70 263q-96 88 -292 88l18 123q135 0 225 60q89 60 107 186t-43 194
q-61 70 -170 70q-150 0 -234 -98t-102 -226l-158 -1126h-135l156 1114q29 203 148 331q120 128 349 128z" />
    <glyph glyph-name="agrave" unicode="&#xe0;" horiz-adv-x="1062" 
d="M698 1155l-227 295h186l162 -295h-121zM760 477q-446 0 -475 -203q-12 -88 48 -132t152 -44q141 0 228 87q86 87 106 223l10 69h-69zM776 588h68l4 24q33 248 -211 248q-168 0 -309 -112l-68 96q156 139 424 139q152 0 239 -87t64 -253l-59 -428q-14 -102 -15 -215h-131
q-4 72 11 156h-5q-137 -180 -364 -181q-137 0 -222 74t-67 207q13 88 63 154t113 98q154 80 465 80z" />
    <glyph glyph-name="aacute" unicode="&#xe1;" horiz-adv-x="1062" 
d="M1004 1450l-314 -295h-121l248 295h187zM760 477q-446 0 -475 -203q-12 -88 48 -132t152 -44q141 0 228 87q86 87 106 223l10 69h-69zM776 588h68l4 24q33 248 -211 248q-168 0 -309 -112l-68 96q156 139 424 139q152 0 239 -87t64 -253l-59 -428q-14 -102 -15 -215h-131
q-4 72 11 156h-5q-137 -180 -364 -181q-137 0 -222 74t-67 207q13 88 63 154t113 98q154 80 465 80z" />
    <glyph glyph-name="acircumflex" unicode="&#xe2;" horiz-adv-x="1062" 
d="M819 1450l180 -295h-135l-139 221l-201 -221h-135l266 295h164zM760 477q-446 0 -475 -203q-12 -88 48 -132t152 -44q141 0 228 87q86 87 106 223l10 69h-69zM776 588h68l4 24q33 248 -211 248q-168 0 -309 -112l-68 96q156 139 424 139q152 0 239 -87t64 -253l-59 -428
q-14 -102 -15 -215h-131q-4 72 11 156h-5q-137 -180 -364 -181q-137 0 -222 74t-67 207q13 88 63 154t113 98q154 80 465 80z" />
    <glyph glyph-name="atilde" unicode="&#xe3;" horiz-adv-x="1062" 
d="M586 1393q55 0 141 -47q98 -47 131 -48q78 0 115 103h88q-66 -213 -217 -213q-49 0 -144 47q-86 47 -131 47q-77 0 -114 -102h-88q66 213 219 213zM760 477q-446 0 -475 -203q-12 -88 48 -132t152 -44q141 0 228 87q86 87 106 223l10 69h-69zM776 588h68l4 24
q33 248 -211 248q-168 0 -309 -112l-68 96q156 139 424 139q152 0 239 -87t64 -253l-59 -428q-14 -102 -15 -215h-131q-4 72 11 156h-5q-137 -180 -364 -181q-137 0 -222 74t-67 207q13 88 63 154t113 98q154 80 465 80z" />
    <glyph glyph-name="adieresis" unicode="&#xe4;" horiz-adv-x="1062" 
d="M930 1430q44 0 70 -32t20 -73t-40 -73t-79 -32t-71 32q-25 32 -19 73t40 73t79 32zM537 1430q45 0 71 -32t19 -73q-6 -41 -40 -73t-79 -32t-71 32q-25 32 -19 73t40 73t79 32zM760 477q-446 0 -475 -203q-12 -88 48 -132t152 -44q141 0 228 87q86 87 106 223l10 69h-69z
M776 588h68l4 24q33 248 -211 248q-168 0 -309 -112l-68 96q156 139 424 139q152 0 239 -87t64 -253l-59 -428q-14 -102 -15 -215h-131q-4 72 11 156h-5q-137 -180 -364 -181q-137 0 -222 74t-67 207q13 88 63 154t113 98q154 80 465 80z" />
    <glyph glyph-name="aring" unicode="&#xe5;" horiz-adv-x="1062" 
d="M737 1452q-51 0 -92 -35t-48 -86t24 -86t81 -35t93 35q41 35 47 86q8 51 -23 86t-82 35zM693 1137q-81 0 -131 56t-40 138q12 82 79 138q67 57 147 57t130 -56t38 -139q-10 -82 -76 -138t-147 -56zM760 477q-446 0 -475 -203q-12 -88 48 -132t152 -44q141 0 228 87
q86 87 106 223l10 69h-69zM776 588h68l4 24q33 248 -211 248q-168 0 -309 -112l-68 96q156 139 424 139q152 0 239 -87t64 -253l-59 -428q-14 -102 -15 -215h-131q-4 72 11 156h-5q-137 -180 -364 -181q-137 0 -222 74t-67 207q13 88 63 154t113 98q154 80 465 80z" />
    <glyph glyph-name="ae" unicode="&#xe6;" horiz-adv-x="1744" 
d="M1342 860q-128 0 -223 -88t-113 -219h583q18 135 -50 221q-69 86 -197 86zM573 442q-104 0 -190 -40t-98 -128t48 -132t152 -44q145 0 248 94t121 250h-281zM1208 -25q-116 1 -204 57t-121 167q-88 -119 -197 -171t-254 -52t-230 73q-85 74 -67 207q41 297 508 297h227
l9 59q21 185 -144 237q-35 11 -67 11q-170 0 -308 -115l-69 99q170 139 399 139q109 0 190 -52t103 -132q57 84 159 134t208 50q205 -2 301 -135t67 -344l-10 -62h-719l-2 -18q-18 -135 45 -230q64 -96 184 -96t192 41t134 115l96 -84q-180 -195 -430 -195z" />
    <glyph glyph-name="ccedilla" unicode="&#xe7;" horiz-adv-x="987" 
d="M594 -111q50 0 90 -42q40 -43 30 -121q-11 -78 -88 -124t-177 -46t-187 49l43 73q63 -36 130 -36q145 1 157 92q5 40 -24 60q-60 43 -162 -1l-33 35l137 156q-188 27 -281 162q-92 136 -62 345t188 352q159 142 380 139t336 -165l-123 -84q-27 55 -86 91t-135 36
q-165 2 -277 -106t-137 -275t59 -275t249 -106q77 0 145 36t111 91l100 -84q-162 -162 -375 -166q-12 0 -14 2l-88 -100l2 -2q42 14 92 14z" />
    <glyph glyph-name="egrave" unicode="&#xe8;" 
d="M735 1155l-227 295h186l162 -295h-121zM708 860q-138 0 -252 -94q-116 -94 -132 -213h647q18 139 -53 223q-72 84 -210 84zM590 -25q-213 -1 -334 143t-90 360t189 361q159 144 367 143t313 -138t77 -340l-10 -62h-799q-8 -145 78 -244t227 -100q100 0 188 48t142 118
l92 -86q-188 -203 -440 -203z" />
    <glyph glyph-name="eacute" unicode="&#xe9;" 
d="M1040 1450l-313 -295h-121l248 295h186zM708 860q-138 0 -252 -94q-116 -94 -132 -213h647q18 139 -53 223q-72 84 -210 84zM590 -25q-213 -1 -334 143t-90 360t189 361q159 144 367 143t313 -138t77 -340l-10 -62h-799q-8 -145 78 -244t227 -100q100 0 188 48t142 118
l92 -86q-188 -203 -440 -203z" />
    <glyph glyph-name="ecircumflex" unicode="&#xea;" 
d="M856 1450l180 -295h-135l-139 221l-201 -221h-135l266 295h164zM708 860q-138 0 -252 -94q-116 -94 -132 -213h647q18 139 -53 223q-72 84 -210 84zM590 -25q-213 -1 -334 143t-90 360t189 361q159 144 367 143t313 -138t77 -340l-10 -62h-799q-8 -145 78 -244t227 -100
q100 0 188 48t142 118l92 -86q-188 -203 -440 -203z" />
    <glyph glyph-name="edieresis" unicode="&#xeb;" 
d="M967 1430q45 0 71 -32t19 -73q-6 -41 -40 -73t-79 -32t-71 32q-25 32 -19 73t40 73t79 32zM574 1430q44 0 70 -32t20 -73t-40 -73t-79 -32t-71 32q-25 32 -19 73t40 73q35 32 79 32zM708 860q-138 0 -252 -94q-116 -94 -132 -213h647q18 139 -53 223q-72 84 -210 84z
M590 -25q-213 -1 -334 143t-90 360t189 361q159 144 367 143t313 -138t77 -340l-10 -62h-799q-8 -145 78 -244t227 -100q100 0 188 48t142 118l92 -86q-188 -203 -440 -203z" />
    <glyph glyph-name="igrave" unicode="&#xec;" horiz-adv-x="491" 
d="M412 1155l-228 295h187l161 -295h-120zM449 958l-136 -958h-135l135 958h136z" />
    <glyph glyph-name="iacute" unicode="&#xed;" horiz-adv-x="491" 
d="M717 1450l-314 -295h-120l247 295h187zM449 958l-136 -958h-135l135 958h136z" />
    <glyph glyph-name="icircumflex" unicode="&#xee;" horiz-adv-x="491" 
d="M532 1450l181 -295h-135l-140 221l-200 -221h-136l267 295h163zM449 958l-136 -958h-135l135 958h136z" />
    <glyph glyph-name="idieresis" unicode="&#xef;" horiz-adv-x="491" 
d="M643 1430q45 0 71 -32t20 -73t-41 -73q-34 -32 -79 -32q-44 0 -70 32t-20 73t40 73t79 32zM250 1430q45 0 71 -32q25 -32 19 -73t-40 -73t-79 -32t-71 32t-19 73q6 41 40 73t79 32zM449 958l-136 -958h-135l135 958h136z" />
    <glyph glyph-name="eth" unicode="&#xf0;" horiz-adv-x="1214" 
d="M743 983q166 0 291 -119l6 4q-98 248 -268 418l-242 -117l-63 74l238 115q-88 96 -173 162l134 75q113 -102 176 -170l223 109l72 -72l-226 -110q170 -197 242 -398t40 -418t-162 -379q-67 -83 -177 -132t-252 -50q-221 -1 -344 143t-92 361t193 361q163 143 384 143z
M621 98q163 0 277 108t138 272t-61 274q-84 108 -247 108q-164 0 -278 -108t-137 -273t61 -273t247 -108z" />
    <glyph glyph-name="ntilde" unicode="&#xf1;" 
d="M623 1393q55 0 141 -47q98 -47 131 -48q78 0 115 103h88q-66 -213 -217 -213q-49 0 -144 47q-86 47 -131 47q-77 0 -114 -102h-89q66 213 220 213zM745 983q180 0 257 -97t53 -278l-86 -608h-135l73 530q25 168 -21 249t-192 81q-50 0 -109 -26q-58 -26 -101 -61
q-42 -35 -80 -109t-52 -172l-69 -492h-136l105 748q4 26 20 210h140q-2 -68 -17 -153h4q55 78 153 128t193 50z" />
    <glyph glyph-name="ograve" unicode="&#xf2;" horiz-adv-x="1214" 
d="M774 1155l-227 295h186l162 -295h-121zM621 98q164 0 277 108t137 272q24 165 -60 274q-84 108 -247 108q-164 0 -278 -108t-137 -273t61 -273t247 -108zM744 983q222 0 347 -143q124 -144 93 -361t-195 -360t-386 -143t-345 142q-123 144 -92 361t193 361
q163 143 385 143z" />
    <glyph glyph-name="oacute" unicode="&#xf3;" horiz-adv-x="1214" 
d="M1079 1450l-313 -295h-121l248 295h186zM621 98q164 0 277 108t137 272q24 165 -60 274q-84 108 -247 108q-164 0 -278 -108t-137 -273t61 -273t247 -108zM744 983q222 0 347 -143q124 -144 93 -361t-195 -360t-386 -143t-345 142q-123 144 -92 361t193 361
q163 143 385 143z" />
    <glyph glyph-name="ocircumflex" unicode="&#xf4;" horiz-adv-x="1214" 
d="M895 1450l180 -295h-135l-139 221l-201 -221h-135l266 295h164zM621 98q164 0 277 108t137 272q24 165 -60 274q-84 108 -247 108q-164 0 -278 -108t-137 -273t61 -273t247 -108zM744 983q222 0 347 -143q124 -144 93 -361t-195 -360t-386 -143t-345 142
q-123 144 -92 361t193 361q163 143 385 143z" />
    <glyph glyph-name="otilde" unicode="&#xf5;" horiz-adv-x="1214" 
d="M662 1393q55 0 141 -47q98 -47 131 -48q78 0 115 103h88q-66 -213 -217 -213q-49 0 -144 47q-86 47 -131 47q-78 0 -115 -102h-88q66 213 220 213zM621 98q164 0 277 108t137 272q24 165 -60 274q-84 108 -247 108q-164 0 -278 -108t-137 -273t61 -273t247 -108zM744 983
q222 0 347 -143q124 -144 93 -361t-195 -360t-386 -143t-345 142q-123 144 -92 361t193 361q163 143 385 143z" />
    <glyph glyph-name="odieresis" unicode="&#xf6;" horiz-adv-x="1214" 
d="M1006 1430q44 0 70 -32t20 -73t-40 -73t-79 -32t-71 32q-25 32 -19 73t40 73t79 32zM612 1430q44 0 71 -32q25 -32 19 -73t-40 -73t-78 -32q-45 0 -71 32q-25 32 -19 73t40 73t78 32zM621 98q164 0 277 108t137 272q24 165 -60 274q-84 108 -247 108q-164 0 -278 -108
t-137 -273t61 -273t247 -108zM744 983q222 0 347 -143q124 -144 93 -361t-195 -360t-386 -143t-345 142q-123 144 -92 361t193 361q163 143 385 143z" />
    <glyph glyph-name="divide" unicode="&#xf7;" horiz-adv-x="1363" 
d="M707 178q-47 0 -74 33t-21 78t42 78t83 33t75 -34q28 -32 22 -77t-43 -78t-84 -33zM832 1063q46 0 73 -33t21 -78t-42 -78q-36 -32 -83 -32t-75 32t-21 78q6 45 43 78q38 33 84 33zM1300 682l-18 -123h-1044l18 123h1044z" />
    <glyph glyph-name="oslash" unicode="&#xf8;" horiz-adv-x="1214" 
d="M726 983q204 0 329 -106l155 139l56 -64l-154 -139q98 -135 70 -343t-193 -351q-163 -143 -369 -143t-323 106l-158 -139l-57 63l156 139q-98 137 -70 344t191 351q163 143 367 143zM714 860q-150 0 -264 -108t-134 -260t34 -246l598 534q-84 80 -234 80zM635 98
q149 0 263 108t135 256t-34 251l-598 -537q84 -78 234 -78z" />
    <glyph glyph-name="ugrave" unicode="&#xf9;" 
d="M735 1155l-227 295h186l162 -295h-121zM557 98q50 0 109 26t101 62t80 109q38 74 52 172l70 491h135l-107 -747q-2 -23 -5 -59t-7 -81q-4 -46 -6 -71h-139q2 68 16 154h-4q-56 -78 -154 -128t-194 -51q-358 0 -307 375l86 608h135l-76 -530q-22 -168 24 -249t191 -81z
" />
    <glyph glyph-name="uacute" unicode="&#xfa;" 
d="M1040 1450l-313 -295h-121l248 295h186zM557 98q50 0 109 26t101 62t80 109q38 74 52 172l70 491h135l-107 -747q-2 -23 -5 -59t-7 -81q-4 -46 -6 -71h-139q2 68 16 154h-4q-56 -78 -154 -128t-194 -51q-358 0 -307 375l86 608h135l-76 -530q-22 -168 24 -249t191 -81z
" />
    <glyph glyph-name="ucircumflex" unicode="&#xfb;" 
d="M856 1450l180 -295h-135l-139 221l-201 -221h-135l266 295h164zM557 98q50 0 109 26t101 62t80 109q38 74 52 172l70 491h135l-107 -747q-2 -23 -5 -59t-7 -81q-4 -46 -6 -71h-139q2 68 16 154h-4q-56 -78 -154 -128t-194 -51q-358 0 -307 375l86 608h135l-76 -530
q-22 -168 24 -249t191 -81z" />
    <glyph glyph-name="udieresis" unicode="&#xfc;" 
d="M967 1430q45 0 71 -32t19 -73q-6 -41 -40 -73t-79 -32t-71 32q-25 32 -19 73t40 73t79 32zM574 1430q44 0 70 -32t20 -73t-40 -73t-79 -32t-71 32q-25 32 -19 73t40 73q35 32 79 32zM557 98q50 0 109 26t101 62t80 109q38 74 52 172l70 491h135l-107 -747q-2 -23 -5 -59
t-7 -81q-4 -46 -6 -71h-139q2 68 16 154h-4q-56 -78 -154 -128t-194 -51q-358 0 -307 375l86 608h135l-76 -530q-22 -168 24 -249t191 -81z" />
    <glyph glyph-name="yacute" unicode="&#xfd;" horiz-adv-x="987" 
d="M965 1450l-314 -295h-121l248 295h187zM124 -369q65 0 112 42t94 130l94 185l-256 970h170l188 -792l406 792h164l-650 -1208q-125 -242 -316 -242q-97 0 -142 15l32 131q39 -23 104 -23z" />
    <glyph glyph-name="thorn" unicode="&#xfe;" horiz-adv-x="1251" 
d="M670 98q168 0 282 108t137 272q23 165 -61 274q-84 108 -249 108t-289 -110t-146 -272q-22 -164 68 -272t258 -108zM796 983q224 0 348 -143q124 -142 93 -360t-195 -361t-387 -144q-104 -1 -200 47t-146 138h-4l-88 -627h-135l283 2015h135l-107 -768h4q175 203 399 203
z" />
    <glyph glyph-name="ydieresis" unicode="&#xff;" horiz-adv-x="987" 
d="M891 1430q45 0 71 -32t20 -73t-41 -73q-34 -32 -79 -32q-44 0 -70 32t-20 73t40 73t79 32zM498 1430q44 0 70 -32t20 -73t-40 -73t-79 -32t-71 32q-25 32 -19 73t40 73t79 32zM124 -369q65 0 112 42t94 130l94 185l-256 970h170l188 -792l406 792h164l-650 -1208
q-125 -242 -316 -242q-97 0 -142 15l32 131q39 -23 104 -23z" />
    <glyph glyph-name="dotlessi" unicode="&#x131;" horiz-adv-x="491" 
d="M449 958l-136 -958h-135l135 958h136z" />
    <glyph glyph-name="Lslash" unicode="&#x141;" horiz-adv-x="1024" 
d="M549 1450l-100 -709l495 381l-20 -143l-496 -381l-66 -463h676l-18 -135h-823l65 471l-188 -143l20 143l189 143l118 836h148z" />
    <glyph glyph-name="lslash" unicode="&#x142;" horiz-adv-x="491" 
d="M530 1548l-86 -610l191 172l-21 -149l-190 -170l-111 -791h-135l92 649l-190 -170l20 150l191 168l104 751h135z" />
    <glyph glyph-name="OE" unicode="&#x152;" horiz-adv-x="1933" 
d="M1133 1315q-293 0 -498 -156t-246 -438q-2 -37 -6 -100t39 -188q43 -126 169 -212q127 -86 347 -86h145l166 1180h-116zM924 0q-168 0 -300 45t-208 120t-127 171t-59 195q-7 99 1 196q25 176 113 317q88 140 214 228q256 178 566 178h895l-20 -135h-602l-70 -494h578
l-19 -135h-577l-78 -551h627l-19 -135h-915z" />
    <glyph glyph-name="oe" unicode="&#x153;" horiz-adv-x="1888" 
d="M1486 860q-128 0 -224 -88t-113 -219h584q18 135 -51 221q-68 86 -196 86zM604 98q154 0 259 110t128 271q23 162 -52 272q-75 109 -228 109t-265 -108q-112 -109 -134 -272q-22 -162 58 -272t234 -110zM1352 -25q-121 -1 -211 55t-131 163q-88 -109 -208 -163t-222 -55
q-217 1 -331 143t-83 360t189 362q159 143 366 143q125 0 226 -53t151 -162q170 215 385 214t311 -134t68 -344l-11 -62h-718q-25 -148 41 -245q65 -99 185 -99q119 0 191 41t136 115l96 -84q-180 -195 -430 -195z" />
    <glyph glyph-name="Scaron" unicode="&#x160;" 
d="M1128 1808l-264 -295h-164l-182 295h135l140 -221l200 221h135zM553 -37q-299 0 -426 215l147 96q37 -82 116 -129t194 -47t221 72t123 192q12 82 -22 140t-94 89q-60 33 -136 57t-152 54t-135 71q-59 42 -90 118q-31 77 -13 197t100 216q157 182 419 183q262 0 391 -176
l-143 -101q-74 141 -260 142q-127 0 -229 -68t-119 -206q-18 -138 118 -209q61 -31 136 -57t151 -56t135 -73q59 -42 89 -118t16 -182q-27 -188 -190 -304t-347 -116z" />
    <glyph glyph-name="scaron" unicode="&#x161;" horiz-adv-x="872" 
d="M946 1450l-266 -295h-164l-180 295h135l137 -221l203 221h135zM569 860q-81 0 -145 -36t-73 -103t30 -100t137 -56l133 -33q98 -25 155 -94q56 -70 42 -168q-24 -147 -142 -221t-274 -74q-244 0 -342 187l129 80q72 -143 232 -144q91 0 163 41t82 113t-32 104t-127 56
l-127 30q-238 61 -209 252q18 141 132 215t261 74q236 0 297 -172l-133 -80q-47 129 -189 129z" />
    <glyph glyph-name="Ydieresis" unicode="&#x178;" horiz-adv-x="1175" 
d="M1036 1788q45 0 70 -32q26 -32 20 -73t-41 -73t-79 -31q-44 -1 -70 31q-24 32 -18 73q4 41 38 73q35 32 80 32zM643 1788q45 0 70 -32t19 -73t-40 -73q-35 -32 -80 -31q-46 -1 -70 31t-18 73q4 41 39 73t80 32zM750 625l-88 -625h-148l88 625l-426 825h184l336 -684
l529 684h184z" />
    <glyph glyph-name="Zcaron" unicode="&#x17d;" 
d="M1128 1808l-264 -295h-164l-182 295h135l140 -221l200 221h135zM1284 1450l-18 -123l-1014 -1192h858l-18 -135h-1045l16 123l1016 1192h-835l20 135h1020z" />
    <glyph glyph-name="zcaron" unicode="&#x17e;" horiz-adv-x="872" 
d="M946 1450l-266 -295h-164l-180 295h135l137 -221l203 221h135zM940 958l-14 -98l-666 -737h582l-17 -123h-778l14 98l664 738h-532l18 122h729z" />
    <glyph glyph-name="florin" unicode="&#x192;" 
d="M161 -162q75 0 120 58t75 159l226 693h-222l17 110h244l96 295q106 322 356 322q109 0 187 -60l-84 -98q-53 35 -111 35q-145 0 -219 -238l-80 -256h221l-16 -110h-244l-238 -721q-104 -311 -362 -312q-102 0 -160 49l80 99q39 -25 114 -25z" />
    <glyph glyph-name="circumflex" unicode="&#x2c6;" horiz-adv-x="491" 
d="M532 1450l181 -295h-135l-140 221l-200 -221h-136l267 295h163z" />
    <glyph glyph-name="caron" unicode="&#x2c7;" horiz-adv-x="491" 
d="M756 1450l-267 -295h-163l-181 295h136l137 -221l203 221h135z" />
    <glyph glyph-name="uni02C9" unicode="&#x2c9;" horiz-adv-x="491" 
d="M711 1339l-17 -110h-553l17 110h553z" />
    <glyph glyph-name="breve" unicode="&#x2d8;" horiz-adv-x="491" 
d="M428 1290q80 0 144 41t90 119h90q-27 -125 -120 -198q-93 -72 -221 -72t-200 72t-61 198h90q2 -76 55 -118t133 -42z" />
    <glyph glyph-name="dotaccent" unicode="&#x2d9;" horiz-adv-x="491" 
d="M451 1450q45 0 69 -32t20 -72q-5 -40 -40 -73q-35 -32 -80 -32t-70 32q-24 32 -20 73q6 40 41 72t80 32z" />
    <glyph glyph-name="ring" unicode="&#x2da;" horiz-adv-x="491" 
d="M450 1452q-50 0 -92 -35t-48 -86q-7 -51 24 -86t82 -35t92 35t47 86q8 51 -23 86q-32 35 -82 35zM406 1137q-80 0 -131 56q-50 56 -39 138q12 82 78 138q67 57 147 57t130 -56t39 -139q-11 -82 -77 -138q-67 -56 -147 -56z" />
    <glyph glyph-name="ogonek" unicode="&#x2db;" horiz-adv-x="491" 
d="M249 -334q52 0 101 45l29 -82q-91 -73 -181 -73t-138 49t-37 125q20 137 223 282h98q-96 -84 -141 -138t-51 -104t20 -76q26 -28 77 -28z" />
    <glyph glyph-name="tilde" unicode="&#x2dc;" horiz-adv-x="491" 
d="M299 1393q55 0 141 -47q98 -47 131 -48q78 0 115 103h88q-66 -213 -217 -213q-49 0 -143 47q-86 47 -131 47q-78 0 -115 -102h-88q66 213 219 213z" />
    <glyph glyph-name="hungarumlaut" unicode="&#x2dd;" horiz-adv-x="491" 
d="M852 1450l-313 -295h-121l248 295h186zM442 1450l-315 -295h-121l250 295h186z" />
    <glyph glyph-name="uni03A9" unicode="&#x3a9;" horiz-adv-x="1478" 
d="M432 113v6q-109 109 -164 277t-26 376q43 305 245 500q203 194 466 194t402 -199q138 -200 99 -485q-30 -215 -138 -389t-241 -274v-6h314l-17 -113h-483l12 84q147 90 263 265t149 409q45 323 -137 500q-96 93 -242 94q-213 0 -368 -172t-189 -426q-33 -220 36 -402
t187 -268l-12 -84h-484l17 113h311z" />
    <glyph glyph-name="uni03BC" unicode="&#x3bc;" 
d="M548 98q136 0 231 98t120 271l70 491h135l-107 -747q-6 -44 -11 -115t-7 -96h-145l22 156h-4q-56 -74 -156 -127t-192 -54q-139 0 -217 60l-70 -502h-135l201 1425h135l-76 -530q-26 -180 22 -255t184 -75z" />
    <glyph glyph-name="pi" unicode="&#x3c0;" horiz-adv-x="1159" 
d="M461 1073h809l-33 -119h-170l-90 -651q-27 -184 -12 -303h-131q-27 61 6 289l92 665h-387q-41 -225 -127 -521t-160 -433h-133q80 158 163 444t122 510q-162 0 -236 -26l-10 92q96 53 297 53z" />
    <glyph glyph-name="uni2010" unicode="&#x2010;" horiz-adv-x="681" 
d="M682 559l-18 -135h-527l19 135h526z" />
    <glyph glyph-name="endash" unicode="&#x2013;" horiz-adv-x="1024" 
d="M1102 559l-19 -135h-1024l19 135h1024z" />
    <glyph glyph-name="emdash" unicode="&#x2014;" horiz-adv-x="2048" 
d="M2126 559l-19 -135h-2048l19 135h2048z" />
    <glyph glyph-name="quoteleft" unicode="&#x2018;" horiz-adv-x="532" 
d="M250 969l235 481h138l-207 -481h-166z" />
    <glyph glyph-name="quoteright" unicode="&#x2019;" horiz-adv-x="532" 
d="M623 1450l-236 -481h-137l207 481h166z" />
    <glyph glyph-name="quotesinglbase" unicode="&#x201a;" horiz-adv-x="532" 
d="M444 195l-233 -482h-137l205 482h165z" />
    <glyph glyph-name="quotedblleft" unicode="&#x201c;" horiz-adv-x="1062" 
d="M700 969l236 481h137l-207 -481h-166zM330 969l235 481h137l-206 -481h-166z" />
    <glyph glyph-name="quotedblright" unicode="&#x201d;" horiz-adv-x="1062" 
d="M702 1450l-235 -481h-137l207 481h165zM1073 1450l-235 -481h-138l207 481h166z" />
    <glyph glyph-name="quotedblbase" unicode="&#x201e;" horiz-adv-x="1062" 
d="M524 195l-233 -482h-137l204 482h166zM895 195l-233 -482h-138l205 482h166z" />
    <glyph glyph-name="dagger" unicode="&#x2020;" 
d="M842 1450l-60 -418h418l-18 -123h-418l-164 -1167h-135l164 1167h-418l18 123h418l60 418h135z" />
    <glyph glyph-name="daggerdbl" unicode="&#x2021;" 
d="M842 1450l-56 -393h400l-19 -123h-399l-94 -676h399l-18 -123h-400l-55 -393h-135l55 393h-399l18 123h400l94 676h-400l19 123h399l56 393h135z" />
    <glyph glyph-name="bullet" unicode="&#x2022;" horiz-adv-x="1024" 
d="M667 1087q151 0 241 -106t68 -257t-142 -256q-120 -106 -272 -106q-150 0 -240 106t-68 258q22 151 141 256q121 105 272 105z" />
    <glyph glyph-name="ellipsis" unicode="&#x2026;" horiz-adv-x="2048" 
d="M1735 209q47 0 75 -33t21 -78q-6 -45 -43 -78q-37 -32 -84 -32t-74 32t-20 78q6 45 42 78t83 33zM1053 209q47 0 75 -33t21 -78q-6 -45 -43 -78q-37 -32 -84 -32t-74 32t-20 78q6 45 42 78t83 33zM371 209q47 0 75 -33t21 -78q-6 -45 -43 -78q-37 -32 -84 -32t-74 32
t-20 78q6 45 42 78t83 33z" />
    <glyph glyph-name="perthousand" unicode="&#x2030;" horiz-adv-x="2048" 
d="M1382 1458l-1134 -1521l-101 55l1139 1521zM1696 86q84 0 152 60t79 145q12 84 -39 144q-51 61 -135 61q-83 0 -151 -60t-80 -145t39 -145t135 -60zM1769 606q129 0 208 -93t61 -222t-124 -222t-234 -93q-130 0 -209 92q-79 94 -60 223q17 129 123 222t235 93zM979 86
q83 0 151 60t80 145q12 84 -39 144q-51 61 -135 61t-152 -60t-79 -145q-12 -85 39 -145t135 -60zM1052 606q130 0 208 -93t61 -222t-123 -222t-235 -93t-208 92q-79 94 -61 223t124 222q104 93 234 93zM557 1364q-84 0 -153 -60q-70 -60 -80 -144t40 -145t134 -61t152 60
t81 145q10 85 -40 145t-134 60zM484 844q-130 0 -209 93t-60 222q17 129 121 222t234 93t209 -92q79 -94 62 -223t-123 -222q-104 -93 -234 -93z" />
    <glyph glyph-name="guilsinglleft" unicode="&#x2039;" horiz-adv-x="645" 
d="M338 492l184 -361l-106 -68l-226 429l347 428l86 -68z" />
    <glyph glyph-name="guilsinglright" unicode="&#x203a;" horiz-adv-x="645" 
d="M446 492l-186 360l107 68l227 -428l-348 -429l-86 68z" />
    <glyph glyph-name="fraction" unicode="&#x2044;" horiz-adv-x="344" 
d="M-244 -66l-98 66l1137 1516l96 -64z" />
    <glyph glyph-name="Euro" unicode="&#x20ac;" 
d="M932 1346q-305 0 -432 -373h579l-51 -115h-563q-27 -144 -33 -197t-8 -71h491l-51 -113h-442q10 -379 295 -379q81 0 155 37t119 94l86 -69q-68 -90 -174 -137t-223 -48q-211 1 -310 135t-102 367h-153l55 113h100q13 129 41 268h-141l57 115h117q84 250 244 376t364 126
q84 -1 171 -25t134 -57l-61 -127q-96 80 -264 80z" />
    <glyph glyph-name="afii61289" unicode="&#x2113;" horiz-adv-x="985" 
d="M739 1489q-70 0 -135 -91t-94 -284l-66 -477q381 362 416 623q35 229 -121 229zM559 -14q-165 0 -231 110t-49 279l4 28q-17 -12 -63 -46t-70 -52l-35 80q156 119 184 143l82 574q35 260 140 376t231 116t175 -93q50 -92 31 -237q-49 -344 -534 -766l-8 -66
q-23 -172 30 -255q52 -83 148 -83t178 60t137 143l60 -57q-170 -254 -410 -254z" />
    <glyph glyph-name="trademark" unicode="&#x2122;" horiz-adv-x="2048" 
d="M2105 1450l-118 -844h-123l98 709h-4l-383 -709h-80l-186 709h-4l-99 -709h-123l119 844h191l172 -647l356 647h184zM1026 1450l-16 -111h-273l-102 -733h-123l102 733h-278l16 111h674z" />
    <glyph glyph-name="Omega" unicode="&#x2126;" horiz-adv-x="1478" 
d="M432 113v6q-109 109 -164 277t-26 376q43 305 245 500q203 194 466 194t402 -199q138 -200 99 -485q-30 -215 -138 -389t-241 -274v-6h314l-17 -113h-483l12 84q147 90 263 265t149 409q45 323 -137 500q-96 93 -242 94q-213 0 -368 -172t-189 -426q-33 -220 36 -402
t187 -268l-12 -84h-484l17 113h311z" />
    <glyph glyph-name="estimated" unicode="&#x212e;" horiz-adv-x="2015" 
d="M1636 758v409q0 29 -18 50q-217 213 -508 213t-506 -220q-20 -20 -20 -51v-401q0 -14 10 -15h1034q8 1 8 15zM1944 705h-1350q-10 0 -10 -11v-407q0 -25 18 -47q215 -221 510 -222q158 0 297 67t240 181h118q-113 -133 -285 -211t-372 -78q-344 -1 -588 219t-243 529
q0 309 243 529q244 220 589 220t589 -218q244 -220 244 -531v-20z" />
    <glyph glyph-name="partialdiff" unicode="&#x2202;" horiz-adv-x="1112" 
d="M504 98h2q143 0 263 158t173 385q-16 84 -89 159q-73 74 -195 74t-233 -122q-113 -122 -135 -286t36 -266t178 -102zM732 1620q202 0 323 -202t67 -580t-223 -616q-170 -239 -424 -238q-184 0 -267 140t-56 335q35 233 184 380q150 146 328 146q128 -1 208 -67t107 -136
h2q2 12 5 28t5 38q2 20 4 29q39 279 -50 453t-245 175q-156 0 -294 -100l-35 100q159 115 361 115z" />
    <glyph glyph-name="uni2206" unicode="&#x2206;" horiz-adv-x="1323" 
d="M219 113h909l-194 821q-8 47 -43 190t-41 197h-8q-18 -43 -87 -176t-89 -176zM66 0l14 98l717 1387h155l322 -1387l-14 -98h-1194z" />
    <glyph glyph-name="product" unicode="&#x220f;" horiz-adv-x="1626" 
d="M1573 1319h-225v-1518h-136v1518h-596v-1518h-133v1518h-225v125h1315v-125z" />
    <glyph glyph-name="summation" unicode="&#x2211;" horiz-adv-x="1335" 
d="M1290 -199h-1040v93l561 724l-535 730v96h981v-119h-792v-6l504 -680l-543 -702v-7h864v-129z" />
    <glyph glyph-name="minus" unicode="&#x2212;" horiz-adv-x="1363" 
d="M1300 682l-18 -123h-1044l18 123h1044z" />
    <glyph glyph-name="uni2215" unicode="&#x2215;" horiz-adv-x="344" 
d="M-244 -66l-98 66l1137 1516l96 -64z" />
    <glyph glyph-name="uni2219" unicode="&#x2219;" horiz-adv-x="569" 
d="M360 532q-46 0 -74 33t-22 78t43 78t84 33t73 -33t21 -78q-6 -45 -42 -78t-83 -33z" />
    <glyph glyph-name="radical" unicode="&#x221a;" horiz-adv-x="1372" 
d="M1370 1714l-455 -2027h-122l-332 968l-154 -57l-28 86l268 104l270 -788q23 -84 35 -145h2q12 74 27 145l387 1714h102z" />
    <glyph glyph-name="infinity" unicode="&#x221e;" horiz-adv-x="1724" 
d="M1313 827h-2q-49 1 -103 -29t-84 -55q-29 -25 -82 -81t-59 -64q121 -129 189 -180t152 -51q85 1 142 69q58 68 58 168t-60 161q-60 62 -151 62zM551 367h4q93 0 180 79q57 50 97 94q41 44 47 50q-147 184 -240 219q-47 18 -100 18q-96 0 -153 -69q-56 -70 -56 -166
t61 -161q62 -64 160 -64zM1620 602v-2q0 -143 -92 -233q-92 -91 -202 -91t-194 58q-83 58 -202 190q-177 -196 -278 -229q-54 -18 -113 -19q-125 0 -215 92t-90 228q0 135 90 226q92 91 212 91q120 -1 210 -65q89 -64 190 -182q123 135 180 176q98 72 219 72t203 -88
q82 -87 82 -224z" />
    <glyph glyph-name="integral" unicode="&#x222b;" horiz-adv-x="925" 
d="M784 1659q-164 0 -163 -422q0 -160 13 -520t13 -529q0 -285 -90 -417q-63 -98 -195 -99q-78 0 -129 33l27 100q49 -25 92 -24q172 0 170 409q0 168 -14 534t-14 525q0 324 108 434q72 78 184 78q58 1 111 -28l-27 -97q-31 23 -86 23z" />
    <glyph glyph-name="approxequal" unicode="&#x2248;" horiz-adv-x="1282" 
d="M485 453q-67 0 -111 -40t-91 -116l-62 49q47 92 120 143t148 51t120 -20t84 -41t64 -36q26 -15 33 -18t25 -12q19 -9 43 -19t78 -11q54 0 100 37q45 37 92 117l58 -50q-96 -193 -262 -192q-77 1 -128 27t-148 78t-163 53zM488 797q-66 0 -112 -40t-93 -114l-62 47
q98 195 281 195q66 1 106 -19q41 -20 81 -43t46 -25t28 -16q22 -12 29 -15t24 -12q52 -28 124 -28q98 0 188 156l58 -52q-96 -193 -262 -192q-77 1 -128 27t-146 78t-162 53z" />
    <glyph glyph-name="notequal" unicode="&#x2260;" horiz-adv-x="1308" 
d="M1204 831v-92h-366l-142 -305h508v-90h-545l-112 -244l-74 35l96 209h-313v90h354l140 305h-494v92h530l111 240l74 -35l-97 -205h330z" />
    <glyph glyph-name="lessequal" unicode="&#x2264;" horiz-adv-x="1331" 
d="M1227 18h-948v95h948v-95zM1221 199l-930 465v96l930 465v-111l-830 -399v-4l830 -402v-110z" />
    <glyph glyph-name="greaterequal" unicode="&#x2265;" horiz-adv-x="1331" 
d="M1225 18h-944v95h944v-95zM291 1225l930 -465v-96l-928 -465v110l827 400v4l-829 401v111z" />
    <glyph glyph-name="lozenge" unicode="&#x25ca;" horiz-adv-x="1372" 
d="M1135 717l-304 594q-18 37 -38 106h-7q-14 -55 -38 -106l-302 -586l306 -598q25 -53 36 -104h7q10 45 36 102zM1260 721l-416 -813h-111l-411 813l415 815h111z" />
    <glyph glyph-name="fi" unicode="&#xfb01;" horiz-adv-x="1099" 
d="M1139 1327q-6 -41 -40 -70t-73 -29q-38 0 -64 30q-26 28 -20 69t40 70t73 29t65 -30q26 -28 19 -69zM1057 958l-135 -958h-136l136 958h135zM774 1573q49 0 115 -14l-41 -123q-57 14 -103 14q-104 0 -148 -64t-60 -182l-35 -246h227l-18 -122h-228l-116 -836h-136
l117 836h-203l19 122h203l36 263q49 352 371 352z" />
    <glyph glyph-name="fl" unicode="&#xfb02;" horiz-adv-x="1099" 
d="M1139 1548l-217 -1548h-136l218 1548h135zM774 1573q49 0 115 -14l-41 -123q-57 14 -103 14q-104 0 -148 -64t-60 -182l-35 -246h227l-18 -122h-228l-116 -836h-136l117 836h-203l19 122h203l36 263q49 352 371 352z" />
    <glyph glyph-name="a.superior" horiz-adv-x="690" 
d="M602 1145q-254 0 -268 -101q-6 -37 26 -57t82 -20q162 0 187 178h-27zM401 868q-90 0 -147 44t-44 135q28 196 386 196h45q9 75 -20 105q-29 29 -93 28q-102 0 -190 -61l-55 76q101 84 247 84q146 -1 198 -59t44 -126l-41 -280q-2 -8 -8 -129h-111l4 73h-2
q-70 -86 -213 -86z" />
    <glyph glyph-name="o.superior" horiz-adv-x="788" 
d="M587 1376q-89 0 -157 -60t-79 -146t39 -144q50 -59 139 -59t158 59t80 144q11 86 -40 146t-140 60zM600 1475q144 -1 226 -87q81 -86 63 -217q-19 -131 -123 -217t-248 -86t-227 86q-82 86 -64 217q17 131 123 217t250 87z" />
    <glyph glyph-name="one.superior" horiz-adv-x="739" 
d="M666 1462l-121 -870h-123l104 747l-186 -137l-49 78l264 182h111z" />
    <glyph glyph-name="two.superior" horiz-adv-x="739" 
d="M571 1364q-61 0 -115 -33t-77 -82l-113 19q33 98 120 152t203 54q115 0 189 -58q74 -60 60 -167q-8 -61 -50 -121t-76 -95q-36 -34 -108 -91l-301 -240h465l-14 -110h-600l16 117l397 335q43 37 66 59q23 21 49 61t33 83q6 43 -38 80t-106 37z" />
    <glyph glyph-name="three.superior" horiz-adv-x="739" 
d="M291 817q31 -127 171 -127q72 0 133 45t69 101t-34 104t-165 49h-59l14 111h49q88 0 153 36q64 36 72 96t-28 96t-98 36t-104 -20t-89 -74l-86 67q113 137 289 138q116 -1 186 -61t55 -165q-10 -70 -65 -125t-131 -77v-5q88 -14 131 -72t32 -141q-16 -117 -111 -183
t-224 -66q-225 0 -275 176z" />
    </font>
</defs>
</svg>
