<?xml version="1.0" standalone="no"?>
<!DOCTYPE svg PUBLIC "-//W3C//DTD SVG 1.1//EN" "http://www.w3.org/Graphics/SVG/1.1/DTD/svg11.dtd" >
<svg xmlns="http://www.w3.org/2000/svg">
<metadata>
Created by FontPrep 20130207 at Mon Apr 27 13:26:24 2015
 By Martin
Copyright (c) 1987, 1991, 1993 Adobe Systems Incorporated.  All Rights Reserved.Futura is a registered trademark of Fundicion Tipografica Neufville S. A.
</metadata>
<defs>
<font id="d8ac38ad9e4f09f8e56ae8fc135524b3" horiz-adv-x='1024' >
  <font-face 
    font-family="FuturaLT-BookOblique"
    font-weight="400"
    font-style="oblique"
    font-stretch="normal"
    units-per-em="2048"
    panose-1="2 0 5 4 3 0 0 9 0 3"
    ascent="1638"
    descent="-410"
    x-height="963"
    cap-height="1544"
    bbox="-326 -600 2544 2060"
    underline-thickness="102"
    underline-position="-153"
    slope="-9"
    unicode-range="U+0020-2122"
  />
<missing-glyph horiz-adv-x="1024" 
d="M102 1049h820v-1049h-820v1049zM905 16v1016h-786v-1016h786z" />
    <glyph glyph-name=".notdef" horiz-adv-x="1024" 
d="M102 1049h820v-1049h-820v1049zM905 16v1016h-786v-1016h786z" />
    <glyph glyph-name=".null" horiz-adv-x="0" 
 />
    <glyph glyph-name="nonmarkingreturn" horiz-adv-x="630" 
 />
    <glyph glyph-name="space" unicode=" " horiz-adv-x="630" 
 />
    <glyph glyph-name="exclam" unicode="!" horiz-adv-x="692" 
d="M379 203q47 0 75.5 -33t20.5 -80t-47 -82t-86 -35t-75.5 35t-20.5 82t47 80t86 33zM506 1544h168l-195 -1231h-168z" />
    <glyph glyph-name="quotedbl" unicode="&#x22;" horiz-adv-x="935" 
d="M645 1544l-143 -672h-119l70 672h192zM971 1544l-144 -672h-118l69 672h193z" />
    <glyph glyph-name="numbersign" unicode="#" 
d="M885 1544l-140 -418h254l138 418h161l-137 -418h189l-25 -159h-215l-115 -351h207l-26 -159h-236l-154 -457h-155l151 457h-252l-157 -457h-154l152 457h-209l26 159h236l115 351h-220l25 159h244l139 418h158zM584 616h252l114 351h-252z" />
    <glyph glyph-name="dollar" unicode="$" 
d="M754 156q102 33 170.5 111.5t85.5 181.5q25 156 -170 256zM815 1397q-86 -16 -149.5 -81t-78.5 -164t55.5 -144t100.5 -60zM715 766q-161 71 -242 162.5t-56 245.5t143.5 258t281.5 127l32 210h136l-33 -210q102 -14 178 -78t107 -156l-148 -88q-59 137 -164 158
l-80 -506q173 -81 255 -175t56 -262t-154 -299t-300 -163l-35 -226h-135l33 213q-163 8 -269 122t-110 276l174 47q-4 -107 61 -190t170 -91z" />
    <glyph glyph-name="percent" unicode="%" horiz-adv-x="1632" 
d="M887.5 1471.5q85.5 -99.5 60.5 -238.5q-19 -136 -136.5 -236t-259.5 -100t-227 96t-63 238t136 241t259 99t230.5 -99.5zM637 1440q-43 0 -84 -16.5t-75 -44t-57.5 -65.5t-29.5 -81t5.5 -80t37 -64.5t61 -44t78.5 -16.5t84 16.5t75 44t56.5 64.5t28.5 80t-5 81
t-35.5 65.5t-60.5 44t-79 16.5zM1546 1522l-1138 -1549l-80 54l1142 1544zM1326 647q71 0 130.5 -25.5t99 -71.5t57 -107.5t5.5 -133t-49 -132t-91.5 -106.5t-121 -72t-136 -26t-128 26t-98.5 71t-58 106.5t-6 133t49 133t90 107.5t119.5 71.5t137.5 25.5zM1307 516
q-43 0 -84 -16.5t-75 -44t-57.5 -65.5t-29.5 -81t5 -79.5t35.5 -64.5t60.5 -44.5t79 -16.5t84 16.5t75 44.5t57.5 64.5t29.5 79.5t-5.5 81t-36 65.5t-60 44t-78.5 16.5z" />
    <glyph glyph-name="ampersand" unicode="&#x26;" horiz-adv-x="1423" 
d="M721 1347q-92 -78 -38 -172t67 -116l28 -51q164 96 203 154t47 118t-35 102.5t-112 42.5q-68 0 -160 -78zM906 1571q137 0 220.5 -85.5t63.5 -217.5q-24 -171 -151.5 -259.5t-182.5 -125.5l260 -416l207 203l109 -103l-234 -229l209 -338h-217l-131 217
q-306 -244 -533 -244q-179 0 -295 119.5t-88 302.5q35 238 207 349.5t252 158.5l21 12q-20 37 -42 75t-62.5 136t39 235.5t180 173.5t168.5 36zM749.5 190q106.5 61 227.5 156l-275 442l-81 -49q-49 -31 -167 -107t-141 -224q-20 -109 50.5 -194t175.5 -85q104 0 210.5 61z
" />
    <glyph glyph-name="quotesingle" unicode="'" horiz-adv-x="591" 
d="M637 1544l-143 -672h-119l69 672h193z" />
    <glyph glyph-name="parenleft" unicode="(" horiz-adv-x="587" 
d="M299 -492q-66 217 -66 548.5t101 786t299 771.5l133 -70q-233 -442 -320 -987.5t9 -978.5z" />
    <glyph glyph-name="parenright" unicode=")" horiz-adv-x="587" 
d="M467 1614q93 -306 46 -846.5t-177.5 -842.5t-202.5 -417l-135 70q229 427 318.5 982t-7.5 984z" />
    <glyph glyph-name="asterisk" unicode="*" horiz-adv-x="1212" 
d="M774 1544h154l-58 -287l287 101l27 -148l-291 -77l141 -226l-139 -92l-121 242l-199 -242l-110 92l217 226l-266 77l71 148l254 -101z" />
    <glyph glyph-name="plus" unicode="+" 
d="M872 1020l-65 -416h416l-27 -160h-416l-65 -415h-160l66 415h-416l26 160h416l66 416h159z" />
    <glyph glyph-name="comma" unicode="," horiz-adv-x="630" 
d="M487 172l-313 -524l-104 45l274 532z" />
    <glyph glyph-name="hyphenminus" unicode="-" horiz-adv-x="425" 
d="M514 569l-25 -151h-419l24 151h420z" />
    <glyph glyph-name="period" unicode="." horiz-adv-x="630" 
d="M348 203q47 0 76 -33t20.5 -80t-47.5 -82t-86 -35t-75.5 35t-20.5 82t47 80t86 33z" />
    <glyph glyph-name="slash" unicode="/" horiz-adv-x="1167" 
d="M1389 1628l-1270 -1950l-123 62l1268 1950z" />
    <glyph glyph-name="zero" unicode="0" 
d="M878.5 1571q98.5 0 171 -37t125 -99.5t84 -144.5t46 -171t15 -179t-17.5 -202t-77.5 -254t-148.5 -255.5t-203.5 -184.5t-246.5 -71t-223.5 71t-143.5 184.5t-66.5 255.5t3.5 254t45 202t70 179t100.5 171t128 144.5t155.5 99.5t183.5 37zM836 1411q-90 0 -175.5 -70.5
t-187.5 -243t-109.5 -384t20.5 -313t61.5 -152.5t84 -83t122 -32t132 32t110.5 83t90 117.5t69.5 136t49 137.5t30 123t13.5 124.5t-4 141.5t-25.5 140.5t-52.5 123t-86 87t-142 32.5z" />
    <glyph glyph-name="one" unicode="1" 
d="M543 1384l114 160h338l-243 -1544h-172l219 1384h-256z" />
    <glyph glyph-name="two" unicode="2" 
d="M295 1094q37 207 193.5 342t355.5 135t323 -130.5t92 -324.5t-167 -328l-635 -628h651l-25 -160h-999l858 854q124 124 144 254q21 130 -54.5 216.5t-207.5 86.5t-232 -89.5t-125 -227.5h-172z" />
    <glyph glyph-name="three" unicode="3" 
d="M816 1411q-120 0 -193.5 -68.5t-102.5 -179.5h-170q47 184 174 296t316 112t296.5 -117.5t77.5 -304.5q-16 -104 -82.5 -196t-168.5 -142q104 -51 141.5 -156t19.5 -215q-35 -211 -193.5 -339t-354.5 -128q-195 0 -309.5 119.5t-86.5 308.5h168q-12 -113 60 -190.5
t196 -77.5t225.5 89.5t123.5 228.5q22 138 -59 211t-222 69l24 160q219 7 275.5 91.5t68.5 158.5q20 123 -42 196.5t-182 73.5z" />
    <glyph glyph-name="four" unicode="4" 
d="M1231 410l-27 -160h-190l-39 -250h-172l39 250h-791l1178 1380h4l-193 -1220h191zM979 1108h-4l-596 -698h489z" />
    <glyph glyph-name="five" unicode="5" 
d="M530 133q181 0 308.5 111.5t154.5 280.5q26 168 -66 273t-245 105t-322 -98l340 739h615l-25 -160h-493l-152 -329l92 8q226 0 347 -155.5t83 -383.5q-35 -234 -226 -392.5t-447 -158.5q-136 0 -245.5 73t-166.5 204l154 98q37 -94 116.5 -154.5t177.5 -60.5z" />
    <glyph glyph-name="six" unicode="6" 
d="M832 1014q86 0 172 -41t175 -148t55 -323t-214 -372.5t-400 -156.5t-353 155.5t-97 373.5q27 176 199 370l622 699l115 -96l-432 -480l4 -4q68 23 154 23zM757 854q-150 0 -272 -104.5t-145.5 -252.5t65 -256t238 -108t272 105.5t146.5 257.5t-65 255t-239 103z" />
    <glyph glyph-name="seven" unicode="7" 
d="M324 1384l24 160h1139l-1284 -1571l-123 80l1087 1331h-843z" />
    <glyph glyph-name="eight" unicode="8" 
d="M745.5 727q-63.5 0 -122 -23.5t-104.5 -63.5t-77.5 -94t-42 -115.5t5 -116t49 -94.5t84 -63.5t114 -23.5t121.5 23.5t105.5 63.5t78 94.5t41 116t-4 115.5t-48.5 94t-85 63.5t-114.5 23.5zM1165 1448q106 -123 78 -307q-16 -102 -79.5 -194.5t-162.5 -143.5
q102 -49 145.5 -150t25.5 -211t-67.5 -194t-122.5 -145.5t-164 -95.5t-242.5 -34t-265.5 131.5t-83 327.5q20 119 95 220.5t192 150.5q-82 51 -117 143t-19 190t61.5 176.5t153 168.5t287 90t285.5 -123zM543 1143q-18 -109 49.5 -189t177 -80t200 78.5t109.5 190.5
q18 112 -47 190t-178 78t-203 -79.5t-108 -188.5z" />
    <glyph glyph-name="nine" unicode="9" 
d="M658 535q-88 0 -173.5 39.5t-172 149.5t-54.5 324q32 213 213.5 368t400 155t351 -153.5t100.5 -373.5q-16 -104 -72.5 -195t-130.5 -175l-622 -701l-115 88l434 490l-4 4q-67 -20 -155 -20zM576 1304q-122 -107 -146 -254t65.5 -251.5t238.5 -104.5q150 0 271.5 103.5
t145.5 252.5t-65.5 255t-238.5 106t-271 -107z" />
    <glyph glyph-name="colon" unicode=":" horiz-adv-x="630" 
d="M348 203q47 0 76 -33t20.5 -80t-47.5 -82t-86 -35t-75.5 35t-20.5 82t47 80t86 33zM471 989q47 0 77 -32.5t21.5 -80t-47.5 -82t-86 -34.5t-75.5 34.5t-20.5 82t46 80t85 32.5z" />
    <glyph glyph-name="semicolon" unicode=";" horiz-adv-x="630" 
d="M492 172l-314 -524l-104 45l274 532zM522 989q47 0 77 -32.5t21.5 -80t-47 -82t-86 -34.5t-76 34.5t-20.5 82t46 80t85 32.5z" />
    <glyph glyph-name="less" unicode="&#x3c;" 
d="M1260 846l-803 -322l702 -321l-29 -174l-923 424l22 143l1059 424z" />
    <glyph glyph-name="equal" unicode="=" 
d="M1247 764l-24 -160h-992l25 160h991zM1196 444l-25 -159h-991l25 159h991z" />
    <glyph glyph-name="greater" unicode="&#x3e;" 
d="M297 1020l924 -424l-23 -143l-1059 -424l29 174l805 321l-705 322z" />
    <glyph glyph-name="question" unicode="?" horiz-adv-x="999" 
d="M325.5 412.5q-79.5 95.5 -59.5 238.5q32 185 151.5 240t175.5 71q149 44 217 86t83 144q16 102 -34 161.5t-140 59.5t-170.5 -71t-67.5 -230h-170l8 109q23 152 148 251t282 99t247.5 -105.5t64.5 -271.5q-26 -165 -152 -266q-61 -47 -140 -73t-150 -45t-123 -56
t-63 -111t31 -121t98 -47q95 0 146 57.5t64 139.5h166q-20 -150 -131.5 -252.5t-256.5 -102.5t-224.5 95.5zM528 203q47 0 76 -33t20.5 -80t-47 -82t-86 -35t-76 35t-20.5 82t47 80t86 33z" />
    <glyph glyph-name="at" unicode="@" horiz-adv-x="1638" 
d="M1139 961.5q-47 76.5 -160 76.5t-214.5 -104t-117.5 -216q-16 -113 29 -184t162 -71t196 84.5t116 211.5q36 126 -11 202.5zM995 1178q78 0 139.5 -32t110.5 -112l49 125h146l-187 -522q-48 -119 -35.5 -146.5t42.5 -27.5t76 33.5t116.5 125t100.5 229.5q57 266 -80 419
t-405 153q-267 0 -472 -184t-253 -468t113.5 -467t434.5 -183q272 0 420 94l127 -104q-117 -55 -252.5 -96.5t-311.5 -41.5t-311 60.5t-225 167t-130 253t-12 317.5t111.5 317.5t275.5 314.5t521 168q285 0 455 -176q199 -199 156 -468t-197 -431q-90 -98 -180.5 -139.5
t-147.5 -38.5q-107 6 -107 126q-139 -125 -286 -125t-234 110.5t-61 264.5q30 194 170.5 339t322.5 145z" />
    <glyph glyph-name="A" unicode="A" horiz-adv-x="1431" 
d="M457 438l-256 -438h-189l969 1618l438 -1618h-190l-113 438h-659zM913 1217l-362 -619h522z" />
    <glyph glyph-name="B" unicode="B" horiz-adv-x="1163" 
d="M524 160q274 0 350 97t90 186q26 162 -84.5 218t-289.5 56h-150l-88 -557h172zM653 1544q362 0 415.5 -150t36.5 -256q-33 -209 -200 -313q133 -35 192.5 -145.5t39.5 -237.5q-36 -229 -204.5 -335.5t-418.5 -106.5h-358l243 1544h254zM530 864q177 0 245.5 34t105.5 86
t51 141q26 162 -53 210.5t-265 48.5h-67l-82 -520h65z" />
    <glyph glyph-name="C" unicode="C" horiz-adv-x="1468" 
d="M1088 1411q-132 0 -253.5 -52t-220 -140.5t-165 -204t-87 -242.5t10 -242.5t101.5 -203.5t177.5 -140.5t236.5 -52.5t261 56.5t237 148.5l-32 -213q-239 -152 -486 -152q-164 0 -300 62.5t-229 170t-135 252t-16 309.5t112.5 311.5t213.5 256t283.5 173t322.5 63.5
q260 0 439 -152l-35 -213q-78 96 -191 150.5t-245 54.5z" />
    <glyph glyph-name="D" unicode="D" horiz-adv-x="1388" 
d="M690 1544q196 0 327.5 -38t246.5 -148q220 -220 163 -588q-61 -357 -344 -575q-219 -167 -385 -181t-256 -14h-286l243 1544h291zM477 160q159 0 278.5 33t232.5 124q219 177 267 455q43 289 -130 466q-89 91 -202.5 118.5t-250.5 27.5h-125l-195 -1224h125z" />
    <glyph glyph-name="E" unicode="E" horiz-adv-x="1093" 
d="M399 1544h801l-24 -160h-629l-72 -458h610l-26 -160h-610l-97 -606h629l-25 -160h-800z" />
    <glyph glyph-name="F" unicode="F" horiz-adv-x="978" 
d="M547 1384l-72 -458h514l-26 -160h-514l-121 -766h-172l243 1544h703l-25 -160h-530z" />
    <glyph glyph-name="G" unicode="G" horiz-adv-x="1679" 
d="M1092 1411q-262 0 -477 -191t-255 -450t109 -440q72 -86 178.5 -141.5t218.5 -55.5q225 0 415 139.5t224 343.5h-458l24 160h643q-22 -168 -60 -262t-80 -157.5t-106 -125.5q-127 -123 -288.5 -190.5t-324.5 -67.5t-297 63.5t-225 171t-131 252t-14 309.5t112.5 311.5
t212.5 255t282.5 172t342.5 63.5t335 -87t247 -247l-143 -117q-161 291 -485 291z" />
    <glyph glyph-name="H" unicode="H" horiz-adv-x="1462" 
d="M1272 918l98 626h172l-244 -1544h-172l121 758h-790l-121 -758h-172l244 1544h172l-99 -626h791z" />
    <glyph glyph-name="I" unicode="I" horiz-adv-x="489" 
d="M332 0h-172l243 1544h172z" />
    <glyph glyph-name="J" unicode="J" horiz-adv-x="643" 
d="M83.5 -160q-109.5 0 -224.5 115l116 133q35 -39 72 -63.5t98 -24.5q108 0 154 95.5t63 226.5l193 1222h172l-192 -1222q-23 -133 -65.5 -257.5t-159.5 -174.5t-226.5 -50z" />
    <glyph glyph-name="K" unicode="K" horiz-adv-x="1251" 
d="M1229 1544h231l-837 -719l618 -825h-237l-521 709l-51 -43l-104 -666h-172l243 1544h172l-104 -661z" />
    <glyph glyph-name="L" unicode="L" horiz-adv-x="768" 
d="M352 160h426l-24 -160h-598l243 1544h172z" />
    <glyph glyph-name="M" unicode="M" horiz-adv-x="1835" 
d="M614 1632l357 -1296l768 1296l55 -1632h-176l-33 1044h-4l-674 -1107l-319 1107h-4l-365 -1044h-176z" />
    <glyph glyph-name="N" unicode="N" horiz-adv-x="1708" 
d="M420 1610l1005 -1262l189 1196h172l-254 -1614l-1006 1260l-188 -1190h-172z" />
    <glyph glyph-name="O" unicode="O" horiz-adv-x="1765" 
d="M1130.5 1571q165.5 0 302 -62.5t229.5 -172t134 -255t14.5 -311.5t-113.5 -311.5t-214 -253t-283 -170t-321.5 -62.5t-302 62.5t-228.5 170t-133 253t-14.5 311.5t112.5 311.5t213 255t283 172t321.5 62.5zM1106 1411q-133 0 -256 -50t-222.5 -137t-167 -204t-88 -248
t10.5 -246.5t102.5 -202.5t179 -138.5t238.5 -51.5t255 51.5t223.5 138.5t168 202.5t89 246.5t-10.5 248t-102.5 204t-179 137t-240.5 50z" />
    <glyph glyph-name="P" unicode="P" horiz-adv-x="1030" 
d="M653 1544q100 0 197.5 -12t174.5 -70t105.5 -153t12.5 -194t-67.5 -188t-136.5 -152t-183.5 -81t-196.5 -18h-125l-106 -676h-172l243 1544h254zM575 836q249 0 316 97t81 186q25 166 -73 215.5t-289 49.5h-63l-86 -548h114z" />
    <glyph glyph-name="Q" unicode="Q" horiz-adv-x="1765" 
d="M1106 1411q-133 0 -256 -50t-222.5 -137t-167 -204t-88 -248t10.5 -246.5t102.5 -202.5t179 -138.5t215.5 -51.5q216 0 386 115l-314 375h226l223 -279q199 180 237 428q20 131 -10.5 248t-102 204t-179 137t-240.5 50zM1132 1571q166 0 302.5 -63.5t228.5 -173t132 -256
t14 -310.5q-49 -310 -310 -547l195 -235h-219l-107 139q-230 -152 -514 -152q-141 0 -277.5 62.5t-228.5 170t-133 253t-14.5 311.5t112.5 311.5t213 255t283.5 172t322.5 62.5z" />
    <glyph glyph-name="R" unicode="R" horiz-adv-x="1110" 
d="M512 829q179 0 295 57.5t141 225.5q26 168 -68 220t-282 52h-51l-88 -555h53zM623 1544q256 0 395.5 -93t101.5 -333q-28 -178 -150 -294t-302 -132l381 -692h-211l-361 678h-43l-106 -678h-172l243 1544h224z" />
    <glyph glyph-name="S" unicode="S" horiz-adv-x="1144" 
d="M836 1411q-190 0 -249 -92.5t-67 -144.5q-14 -88 40.5 -139.5t162.5 -104.5l94 -45q170 -80 250 -173t53 -261q-32 -202 -196 -340t-356 -138t-305.5 109t-121.5 291l174 47q0 -124 71 -205.5t196.5 -81.5t235 87.5t128.5 213.5q25 170 -81.5 226.5t-155.5 80.5l-86 41
q-151 74 -201.5 132.5t-68 119t-4.5 147.5q25 169 170 279.5t323 110.5q129 0 224 -62.5t138 -177.5l-151 -88q-74 168 -217 168z" />
    <glyph glyph-name="T" unicode="T" horiz-adv-x="962" 
d="M565 0h-172l219 1384h-372l24 160h922l-25 -160h-377z" />
    <glyph glyph-name="U" unicode="U" horiz-adv-x="1402" 
d="M722 133q85 0 172.5 36t139.5 87t87 119t59 250l145 919h172l-151 -966q-22 -141 -62.5 -240t-137.5 -187q-97 -87 -214 -132.5t-231 -45.5t-213 40t-164 118q-112 128 -101.5 254.5t21.5 192.5l151 966h172l-145 -919q-6 -43 -23.5 -148.5t37.5 -195.5q39 -72 120 -110
t166 -38z" />
    <glyph glyph-name="V" unicode="V" horiz-adv-x="1277" 
d="M696 367l627 1177h186l-884 -1636l-369 1636h186z" />
    <glyph glyph-name="W" unicode="W" horiz-adv-x="2234" 
d="M680 387l696 1237l303 -1237l588 1157h187l-848 -1624l-303 1243l-697 -1243l-336 1624h187z" />
    <glyph glyph-name="X" unicode="X" horiz-adv-x="1155" 
d="M309 1544h197l223 -581l408 581h196l-534 -745l329 -799h-196l-254 635l-455 -635h-196l583 799z" />
    <glyph glyph-name="Y" unicode="Y" horiz-adv-x="1214" 
d="M260 1544h199l284 -688l502 688h199l-645 -880l-105 -664h-172l105 664z" />
    <glyph glyph-name="Z" unicode="Z" horiz-adv-x="1200" 
d="M1159 160l-24 -160h-1106l1061 1384h-736l25 160h1022l-1063 -1384h821z" />
    <glyph glyph-name="bracketleft" unicode="[" horiz-adv-x="645" 
d="M328 -340h221l-25 -152h-389l334 2106h389l-24 -152h-222z" />
    <glyph glyph-name="backslash" unicode="\" horiz-adv-x="1167" 
d="M440 1690l690 -1690l-143 -61l-692 1689z" />
    <glyph glyph-name="bracketright" unicode="]" horiz-adv-x="645" 
d="M496 1462h-222l25 152h389l-334 -2106h-389l25 152h221z" />
    <glyph glyph-name="asciicircum" unicode="^" 
d="M801 1544h147l283 -885h-182l-207 672l-424 -672h-178z" />
    <glyph glyph-name="underscore" unicode="_" horiz-adv-x="1024" 
d="M983 -256h-1024l16 102h1024z" />
    <glyph glyph-name="grave" unicode="`" horiz-adv-x="733" 
d="M573 1524l191 -336l-113 -58l-262 316z" />
    <glyph glyph-name="a" unicode="a" horiz-adv-x="1181" 
d="M446.5 734.5q-104.5 -103.5 -128.5 -247.5t44.5 -253t217.5 -109t250 105t126 256t-47 251.5t-215 100.5t-247.5 -103.5zM530 -27q-205 0 -310 150t-71 361t183.5 358t359.5 147q98 0 178 -43t127 -121h4l21 138h164l-152 -963h-164l21 133h-4q-152 -160 -357 -160z" />
    <glyph glyph-name="b" unicode="b" horiz-adv-x="1181" 
d="M506 733q-105 -105 -127 -248q-23 -144 46 -252t218 -108t249.5 105.5t125.5 256.5q25 150 -48 250.5t-216 100.5t-248 -105zM446 825q151 164 357 164t310 -147.5t71 -357.5t-185 -360.5t-356 -150.5q-100 0 -180 41t-127 119h-4l-21 -133h-164l269 1690h164l-138 -865
h4z" />
    <glyph glyph-name="c" unicode="c" horiz-adv-x="974" 
d="M729 989q165 0 283 -96l-35 -217h-4q-101 162 -273 162q-145 0 -258.5 -104t-138 -251t52 -252.5t224.5 -105.5q185 0 338 166h4l-33 -219q-164 -99 -322 -99q-218 0 -341 145t-91 360q32 216 206.5 363.5t387.5 147.5z" />
    <glyph glyph-name="d" unicode="d" horiz-adv-x="1181" 
d="M446.5 734.5q-104.5 -103.5 -128.5 -247.5t44.5 -253t217.5 -109t250 105t126 256t-47 251.5t-215 100.5t-247.5 -103.5zM692 989q98 0 178 -43t127 -121h4l138 865h164l-269 -1690h-164l21 133h-4q-148 -160 -355 -160t-312 150t-71 361t183.5 358t359.5 147z" />
    <glyph glyph-name="e" unicode="e" horiz-adv-x="1062" 
d="M556 -27q-231 0 -338 142.5t-75 358.5q33 216 182.5 365.5t370.5 149.5t318.5 -157t50.5 -386h-756q-20 -134 53 -227.5t211 -93.5q183 0 324 199l127 -80q-90 -129 -215 -200t-253 -71zM913 586q0 106 -67 179t-174 73t-204 -74t-130 -178h575z" />
    <glyph glyph-name="f" unicode="f" horiz-adv-x="561" 
d="M712 1552q-48 0 -78 -17t-48.5 -51t-27.5 -83t-19 -113l-54 -325h244l-22 -152h-244l-129 -811h-164l129 811h-90l22 152h91l61 383q10 59 25.5 127.5t61.5 128.5t117.5 87t135.5 27t123 -20l-27 -166q-59 22 -107 22z" />
    <glyph glyph-name="g" unicode="g" horiz-adv-x="1187" 
d="M434 733q-105 -105 -127 -248q-23 -144 46 -252t218 -108t249.5 105.5t125.5 256.5q25 150 -48 250.5t-216 100.5t-248 -105zM489 -385q253 0 307 161t66 242l19 115h-4q-70 -76 -165.5 -118t-196.5 -42t-180 41t-128 111t-66.5 161t8 247t177.5 306t357 150t304 -164h4
l21 138h164l-144 -916q-27 -154 -55.5 -239.5t-108.5 -174.5q-162 -170 -399 -170q-203 0 -317.5 121t-85.5 322h163q-19 -132 53 -211.5t207 -79.5z" />
    <glyph glyph-name="h" unicode="h" horiz-adv-x="1081" 
d="M457 846q129 143 305 143q323 0 254 -418l-90 -571h-164l86 543q21 150 -2.5 222.5t-153.5 72.5q-209 0 -250 -159t-51 -222l-72 -457h-163l268 1690h164l-133 -840z" />
    <glyph glyph-name="i" unicode="i" horiz-adv-x="536" 
d="M350 0h-164l152 963h164zM498 1442q47 0 75.5 -35t20.5 -83t-48 -82t-87 -34t-77 34t-22 82t49.5 83t88.5 35z" />
    <glyph glyph-name="j" unicode="j" horiz-adv-x="536" 
d="M264 -541h-164l238 1504h164zM498 1442q47 0 75.5 -35t20.5 -83t-48 -82t-87 -34t-77 34t-22 82t49.5 83t88.5 35z" />
    <glyph glyph-name="k" unicode="k" horiz-adv-x="962" 
d="M408 606l405 357h219l-475 -410l401 -553h-217l-317 438l-49 -43l-64 -395h-164l269 1690h164z" />
    <glyph glyph-name="l" unicode="l" horiz-adv-x="464" 
d="M315 0h-163l268 1690h164z" />
    <glyph glyph-name="m" unicode="m" horiz-adv-x="1572" 
d="M711 989q86 0 150.5 -42t90.5 -118q55 80 140.5 120t175.5 40q166 0 218.5 -114t22.5 -289l-92 -586h-164l88 559q22 129 8 178t-44.5 75t-98.5 26q-210 0 -258 -328l-80 -510h-163l86 547q18 132 -1.5 211.5t-123.5 79.5q-128 0 -186.5 -97.5t-82.5 -242.5l-78 -498
h-163l151 963h164l-16 -105h4q109 131 252 131z" />
    <glyph glyph-name="n" unicode="n" horiz-adv-x="1081" 
d="M457 846q129 143 305 143q323 0 254 -418l-90 -571h-164l86 543q21 150 -2.5 222.5t-153.5 72.5q-209 0 -250 -159t-51 -222l-72 -457h-163l151 963h164l-18 -117h4z" />
    <glyph glyph-name="o" unicode="o" horiz-adv-x="1150" 
d="M571.5 -27q-104.5 0 -190.5 39t-144.5 107.5t-83 161t-8 199t70.5 198.5t133 161.5t177.5 109.5t205 40t192.5 -40t143 -109.5t82 -161.5t8.5 -198.5t-71 -199t-134.5 -161t-178 -107.5t-202.5 -39zM708.5 838q-75.5 0 -143 -29t-121 -77t-88 -112.5t-47 -138t3 -138
t53 -114t96 -77t134.5 -27.5t143.5 27.5t119.5 77t87 114t47.5 138t-3 138t-52.5 112.5t-95.5 77t-134 29z" />
    <glyph glyph-name="p" unicode="p" horiz-adv-x="1181" 
d="M506 733q-105 -105 -127 -248q-23 -144 46 -252t218 -108t249.5 105.5t125.5 256.5q25 150 -48 250.5t-216 100.5t-248 -105zM446 825q148 164 355 164q208 0 312 -150t71 -360t-182 -358t-361 -148q-98 0 -178 42t-127 120h-4l-107 -676h-164l238 1504h164l-21 -138h4z
" />
    <glyph glyph-name="q" unicode="q" horiz-adv-x="1181" 
d="M446.5 734.5q-104.5 -103.5 -128.5 -247.5t44.5 -253t217.5 -109t250 105t126 256t-47 251.5t-215 100.5t-247.5 -103.5zM887 135q-150 -162 -357 -162q-208 0 -311.5 147.5t-68.5 358.5q34 211 183.5 360.5t356.5 149.5q98 0 179 -42t128 -122h4l21 138h164l-238 -1504
h-164l107 676h-4z" />
    <glyph glyph-name="r" unicode="r" horiz-adv-x="686" 
d="M554 952q50 37 126 37t145 -45l-102 -149q-23 16 -40 29.5t-67 13.5t-94.5 -38t-76.5 -103t-58 -216l-76 -481h-164l152 963h164l-17 -105h5q53 57 103 94z" />
    <glyph glyph-name="s" unicode="s" horiz-adv-x="817" 
d="M548 838q-44 0 -87 -30t-49 -70t9 -63.5t44 -43t65.5 -34.5t76.5 -33q100 -46 149 -108t30 -169q-20 -138 -130.5 -226t-238.5 -88t-207 64.5t-99 179.5l155 62q20 -68 55 -111t109 -43t125 41t60 100t-17.5 92t-70.5 57.5t-173 77t-102 224.5q20 121 115.5 196.5
t197.5 75.5q101 0 162 -51t84 -127l-149 -72q-10 39 -40 69t-74 30z" />
    <glyph glyph-name="t" unicode="t" horiz-adv-x="491" 
d="M328 0h-164l129 811h-100l22 152h100l56 346h164l-56 -346h172l-22 -152h-172z" />
    <glyph glyph-name="u" unicode="u" horiz-adv-x="1048" 
d="M575 125q104 0 157 76t77 225l84 537h164l-86 -555q-35 -208 -142.5 -321.5t-399.5 -113.5t-220 435l86 555h164l-84 -537q-24 -146 -4 -199t60 -77.5t144 -24.5z" />
    <glyph glyph-name="v" unicode="v" horiz-adv-x="948" 
d="M524 315l389 648h185l-633 -1026l-311 1026h186z" />
    <glyph glyph-name="w" unicode="w" horiz-adv-x="1556" 
d="M526 311l414 725l186 -725l390 652h186l-639 -1031l-184 717l-410 -717l-311 1031h186z" />
    <glyph glyph-name="x" unicode="x" horiz-adv-x="1019" 
d="M213 963h201l200 -328l304 328h204l-422 -451l318 -512h-199l-244 391l-368 -391h-205l492 512z" />
    <glyph glyph-name="y" unicode="y" horiz-adv-x="1019" 
d="M147 963h191l231 -691l420 691h187l-949 -1504h-186l412 631z" />
    <glyph glyph-name="z" unicode="z" horiz-adv-x="1062" 
d="M1040 152l-24 -152h-996l824 811h-565l22 152h895l-819 -811h663z" />
    <glyph glyph-name="braceleft" unicode="{" horiz-adv-x="684" 
d="M688 1614h150l-25 -152h-82q-55 0 -71.5 -42t-26.5 -113l-62 -387q-24 -156 -96.5 -247.5t-116.5 -111.5q80 -60 97.5 -165t3.5 -195l-62 -385q-12 -72 -9 -114t58 -42h82l-24 -152h-150q-52 0 -100.5 83.5t-30.5 193.5l62 381q23 154 11.5 206t-38.5 79.5t-76 44.5
l21 131q102 30 142 102.5t65 224.5l59 383q19 114 91.5 195.5t127.5 81.5z" />
    <glyph glyph-name="bar" unicode="|" horiz-adv-x="1167" 
d="M594 -438h-160l324 2048h160z" />
    <glyph glyph-name="braceright" unicode="}" horiz-adv-x="684" 
d="M174 -492h-149l24 152h82q55 0 70.5 42t27.5 114l62 385q24 152 90 239.5t121 120.5q-79 59 -96 163.5t-3 195.5l62 387q10 72 8 113.5t-57 41.5h-82l24 152h150q53 0 100.5 -81t28.5 -196l-59 -383q-23 -157 -11.5 -206.5t37 -77t74.5 -43.5l-21 -131
q-103 -30 -142.5 -105t-61.5 -225l-62 -381q-19 -117 -90.5 -197t-126.5 -80z" />
    <glyph glyph-name="asciitilde" unicode="~" 
d="M506 549q-78 0 -174 -197l-131 58q65 128 126.5 191t108.5 86.5t111 23.5t194 -93q23 -16 46.5 -35.5t61 -47t76.5 -27.5q40 0 88 57.5t87 141.5l129 -58q-153 -301 -332 -301q-53 0 -103.5 30t-101.5 68t-98 70.5t-88 32.5z" />
    <glyph glyph-name="Euro" 
d="M825 133q127 -1 195 21t188 94l-28 -185q-168 -88 -373 -88q-285 0 -426 164t-145 432h-148l51 111h101l4 40t6 44l8 43h-131l49 111h109q86 285 272 458q211 193 502 193q246 0 379 -131l-66 -154q-84 76 -150 100t-198 25q-213 0 -365 -149q-135 -129 -202 -342h762
l-52 -111h-737l-6 -37q-4 -24 -6 -46l-4 -44h700l-53 -111h-649q8 -195 104 -307q106 -131 309 -131z" />
    <glyph glyph-name="Euro" unicode="&#x20ac;" 
d="M825 133q127 -1 195 21t188 94l-28 -185q-168 -88 -373 -88q-285 0 -426 164t-145 432h-148l51 111h101l4 40t6 44l8 43h-131l49 111h109q86 285 272 458q211 193 502 193q246 0 379 -131l-66 -154q-84 76 -150 100t-198 25q-213 0 -365 -149q-135 -129 -202 -342h762
l-52 -111h-737l-6 -37q-4 -24 -6 -46l-4 -44h700l-53 -111h-649q8 -195 104 -307q106 -131 309 -131z" />
    <glyph glyph-name="Zcaron" horiz-adv-x="1200" 
d="M1159 160l-24 -160h-1106l1061 1384h-736l25 160h1022l-1063 -1384h821zM893 1675l-281 273l133 92l177 -174l231 174l102 -92z" />
    <glyph glyph-name="Zcaron" unicode="&#x17d;" horiz-adv-x="1200" 
d="M1159 160l-24 -160h-1106l1061 1384h-736l25 160h1022l-1063 -1384h821zM893 1675l-281 273l133 92l177 -174l231 174l102 -92z" />
    <glyph glyph-name="zcaron" horiz-adv-x="1062" 
d="M1040 152l-24 -152h-996l824 811h-565l22 152h895l-819 -811h663zM748 1145l-281 272l133 92l176 -174l232 174l102 -92z" />
    <glyph glyph-name="zcaron" unicode="&#x17e;" horiz-adv-x="1062" 
d="M1040 152l-24 -152h-996l824 811h-565l22 152h895l-819 -811h663zM748 1145l-281 272l133 92l176 -174l232 174l102 -92z" />
    <glyph glyph-name="nonbreakingspace" unicode="&#xa0;" horiz-adv-x="630" 
 />
    <glyph glyph-name="exclamdown" unicode="&#xa1;" horiz-adv-x="692" 
d="M502 989q47 0 76.5 -32.5t21.5 -80t-47 -82t-86 -34.5t-76 34.5t-20.5 82t46.5 80t85 32.5zM338 -582h-168l195 1231h167z" />
    <glyph glyph-name="cent" unicode="&#xa2;" 
d="M829 436q140 18 271 164h4l-35 -219q-141 -89 -264 -96l-37 -230h-135l37 232q-177 20 -279 166t-74 329t173 332.5t339 173.5l33 217h135l-32 -213q133 -12 231 -90l-35 -217h-4q-83 136 -217 156zM805 1137q-184 -36 -261 -191.5t-57 -276t84 -169.5t123 -62z" />
    <glyph glyph-name="sterling" unicode="&#xa3;" 
d="M408 94q-113 0 -203 -125l-119 90q61 80 146 138.5t184 60.5q100 117 100 240q0 27 -4 51h-260l22 131h205l-28 76q-16 47 -33 91t-35.5 118.5t-2.5 168.5q31 187 184.5 312t345.5 125t296.5 -131t75.5 -332l-176 -45q36 237 -54 290.5t-158 53.5q-124 0 -266.5 -117
t-81 -282.5t84 -220t37.5 -107.5h290l-22 -131h-246q4 -23 4 -47q0 -124 -106 -266q17 -9 133.5 -51t155.5 -42q64 0 109.5 38.5t105.5 115.5l125 -84q-100 -163 -198.5 -200.5t-174.5 -37.5t-219 60q-59 23 -112.5 41t-104.5 18z" />
    <glyph glyph-name="currency" unicode="&#xa4;" 
d="M809 1126q98 0 171 -29.5t146 -88.5l101 86l61 -74l-94 -82q43 -88 57.5 -162t-1.5 -162t-52.5 -161.5t-107.5 -161.5l69 -82l-86 -74l-72 86q-92 -59 -174 -89t-180 -30t-171 30t-146 89l-101 -86l-61 74l94 82q-41 88 -56.5 161.5t1.5 161.5q14 88 51 162t109 162
l-70 82l86 74l72 -86q92 59 174 88.5t180 29.5zM959 345.5q133 112.5 161 272.5t-67.5 266.5t-264.5 110.5q-167 -4 -298.5 -111t-151.5 -267q-20 -161 76.5 -272.5t254 -111.5t290.5 112.5z" />
    <glyph glyph-name="yen" unicode="&#xa5;" 
d="M629 524h-486l21 131h485l-80 205h-372l20 131h297l-231 553h198l287 -684l500 684h198l-403 -553h297l-21 -131h-372l-146 -205h486l-21 -131h-485l-84 -524h-172z" />
    <glyph glyph-name="brokenbar" unicode="&#xa6;" horiz-adv-x="1167" 
d="M635 -182h-160l80 512h160zM797 842h-160l82 512h160z" />
    <glyph glyph-name="section" unicode="&#xa7;" horiz-adv-x="1212" 
d="M566.5 757q-75.5 -66 -89.5 -160t41.5 -160t147.5 -66t171 68t93 160t-43 158t-151 66t-169.5 -66zM546 -229q106 0 170 52.5t76 130.5t-1 116.5t-50 70.5t-145 72q-51 23 -189.5 82.5t-103.5 300.5q18 113 87 202t181 132q-167 90 -135 289q23 156 152 254t291 98
q80 0 212.5 -61.5t90.5 -340.5h-164q25 244 -161 244q-97 0 -168 -54t-87 -153q-24 -142 134 -200.5t278 -120.5t85 -286q-35 -225 -270 -335q166 -91 134 -299q-22 -157 -145 -254.5t-292 -97.5q-278 0 -298.5 152.5t-10.5 242.5h166q-16 -104 20.5 -170.5t142.5 -66.5z
" />
    <glyph glyph-name="dieresis" unicode="&#xa8;" horiz-adv-x="956" 
d="M506 1444q47 0 73.5 -32t18.5 -79t-44 -78.5t-83 -31.5t-74.5 31.5t-19.5 78.5t45 79t84 32zM909 1444q47 0 74 -32t18.5 -79t-44 -78.5t-83 -31.5t-75 31.5t-19.5 78.5t45 79t84 32z" />
    <glyph glyph-name="copyright" unicode="&#xa9;" horiz-adv-x="1638" 
d="M815 -27q-168 0 -305 62.5t-228.5 170t-130 254t-12 312.5t111.5 312.5t210 254t281.5 170t324.5 62.5t305 -62.5t228.5 -170t131.5 -254t13 -312.5t-113 -312.5t-211 -254t-281.5 -170t-324.5 -62.5zM833.5 96q137.5 0 269.5 52.5t239.5 144.5t182 215t97.5 264t-13 264
t-114 215t-193.5 144.5t-253 52.5t-269.5 -52.5t-239.5 -144.5t-181 -215t-96 -264t12 -264t113.5 -215t193.5 -144.5t252 -52.5zM1033 1116q-165 0 -262.5 -101.5t-119.5 -238.5t49.5 -235.5t221.5 -98.5q102 0 173.5 49.5t106.5 137.5h125q-39 -140 -161 -225t-243 -85
q-217 0 -320.5 131.5t-72.5 331.5t173 328.5t344 128.5q141 0 232 -80t95 -223h-125q-4 86 -63.5 133t-152.5 47z" />
    <glyph glyph-name="ordfeminine" unicode="&#xaa;" horiz-adv-x="708" 
d="M523 1051q100 0 165.5 65.5t78.5 153.5t-32 149.5t-139 61.5t-181.5 -78t-68 -188t73 -137t103.5 -27zM725 1057q-96 -96 -231 -96t-203.5 90.5t-46.5 217.5t116 214.5t230 87.5t201 -98h4l12 81h106l-90 -577h-106l12 80h-4z" />
    <glyph glyph-name="guillemotleft" unicode="&#xab;" horiz-adv-x="1024" 
d="M909 152l-123 -84l-276 424l414 436l94 -86l-332 -350zM561 152l-123 -84l-276 424l413 436l95 -86l-332 -350z" />
    <glyph glyph-name="logicalnot" unicode="&#xac;" 
d="M1063 604h-832l25 160h991l-88 -553h-160z" />
    <glyph glyph-name="hyphen" unicode="&#xad;" horiz-adv-x="425" 
d="M514 569l-25 -151h-419l24 151h420z" />
    <glyph glyph-name="hyphen" unicode="&#x2010;" horiz-adv-x="425" 
d="M514 569l-25 -151h-419l24 151h420z" />
    <glyph glyph-name="registered" unicode="&#xae;" horiz-adv-x="1638" 
d="M815 -27q-168 0 -305 62.5t-228.5 170t-130 254t-12 312.5t111.5 312.5t210 254t281.5 170t324.5 62.5t305 -62.5t228.5 -170t131.5 -254t13 -312.5t-113 -312.5t-211 -254t-281.5 -170t-324.5 -62.5zM833.5 96q137.5 0 269.5 52.5t239.5 144.5t182 215t97.5 264t-13 264
t-114 215t-193.5 144.5t-253 52.5t-269.5 -52.5t-239.5 -144.5t-181 -215t-96 -264t12 -264t113.5 -215t193.5 -144.5t252 -52.5zM1094 1214q141 0 218.5 -52t56.5 -180t-109.5 -182.5t-206.5 -56.5l200 -403h-147l-199 403h-147l-64 -403h-123l140 874h381zM928 866
q41 0 92 -1t98 8.5t83 34t43 67.5q12 71 -48.5 94t-146.5 23h-234l-35 -226h148z" />
    <glyph glyph-name="macron" unicode="&#xaf;" horiz-adv-x="1021" 
d="M1083 1397l-22 -140h-701l23 140h700z" />
    <glyph glyph-name="degree" unicode="&#xb0;" horiz-adv-x="819" 
d="M359.5 1045.5q-76.5 89.5 -58.5 215.5t123 218t232.5 92t204.5 -92t56 -220t-128 -215.5t-230 -87.5t-199.5 89.5zM438 1115.5q51 -60.5 139 -60.5t159 60.5t83 148t-39.5 148.5t-139.5 61t-157 -63.5t-82 -148.5q-14 -85 37 -145.5z" />
    <glyph glyph-name="plusminus" unicode="&#xb1;" 
d="M872 1020l-49 -313h416l-27 -160h-415l-49 -314h-160l49 314h-416l27 160h416l49 313h159zM160 160h991l-25 -160h-991z" />
    <glyph glyph-name="twosuperior" unicode="&#xb2;" horiz-adv-x="755" 
d="M618 1464q-87 0 -143.5 -49t-71.5 -131h-122q25 126 125.5 206.5t231.5 80.5t226.5 -93t41.5 -215t-95 -161l-395 -367h403l-16 -106h-649l548 512q71 67 82 150q12 83 -33.5 128t-132.5 45z" />
    <glyph glyph-name="threesuperior" unicode="&#xb3;" horiz-adv-x="755" 
d="M612 1464q-139 0 -174 -137h-123q29 111 110 177.5t205 66.5t193.5 -70t53.5 -184q-10 -61 -53.5 -117.5t-108.5 -85.5q70 -29 94.5 -92.5t13.5 -134.5q-23 -131 -121 -203t-229 -72t-204.5 72.5t-57.5 183.5h123q-10 -72 35 -110.5t123 -38.5t137 49t71 127t-35 125
t-139 43l17 106q80 0 138.5 37t70.5 109t-34 110.5t-106 38.5z" />
    <glyph glyph-name="acute" unicode="&#xb4;" horiz-adv-x="733" 
d="M805 1446l-365 -316l-92 58l297 336z" />
    <glyph glyph-name="mu" unicode="&#xb5;" horiz-adv-x="1048" 
d="M575 125q104 0 157 76t77 225l84 537h164l-86 -555q-35 -208 -142.5 -321.5t-308.5 -113.5q-53 0 -99 16.5t-104 80.5l-96 -611h-164l238 1504h164l-84 -537q-24 -146 -4 -199t60 -77.5t144 -24.5z" />
    <glyph glyph-name="paragraph" unicode="&#xb6;" horiz-adv-x="1212" 
d="M805 1544h532l-20 -133h-119l-272 -1724h-133l272 1724h-166l-272 -1724h-133l141 893q-175 0 -274 117.5t-78 320.5q8 92 52 186t158 217t312 123z" />
    <glyph glyph-name="periodcentered" unicode="&#xb7;" horiz-adv-x="630" 
d="M416 637q47 0 75.5 -33t21.5 -80t-46 -81.5t-86 -34.5t-76 34.5t-20 81.5q6 47 45 80t86 33z" />
    <glyph glyph-name="periodcentered" unicode="&#x22c5;" horiz-adv-x="630" 
d="M416 637q47 0 75.5 -33t21.5 -80t-46 -81.5t-86 -34.5t-76 34.5t-20 81.5q6 47 45 80t86 33z" />
    <glyph glyph-name="periodcentered" unicode="&#x2219;" horiz-adv-x="630" 
d="M416 637q47 0 75.5 -33t21.5 -80t-46 -81.5t-86 -34.5t-76 34.5t-20 81.5q6 47 45 80t86 33z" />
    <glyph glyph-name="cedilla" unicode="&#xb8;" horiz-adv-x="665" 
d="M209 -408l-105 58l244 303l144 -62z" />
    <glyph glyph-name="onesuperior" unicode="&#xb9;" horiz-adv-x="755" 
d="M463 1448l76 106h229l-145 -925h-123l129 819h-166z" />
    <glyph glyph-name="ordmasculine" unicode="&#xba;" horiz-adv-x="690" 
d="M497.5 961q-67.5 0 -124 23.5t-94 64.5t-55 96t-7.5 118.5t44 120t85 97.5t114.5 65.5t133.5 24.5t126 -24.5t94 -65.5t55.5 -97.5t7 -120t-45 -118.5t-86 -96t-116 -64.5t-132 -23.5zM512 1051q150 0 201 85t57 130q14 88 -38 151.5t-149 63.5t-172 -63.5t-88 -152.5
t39 -151.5t150 -62.5z" />
    <glyph glyph-name="guillemotright" unicode="&#xbb;" horiz-adv-x="1024" 
d="M494 492l-222 350l123 86l275 -436l-412 -424l-94 84zM842 492l-221 350l122 86l275 -436l-412 -424l-94 84z" />
    <glyph glyph-name="onequarter" unicode="&#xbc;" horiz-adv-x="1892" 
d="M434 1448l76 106h229l-145 -925h-123l129 819h-166zM1729 256l-17 -106h-123l-24 -150h-123l24 150h-501l755 829l-114 -723h123zM1544 645h-4l-352 -389h295zM1659 1522l-1145 -1549l-82 50l1143 1548z" />
    <glyph glyph-name="onehalf" unicode="&#xbd;" horiz-adv-x="1892" 
d="M434 1448l76 106h229l-145 -925h-123l129 819h-166zM1504 836q-87 0 -144 -49.5t-70 -131.5h-123q20 123 123.5 205t234.5 82t208 -75t59 -198t-94 -196l-398 -367h404l-16 -106h-650l551 512q68 62 81 148t-33 131t-133 45zM1567 1522l-1145 -1549l-82 50l1143 1548z
" />
    <glyph glyph-name="threequarters" unicode="&#xbe;" horiz-adv-x="1892" 
d="M1769 256l-16 -106h-123l-24 -150h-123l24 150h-501l755 829l-114 -723h122zM1585 645h-4l-352 -389h295zM1778 1522l-1145 -1549l-82 50l1143 1548zM702 1464q-139 0 -174 -137h-122q29 111 109.5 177.5t204.5 66.5t193.5 -70t53.5 -184q-10 -61 -53.5 -117.5
t-108.5 -85.5q70 -29 94.5 -92.5t13.5 -134.5q-23 -131 -121 -203t-229 -72t-204.5 72.5t-57.5 183.5h123q-10 -72 35 -110.5t124 -38.5t137 49t70 127t-34.5 125t-139.5 43l17 106q80 0 138.5 37t70.5 109t-34 110.5t-106 38.5z" />
    <glyph glyph-name="questiondown" unicode="&#xbf;" horiz-adv-x="999" 
d="M827.5 557.5q79.5 -95.5 59.5 -238.5q-32 -184 -157 -241.5t-224.5 -87t-165 -69.5t-80.5 -142q-16 -102 34 -161.5t142 -59.5q137 0 193 100t43 201h170l-8 -109q-23 -152 -148 -251t-283 -99t-247.5 106t-63.5 271t152 266q61 47 141 72t150 45t122 57t63 111t-31 121
t-98 47q-95 0 -146 -57.5t-64 -139.5h-166q16 146 129 250t259 104q145 0 224.5 -95.5zM659.5 989q47.5 0 77 -33.5t21.5 -81t-47 -81t-86 -33.5t-76 33.5t-20.5 81t46 81t85 33.5z" />
    <glyph glyph-name="Agrave" unicode="&#xc0;" horiz-adv-x="1431" 
d="M457 438l-256 -438h-189l969 1618l438 -1618h-190l-113 438h-659zM913 1217l-362 -619h522zM926 2054l190 -336l-112 -57l-263 315z" />
    <glyph glyph-name="Aacute" unicode="&#xc1;" horiz-adv-x="1431" 
d="M457 438l-256 -438h-189l969 1618l438 -1618h-190l-113 438h-659zM913 1217l-362 -619h522zM1321 1976l-365 -315l-92 57l297 336z" />
    <glyph glyph-name="Acircumflex" unicode="&#xc2;" horiz-adv-x="1431" 
d="M457 438l-256 -438h-189l969 1618l438 -1618h-190l-113 438h-659zM913 1217l-362 -619h522zM1038 2040l281 -273l-133 -92l-178 174l-230 -174l-102 92z" />
    <glyph glyph-name="Atilde" unicode="&#xc3;" horiz-adv-x="1431" 
d="M457 438l-256 -438h-189l969 1618l438 -1618h-190l-113 438h-659zM913 1217l-362 -619h522zM1163 1882q66 0 129 98l84 -77q-39 -68 -103.5 -117t-131.5 -49t-154 47q-35 16 -69.5 30.5t-72.5 14.5t-63.5 -30t-48.5 -64l-88 80q47 61 102.5 111t130.5 50t160 -47
q35 -16 66 -31.5t59 -15.5z" />
    <glyph glyph-name="Adieresis" unicode="&#xc4;" horiz-adv-x="1431" 
d="M457 438l-256 -438h-189l969 1618l438 -1618h-190l-113 438h-659zM913 1217l-362 -619h522zM827 1974q47 0 74 -31.5t18.5 -78.5t-44 -79t-83 -32t-75 32t-19 79t45 78.5t83.5 31.5zM1231 1974q47 0 73.5 -31.5t18.5 -78.5t-44 -79t-83 -32t-74.5 32t-19.5 79t45 78.5
t84 31.5z" />
    <glyph glyph-name="Aring" unicode="&#xc5;" horiz-adv-x="1431" 
d="M457 438l-256 -438h-189l969 1618l438 -1618h-190l-113 438h-659zM913 1217l-362 -619h522zM981 1661q-84 0 -133 58.5t-36 140.5t80.5 141t150.5 59t132.5 -58t36.5 -140t-80 -141.5t-151 -59.5zM1028 1958q-41 0 -73.5 -27.5t-39 -68.5t17 -70t64.5 -29t74 29t39 70
t-17.5 68.5t-64.5 27.5z" />
    <glyph glyph-name="AE" unicode="&#xc6;" horiz-adv-x="2048" 
d="M455 434l-252 -434h-191l932 1544h678l45 -160h-625l119 -460h608l48 -160h-611l156 -604h627l43 -160h-805l-113 434h-659zM911 1202l-358 -608h516z" />
    <glyph glyph-name="Ccedilla" unicode="&#xc7;" horiz-adv-x="1468" 
d="M1088 1411q-132 0 -253.5 -52t-220 -140.5t-165 -204t-87 -242.5t10 -242.5t101.5 -203.5t177.5 -140.5t236.5 -52.5t261 56.5t237 148.5l-32 -213q-239 -152 -486 -152q-164 0 -300 62.5t-229 170t-135 252t-16 309.5t112.5 311.5t213.5 256t283.5 173t322.5 63.5
q260 0 439 -152l-35 -213q-78 96 -191 150.5t-245 54.5zM610 -408l-104 58l244 303l143 -62z" />
    <glyph glyph-name="Egrave" unicode="&#xc8;" horiz-adv-x="1093" 
d="M399 1544h801l-24 -160h-629l-72 -458h610l-26 -160h-610l-97 -606h629l-25 -160h-800zM786 2054l191 -336l-113 -57l-262 315z" />
    <glyph glyph-name="Eacute" unicode="&#xc9;" horiz-adv-x="1093" 
d="M399 1544h801l-24 -160h-629l-72 -458h610l-26 -160h-610l-97 -606h629l-25 -160h-800zM1151 1976l-365 -315l-92 57l297 336z" />
    <glyph glyph-name="Ecircumflex" unicode="&#xca;" horiz-adv-x="1093" 
d="M399 1544h801l-24 -160h-629l-72 -458h610l-26 -160h-610l-97 -606h629l-25 -160h-800zM868 2040l281 -273l-133 -92l-178 174l-230 -174l-102 92z" />
    <glyph glyph-name="Edieresis" unicode="&#xcb;" horiz-adv-x="1093" 
d="M399 1544h801l-24 -160h-629l-72 -458h610l-26 -160h-610l-97 -606h629l-25 -160h-800zM659.5 1974q47.5 0 74 -31.5t18 -78.5t-44 -79t-82.5 -32t-75 32t-19.5 79t45 78.5t84 31.5zM1063 1974q47 0 73.5 -31.5t18.5 -78.5t-44 -79t-83 -32t-74.5 32t-19.5 79t45 78.5
t84 31.5z" />
    <glyph glyph-name="Igrave" unicode="&#xcc;" horiz-adv-x="489" 
d="M332 0h-172l243 1544h172zM485 2054l191 -336l-113 -57l-262 315z" />
    <glyph glyph-name="Iacute" unicode="&#xcd;" horiz-adv-x="489" 
d="M332 0h-172l243 1544h172zM819 1976l-364 -315l-93 57l297 336z" />
    <glyph glyph-name="Icircumflex" unicode="&#xce;" horiz-adv-x="489" 
d="M332 0h-172l243 1544h172zM567 2040l281 -273l-133 -92l-178 174l-230 -174l-102 92z" />
    <glyph glyph-name="Idieresis" unicode="&#xcf;" horiz-adv-x="489" 
d="M332 0h-172l243 1544h172zM356 1974q47 0 74 -31.5t18.5 -78.5t-44 -79t-83 -32t-75 32t-19 79t45 78.5t83.5 31.5zM760 1974q47 0 73.5 -31.5t18.5 -78.5t-44 -79t-83 -32t-74.5 32t-19.5 79t45 78.5t84 31.5z" />
    <glyph glyph-name="Eth" unicode="&#xd0;" horiz-adv-x="1388" 
d="M690 1544q196 0 327.5 -38t246.5 -148q220 -220 163 -588q-61 -357 -344 -575q-219 -167 -385 -181t-256 -14h-286l120 758h-155l22 147h156l100 639h291zM477 160q159 0 278.5 33t232.5 124q219 177 267 455q43 289 -130 466q-89 91 -202.5 118.5t-250.5 27.5h-125
l-76 -479h274l-22 -147h-274l-97 -598h125z" />
    <glyph glyph-name="Ntilde" unicode="&#xd1;" horiz-adv-x="1708" 
d="M420 1610l1005 -1262l189 1196h172l-254 -1614l-1006 1260l-188 -1190h-172zM1002 1976q62 0 100.5 -14t73.5 -32t65.5 -33t66.5 -15q56 0 122 98l83 -77q-39 -68 -103 -117t-132 -49t-154 47q-35 16 -69.5 30.5t-72.5 14.5t-63.5 -30t-48.5 -64l-88 80q47 61 102.5 111
t117.5 50z" />
    <glyph glyph-name="Ograve" unicode="&#xd2;" horiz-adv-x="1765" 
d="M1130.5 1571q165.5 0 302 -62.5t229.5 -172t134 -255t14.5 -311.5t-113.5 -311.5t-214 -253t-283 -170t-321.5 -62.5t-302 62.5t-228.5 170t-133 253t-14.5 311.5t112.5 311.5t213 255t283 172t321.5 62.5zM1106 1411q-133 0 -256 -50t-222.5 -137t-167 -204t-88 -248
t10.5 -246.5t102.5 -202.5t179 -138.5t238.5 -51.5t255 51.5t223.5 138.5t168 202.5t89 246.5t-10.5 248t-102.5 204t-179 137t-240.5 50zM1092 2054l190 -336l-113 -57l-262 315z" />
    <glyph glyph-name="Oacute" unicode="&#xd3;" horiz-adv-x="1765" 
d="M1130.5 1571q165.5 0 302 -62.5t229.5 -172t134 -255t14.5 -311.5t-113.5 -311.5t-214 -253t-283 -170t-321.5 -62.5t-302 62.5t-228.5 170t-133 253t-14.5 311.5t112.5 311.5t213 255t283 172t321.5 62.5zM1106 1411q-133 0 -256 -50t-222.5 -137t-167 -204t-88 -248
t10.5 -246.5t102.5 -202.5t179 -138.5t238.5 -51.5t255 51.5t223.5 138.5t168 202.5t89 246.5t-10.5 248t-102.5 204t-179 137t-240.5 50zM1487 1976l-365 -315l-92 57l297 336z" />
    <glyph glyph-name="Ocircumflex" unicode="&#xd4;" horiz-adv-x="1765" 
d="M1130.5 1571q165.5 0 302 -62.5t229.5 -172t134 -255t14.5 -311.5t-113.5 -311.5t-214 -253t-283 -170t-321.5 -62.5t-302 62.5t-228.5 170t-133 253t-14.5 311.5t112.5 311.5t213 255t283 172t321.5 62.5zM1106 1411q-133 0 -256 -50t-222.5 -137t-167 -204t-88 -248
t10.5 -246.5t102.5 -202.5t179 -138.5t238.5 -51.5t255 51.5t223.5 138.5t168 202.5t89 246.5t-10.5 248t-102.5 204t-179 137t-240.5 50zM1204 2040l281 -273l-133 -92l-178 174l-230 -174l-102 92z" />
    <glyph glyph-name="Otilde" unicode="&#xd5;" horiz-adv-x="1765" 
d="M1130.5 1571q165.5 0 302 -62.5t229.5 -172t134 -255t14.5 -311.5t-113.5 -311.5t-214 -253t-283 -170t-321.5 -62.5t-302 62.5t-228.5 170t-133 253t-14.5 311.5t112.5 311.5t213 255t283 172t321.5 62.5zM1106 1411q-133 0 -256 -50t-222.5 -137t-167 -204t-88 -248
t10.5 -246.5t102.5 -202.5t179 -138.5t238.5 -51.5t255 51.5t223.5 138.5t168 202.5t89 246.5t-10.5 248t-102.5 204t-179 137t-240.5 50zM1329 1882q66 0 129 98l84 -77q-39 -68 -103.5 -117t-131.5 -49t-154 47q-35 16 -69.5 30.5t-72.5 14.5t-63.5 -30t-48.5 -64l-88 80
q47 61 103 111t118 50t99.5 -14t72.5 -32t65.5 -33t59.5 -15z" />
    <glyph glyph-name="Odieresis" unicode="&#xd6;" horiz-adv-x="1765" 
d="M1130.5 1571q165.5 0 302 -62.5t229.5 -172t134 -255t14.5 -311.5t-113.5 -311.5t-214 -253t-283 -170t-321.5 -62.5t-302 62.5t-228.5 170t-133 253t-14.5 311.5t112.5 311.5t213 255t283 172t321.5 62.5zM1106 1411q-133 0 -256 -50t-222.5 -137t-167 -204t-88 -248
t10.5 -246.5t102.5 -202.5t179 -138.5t238.5 -51.5t255 51.5t223.5 138.5t168 202.5t89 246.5t-10.5 248t-102.5 204t-179 137t-240.5 50zM995 1974q47 0 74 -31.5t18.5 -78.5t-44 -79t-83 -32t-75 32t-19.5 79t45 78.5t84 31.5zM1399 1974q47 0 73.5 -31.5t18.5 -78.5
t-44 -79t-83 -32t-74.5 32t-19.5 79t45 78.5t84 31.5z" />
    <glyph glyph-name="multiply" unicode="&#xd7;" 
d="M410 1020l321 -383l443 383l96 -113l-443 -383l322 -383l-133 -112l-320 383l-444 -383l-94 112l444 383l-323 383z" />
    <glyph glyph-name="Oslash" unicode="&#xd8;" horiz-adv-x="1765" 
d="M1483 1270q-150 141 -377 141q-265 0 -421.5 -137t-224 -254t-86.5 -239q-36 -231 72 -404zM903 133q131 0 255 51.5t223.5 138.5t168 202.5t86.5 238.5q34 235 -75 412l-1037 -893q150 -150 379 -150zM879 -27q-297 0 -492 191l-215 -184l-74 96l211 182
q-157 226 -108 512q27 166 112.5 311.5t212.5 255t283 172t321 62.5q293 0 486 -187l217 187l80 -92l-217 -187q160 -219 114 -522q-27 -166 -113.5 -311.5t-213.5 -253t-283 -170t-321 -62.5z" />
    <glyph glyph-name="Ugrave" unicode="&#xd9;" horiz-adv-x="1402" 
d="M722 133q85 0 172.5 36t139.5 87t87 119t59 250l145 919h172l-151 -966q-22 -141 -62.5 -240t-137.5 -187q-97 -87 -214 -132.5t-231 -45.5t-213 40t-164 118q-112 128 -101.5 254.5t21.5 192.5l151 966h172l-145 -919q-6 -43 -23.5 -148.5t37.5 -195.5q39 -72 120 -110
t166 -38zM911 2054l191 -336l-113 -57l-262 315z" />
    <glyph glyph-name="Uacute" unicode="&#xda;" horiz-adv-x="1402" 
d="M722 133q85 0 172.5 36t139.5 87t87 119t59 250l145 919h172l-151 -966q-22 -141 -62.5 -240t-137.5 -187q-97 -87 -214 -132.5t-231 -45.5t-213 40t-164 118q-112 128 -101.5 254.5t21.5 192.5l151 966h172l-145 -919q-6 -43 -23.5 -148.5t37.5 -195.5q39 -72 120 -110
t166 -38zM1307 1976l-365 -315l-92 57l297 336z" />
    <glyph glyph-name="Ucircumflex" unicode="&#xdb;" horiz-adv-x="1402" 
d="M722 133q85 0 172.5 36t139.5 87t87 119t59 250l145 919h172l-151 -966q-22 -141 -62.5 -240t-137.5 -187q-97 -87 -214 -132.5t-231 -45.5t-213 40t-164 118q-112 128 -101.5 254.5t21.5 192.5l151 966h172l-145 -919q-6 -43 -23.5 -148.5t37.5 -195.5q39 -72 120 -110
t166 -38zM1024 2040l281 -273l-134 -92l-178 174l-229 -174l-102 92z" />
    <glyph glyph-name="Udieresis" unicode="&#xdc;" horiz-adv-x="1402" 
d="M722 133q85 0 172.5 36t139.5 87t87 119t59 250l145 919h172l-151 -966q-22 -141 -62.5 -240t-137.5 -187q-97 -87 -214 -132.5t-231 -45.5t-213 40t-164 118q-112 128 -101.5 254.5t21.5 192.5l151 966h172l-145 -919q-6 -43 -23.5 -148.5t37.5 -195.5q39 -72 120 -110
t166 -38zM813 1974q47 0 73.5 -31.5t18.5 -78.5t-44 -79t-83 -32t-74.5 32t-19.5 79t45 78.5t84 31.5zM1216.5 1974q47.5 0 74 -31.5t18 -78.5t-44 -79t-82.5 -32t-75 32t-19.5 79t45 78.5t84 31.5z" />
    <glyph glyph-name="Yacute" unicode="&#xdd;" horiz-adv-x="1214" 
d="M260 1544h199l284 -688l502 688h199l-645 -880l-105 -664h-172l105 664zM1253 1976l-364 -315l-92 57l297 336z" />
    <glyph glyph-name="Thorn" unicode="&#xde;" horiz-adv-x="1030" 
d="M608 1257q100 0 197.5 -12t174.5 -70t105.5 -152.5t12.5 -194.5t-67.5 -189t-137.5 -151t-183.5 -80.5t-195.5 -18.5h-125l-61 -389h-172l243 1544h172l-45 -287h82zM528 549q251 0 317.5 97t80.5 186q25 165 -74.5 215.5t-286.5 50.5h-63l-88 -549h114z" />
    <glyph glyph-name="germandbls" unicode="&#xdf;" horiz-adv-x="1181" 
d="M822 1716q172 0 268.5 -109.5t70.5 -275.5q-16 -92 -72.5 -175t-146.5 -124q141 -53 209 -192.5t47 -280.5q-39 -255 -240 -418.5t-442 -167.5l25 152q179 12 318 129t167 291q14 86 -30 227.5t-326 165.5l22 152q183 0 240 95t67 154q14 100 -43 163t-140 63
q-183 0 -249 -123q-31 -53 -45 -128t-24 -132l-187 -1182h-164l129 811h-90l23 152h90l47 294q14 82 41 166t93 154t160.5 104.5t181.5 34.5z" />
    <glyph glyph-name="agrave" unicode="&#xe0;" horiz-adv-x="1181" 
d="M446.5 734.5q-104.5 -103.5 -128.5 -247.5t44.5 -253t217.5 -109t250 105t126 256t-47 251.5t-215 100.5t-247.5 -103.5zM530 -27q-205 0 -310 150t-71 361t183.5 358t359.5 147q98 0 178 -43t127 -121h4l21 138h164l-152 -963h-164l21 133h-4q-152 -160 -357 -160z
M717 1524l190 -336l-112 -58l-263 316z" />
    <glyph glyph-name="aacute" unicode="&#xe1;" horiz-adv-x="1181" 
d="M446.5 734.5q-104.5 -103.5 -128.5 -247.5t44.5 -253t217.5 -109t250 105t126 256t-47 251.5t-215 100.5t-247.5 -103.5zM530 -27q-205 0 -310 150t-71 361t183.5 358t359.5 147q98 0 178 -43t127 -121h4l21 138h164l-152 -963h-164l21 133h-4q-152 -160 -357 -160z
M1112 1446l-364 -316l-93 58l297 336z" />
    <glyph glyph-name="acircumflex" unicode="&#xe2;" horiz-adv-x="1181" 
d="M446.5 734.5q-104.5 -103.5 -128.5 -247.5t44.5 -253t217.5 -109t250 105t126 256t-47 251.5t-215 100.5t-247.5 -103.5zM530 -27q-205 0 -310 150t-71 361t183.5 358t359.5 147q98 0 178 -43t127 -121h4l21 138h164l-152 -963h-164l21 133h-4q-152 -160 -357 -160z
M829 1509l281 -272l-133 -92l-178 174l-230 -174l-102 92z" />
    <glyph glyph-name="atilde" unicode="&#xe3;" horiz-adv-x="1181" 
d="M446.5 734.5q-104.5 -103.5 -128.5 -247.5t44.5 -253t217.5 -109t250 105t126 256t-47 251.5t-215 100.5t-247.5 -103.5zM530 -27q-205 0 -310 150t-71 361t183.5 358t359.5 147q98 0 178 -43t127 -121h4l21 138h164l-152 -963h-164l21 133h-4q-152 -160 -357 -160z
M954 1352q67 0 129 98l84 -78q-39 -68 -103.5 -117t-129.5 -49t-156 47q-35 16 -69.5 30.5t-72.5 14.5t-63.5 -29.5t-48.5 -64.5l-88 80q47 61 102.5 111.5t117.5 50.5t101 -14.5t73 -31.5l65 -32.5t59 -15.5z" />
    <glyph glyph-name="adieresis" unicode="&#xe4;" horiz-adv-x="1181" 
d="M446.5 734.5q-104.5 -103.5 -128.5 -247.5t44.5 -253t217.5 -109t250 105t126 256t-47 251.5t-215 100.5t-247.5 -103.5zM530 -27q-205 0 -310 150t-71 361t183.5 358t359.5 147q98 0 178 -43t127 -121h4l21 138h164l-152 -963h-164l21 133h-4q-152 -160 -357 -160z
M618.5 1444q47.5 0 74 -32t18 -79t-44 -78.5t-82.5 -31.5t-75 31.5t-19.5 78.5t45 79t84 32zM1022 1444q47 0 73.5 -32t18.5 -79t-44 -78.5t-83 -31.5t-74.5 31.5t-19.5 78.5t45 79t84 32z" />
    <glyph glyph-name="aring" unicode="&#xe5;" horiz-adv-x="1181" 
d="M446.5 734.5q-104.5 -103.5 -128.5 -247.5t44.5 -253t217.5 -109t250 105t126 256t-47 251.5t-215 100.5t-247.5 -103.5zM530 -27q-205 0 -310 150t-71 361t183.5 358t359.5 147q98 0 178 -43t127 -121h4l21 138h164l-152 -963h-164l21 133h-4q-152 -160 -357 -160z
M772 1130q-84 0 -133 58.5t-36 141.5t81.5 141.5t151.5 58.5q82 0 131 -58.5t37 -139.5t-80 -141.5t-152 -60.5zM819 1427q-41 0 -73.5 -27.5t-39 -68.5t17.5 -69.5t64.5 -28.5t73.5 28.5t39 69.5t-17.5 68.5t-64.5 27.5z" />
    <glyph glyph-name="ae" unicode="&#xe6;" horiz-adv-x="1726" 
d="M1583 586q0 104 -66.5 178t-174 74t-204.5 -74t-130 -178h575zM365.5 413.5q-82.5 -43.5 -97.5 -126.5q-11 -84 70.5 -132t208.5 -26.5t172 69.5t52 96t-14.5 78.5t-75 57.5t-143.5 27t-172.5 -43.5zM592 838q-112 0 -305 -62l24 156q198 57 283 57q302 0 356 -198
q112 143 231 170.5t173 27.5q224 0 320.5 -158.5t54.5 -384.5h-758q-20 -136 53 -228.5t211 -92.5q181 0 324 199l127 -80q-90 -129 -215 -200t-253 -71q-260 0 -358 191q-143 -191 -391 -191q-161 0 -274.5 77t-90.5 232t157.5 237.5t291.5 82.5t264 -82q22 156 -27 237
t-198 81z" />
    <glyph glyph-name="ccedilla" unicode="&#xe7;" horiz-adv-x="974" 
d="M729 989q165 0 283 -96l-35 -217h-4q-101 162 -273 162q-145 0 -258.5 -104t-138 -251t52 -252.5t224.5 -105.5q185 0 338 166h4l-33 -219q-164 -99 -322 -99q-218 0 -341 145t-91 360q32 216 206.5 363.5t387.5 147.5zM365 -408l-105 58l244 303l143 -62z" />
    <glyph glyph-name="egrave" unicode="&#xe8;" horiz-adv-x="1062" 
d="M556 -27q-231 0 -338 142.5t-75 358.5q33 216 182.5 365.5t370.5 149.5t318.5 -157t50.5 -386h-756q-20 -134 53 -227.5t211 -93.5q183 0 324 199l127 -80q-90 -129 -215 -200t-253 -71zM913 586q0 106 -67 179t-174 73t-204 -74t-130 -178h575zM657 1524l191 -336
l-113 -58l-262 316z" />
    <glyph glyph-name="eacute" unicode="&#xe9;" horiz-adv-x="1062" 
d="M556 -27q-231 0 -338 142.5t-75 358.5q33 216 182.5 365.5t370.5 149.5t318.5 -157t50.5 -386h-756q-20 -134 53 -227.5t211 -93.5q183 0 324 199l127 -80q-90 -129 -215 -200t-253 -71zM913 586q0 106 -67 179t-174 73t-204 -74t-130 -178h575zM1053 1446l-365 -316
l-92 58l297 336z" />
    <glyph glyph-name="ecircumflex" unicode="&#xea;" horiz-adv-x="1062" 
d="M556 -27q-231 0 -338 142.5t-75 358.5q33 216 182.5 365.5t370.5 149.5t318.5 -157t50.5 -386h-756q-20 -134 53 -227.5t211 -93.5q183 0 324 199l127 -80q-90 -129 -215 -200t-253 -71zM913 586q0 106 -67 179t-174 73t-204 -74t-130 -178h575zM770 1509l281 -272
l-133 -92l-179 174l-229 -174l-102 92z" />
    <glyph glyph-name="edieresis" unicode="&#xeb;" horiz-adv-x="1062" 
d="M556 -27q-231 0 -338 142.5t-75 358.5q33 216 182.5 365.5t370.5 149.5t318.5 -157t50.5 -386h-756q-20 -134 53 -227.5t211 -93.5q183 0 324 199l127 -80q-90 -129 -215 -200t-253 -71zM913 586q0 106 -67 179t-174 73t-204 -74t-130 -178h575zM559 1444q47 0 73.5 -32
t18.5 -79t-44 -78.5t-83 -31.5t-74.5 31.5t-19.5 78.5t45 79t84 32zM962.5 1444q47.5 0 74 -32t18.5 -79t-44 -78.5t-83 -31.5t-75 31.5t-19.5 78.5t45 79t84 32z" />
    <glyph glyph-name="igrave" unicode="&#xec;" horiz-adv-x="536" 
d="M350 0h-164l152 963h164zM424 1524l190 -336l-112 -58l-262 316z" />
    <glyph glyph-name="iacute" unicode="&#xed;" horiz-adv-x="536" 
d="M350 0h-164l152 963h164zM758 1446l-365 -316l-92 58l297 336z" />
    <glyph glyph-name="icircumflex" unicode="&#xee;" horiz-adv-x="536" 
d="M350 0h-164l152 963h164zM506 1509l280 -272l-133 -92l-178 174l-229 -174l-103 92z" />
    <glyph glyph-name="idieresis" unicode="&#xef;" horiz-adv-x="536" 
d="M350 0h-164l152 963h164zM297 1444q47 0 73.5 -32t18.5 -79t-44 -78.5t-83 -31.5t-74.5 31.5t-19.5 78.5t45 79t84 32zM700.5 1444q47.5 0 74 -32t18 -79t-44 -78.5t-83 -31.5t-75 31.5t-19 78.5t45 79t84 32z" />
    <glyph glyph-name="eth" unicode="&#xf0;" horiz-adv-x="1148" 
d="M715 985q164 0 225 -58.5t74 -72.5q-51 250 -269 489l-301 -182l-67 84l295 178q-94 94 -228 185l107 94q45 -33 107.5 -78t140.5 -123l313 189l68 -84l-303 -185q20 -25 55 -66.5t163 -244.5t68 -586q-43 -269 -222 -409t-380 -140t-324.5 148t-93.5 353
q31 204 195.5 356.5t376.5 152.5zM993 483q25 145 -55 251t-227 106t-261.5 -103t-138.5 -258t60 -253.5t229 -98.5q147 0 257.5 105.5t135.5 250.5z" />
    <glyph glyph-name="ntilde" unicode="&#xf1;" horiz-adv-x="1081" 
d="M457 846q129 143 305 143q323 0 254 -418l-90 -571h-164l86 543q21 150 -2.5 222.5t-153.5 72.5q-209 0 -250 -159t-51 -222l-72 -457h-163l151 963h164l-18 -117h4zM903 1352q67 0 129 98l84 -78q-39 -68 -103.5 -117t-129.5 -49t-156 47q-35 16 -69.5 30.5t-72.5 14.5
t-63.5 -29.5t-48.5 -64.5l-88 80q47 61 103 111.5t118 50.5t99.5 -14.5t72.5 -31.5t65.5 -32.5t59.5 -15.5z" />
    <glyph glyph-name="ograve" unicode="&#xf2;" horiz-adv-x="1150" 
d="M571.5 -27q-104.5 0 -190.5 39t-144.5 107.5t-83 161t-8 199t70.5 198.5t133 161.5t177.5 109.5t205 40t192.5 -40t143 -109.5t82 -161.5t8.5 -198.5t-71 -199t-134.5 -161t-178 -107.5t-202.5 -39zM708.5 838q-75.5 0 -143 -29t-121 -77t-88 -112.5t-47 -138t3 -138
t53 -114t96 -77t134.5 -27.5t143.5 27.5t119.5 77t87 114t47.5 138t-3 138t-52.5 112.5t-95.5 77t-134 29zM700 1524l191 -336l-113 -58l-262 316z" />
    <glyph glyph-name="oacute" unicode="&#xf3;" horiz-adv-x="1150" 
d="M571.5 -27q-104.5 0 -190.5 39t-144.5 107.5t-83 161t-8 199t70.5 198.5t133 161.5t177.5 109.5t205 40t192.5 -40t143 -109.5t82 -161.5t8.5 -198.5t-71 -199t-134.5 -161t-178 -107.5t-202.5 -39zM708.5 838q-75.5 0 -143 -29t-121 -77t-88 -112.5t-47 -138t3 -138
t53 -114t96 -77t134.5 -27.5t143.5 27.5t119.5 77t87 114t47.5 138t-3 138t-52.5 112.5t-95.5 77t-134 29zM1096 1446l-365 -316l-92 58l297 336z" />
    <glyph glyph-name="ocircumflex" unicode="&#xf4;" horiz-adv-x="1150" 
d="M571.5 -27q-104.5 0 -190.5 39t-144.5 107.5t-83 161t-8 199t70.5 198.5t133 161.5t177.5 109.5t205 40t192.5 -40t143 -109.5t82 -161.5t8.5 -198.5t-71 -199t-134.5 -161t-178 -107.5t-202.5 -39zM708.5 838q-75.5 0 -143 -29t-121 -77t-88 -112.5t-47 -138t3 -138
t53 -114t96 -77t134.5 -27.5t143.5 27.5t119.5 77t87 114t47.5 138t-3 138t-52.5 112.5t-95.5 77t-134 29zM813 1509l281 -272l-133 -92l-179 174l-229 -174l-102 92z" />
    <glyph glyph-name="otilde" unicode="&#xf5;" horiz-adv-x="1150" 
d="M571.5 -27q-104.5 0 -190.5 39t-144.5 107.5t-83 161t-8 199t70.5 198.5t133 161.5t177.5 109.5t205 40t192.5 -40t143 -109.5t82 -161.5t8.5 -198.5t-71 -199t-134.5 -161t-178 -107.5t-202.5 -39zM708.5 838q-75.5 0 -143 -29t-121 -77t-88 -112.5t-47 -138t3 -138
t53 -114t96 -77t134.5 -27.5t143.5 27.5t119.5 77t87 114t47.5 138t-3 138t-52.5 112.5t-95.5 77t-134 29zM640 1446q62 0 100 -14.5t73 -31.5t65.5 -32.5t66.5 -15.5q58 0 122 98l84 -78q-39 -68 -103.5 -117t-129.5 -49t-156 47q-98 45 -139 45t-67 -29.5t-48 -64.5
l-88 80q47 61 102.5 111.5t117.5 50.5z" />
    <glyph glyph-name="odieresis" unicode="&#xf6;" horiz-adv-x="1150" 
d="M571.5 -27q-104.5 0 -190.5 39t-144.5 107.5t-83 161t-8 199t70.5 198.5t133 161.5t177.5 109.5t205 40t192.5 -40t143 -109.5t82 -161.5t8.5 -198.5t-71 -199t-134.5 -161t-178 -107.5t-202.5 -39zM708.5 838q-75.5 0 -143 -29t-121 -77t-88 -112.5t-47 -138t3 -138
t53 -114t96 -77t134.5 -27.5t143.5 27.5t119.5 77t87 114t47.5 138t-3 138t-52.5 112.5t-95.5 77t-134 29zM604 1444q47 0 74 -32t18.5 -79t-44.5 -78.5t-83 -31.5t-74.5 31.5t-19.5 78.5t45 79t84 32zM1008 1444q47 0 73.5 -32t18.5 -79t-44 -78.5t-83 -31.5t-75 31.5
t-19.5 78.5t45.5 79t84 32z" />
    <glyph glyph-name="divide" unicode="&#xf7;" 
d="M231 604h992l-27 -160h-991zM672 254q47 0 76.5 -35t21.5 -83t-48 -82t-87 -34t-77 34t-22 82t48.5 83t87.5 35zM795 1028q47 0 75.5 -35t20.5 -83t-48 -81.5t-87 -33.5t-77 33.5t-22 81.5t49.5 83t88.5 35z" />
    <glyph glyph-name="oslash" unicode="&#xf8;" horiz-adv-x="1150" 
d="M905 766q-72 72 -207 72t-248.5 -101.5t-140.5 -255.5q-19 -113 27 -207zM612 125q137 0 247 104.5t131 235.5t-23 217l-566 -489q74 -68 211 -68zM718 989q199 0 316 -112l156 135l67 -78l-157 -137q85 -131 55 -330t-202 -346.5t-365 -147.5q-192 0 -316 109l-159 -139
l-68 80l162 139q-89 137 -60 331t200.5 345t370.5 151z" />
    <glyph glyph-name="ugrave" unicode="&#xf9;" horiz-adv-x="1048" 
d="M575 125q104 0 157 76t77 225l84 537h164l-86 -555q-35 -208 -142.5 -321.5t-399.5 -113.5t-220 435l86 555h164l-84 -537q-24 -146 -4 -199t60 -77.5t144 -24.5zM649 1524l191 -336l-113 -58l-262 316z" />
    <glyph glyph-name="uacute" unicode="&#xfa;" horiz-adv-x="1048" 
d="M575 125q104 0 157 76t77 225l84 537h164l-86 -555q-35 -208 -142.5 -321.5t-399.5 -113.5t-220 435l86 555h164l-84 -537q-24 -146 -4 -199t60 -77.5t144 -24.5zM1044 1446l-364 -316l-92 58l297 336z" />
    <glyph glyph-name="ucircumflex" unicode="&#xfb;" horiz-adv-x="1048" 
d="M575 125q104 0 157 76t77 225l84 537h164l-86 -555q-35 -208 -142.5 -321.5t-399.5 -113.5t-220 435l86 555h164l-84 -537q-24 -146 -4 -199t60 -77.5t144 -24.5zM762 1509l280 -272l-133 -92l-178 174l-229 -174l-103 92z" />
    <glyph glyph-name="udieresis" unicode="&#xfc;" horiz-adv-x="1048" 
d="M575 125q104 0 157 76t77 225l84 537h164l-86 -555q-35 -208 -142.5 -321.5t-399.5 -113.5t-220 435l86 555h164l-84 -537q-24 -146 -4 -199t60 -77.5t144 -24.5zM553 1444q47 0 73.5 -32t18.5 -79t-44 -78.5t-83 -31.5t-74.5 31.5t-19.5 78.5t45 79t84 32zM956.5 1444
q47.5 0 74 -32t18 -79t-44 -78.5t-83 -31.5t-75 31.5t-19 78.5t45 79t84 32z" />
    <glyph glyph-name="yacute" unicode="&#xfd;" horiz-adv-x="1019" 
d="M147 963h191l231 -691l420 691h187l-949 -1504h-186l412 631zM1071 1446l-364 -316l-93 58l297 336z" />
    <glyph glyph-name="thorn" unicode="&#xfe;" horiz-adv-x="1181" 
d="M446 825q148 164 355 164q208 0 312 -150t71 -360t-182 -358t-361 -148q-98 0 -178 42t-127 120h-4l-107 -676h-164l355 2231h164l-138 -865h4zM506 733q-105 -105 -127 -248q-23 -144 46 -252t218 -108t249.5 105.5t125.5 256.5q25 150 -48 250.5t-216 100.5t-248 -105z
" />
    <glyph glyph-name="ydieresis" unicode="&#xff;" horiz-adv-x="1019" 
d="M147 963h191l231 -691l420 691h187l-949 -1504h-186l412 631zM549 1444q47 0 73.5 -32t18.5 -79t-44 -78.5t-83 -31.5t-74.5 31.5t-19.5 78.5t45 79t84 32zM952 1444q47 0 74 -32t18.5 -79t-44 -78.5t-83 -31.5t-75 31.5t-19.5 78.5t45 79t84 32z" />
    <glyph glyph-name="OE" unicode="&#x152;" horiz-adv-x="2437" 
d="M879 -27q-166 0 -302.5 62.5t-228.5 170t-133 253t-14.5 311.5t112.5 311.5t213 255t282.5 172t329.5 62.5t322 -87t226 -243h4l47 303h807l-25 -160h-635l-72 -458h617l-27 -160h-616l-96 -606h634l-24 -160h-807l47 297h-4q-182 -232 -373.5 -278t-283.5 -46z
M1106 1411q-133 0 -256 -50t-222.5 -137t-167 -204t-88 -248t10.5 -246.5t102.5 -202.5t179 -138.5t238.5 -51.5t255 51.5t223.5 138.5t168 202.5t89 246.5t-10.5 248t-102.5 204t-179 137t-240.5 50z" />
    <glyph glyph-name="oe" unicode="&#x153;" horiz-adv-x="1925" 
d="M1667 44q-125 -71 -259 -71t-234.5 61.5t-139.5 168.5q-122 -163 -260.5 -196.5t-222.5 -33.5t-170 39t-144.5 107.5t-83 161t0 250.5t195 308t382.5 150q135 -4 241.5 -63.5t147.5 -169.5q76 113 190.5 171t235.5 60q229 4 329 -156.5t52 -384.5h-760
q-20 -134 53 -227.5t212 -93.5q182 0 323 199l127 -80q-90 -129 -215 -200zM1778 586q0 105 -67.5 178.5t-174.5 73.5t-203 -73t-131 -179h576zM712.5 838q-75.5 0 -143 -29t-121 -77t-88 -112.5t-47 -138t3 -138t53.5 -114t96 -77t134 -27.5t143.5 27.5t119.5 77t87 114
t47.5 138t-3 138t-52.5 112.5t-95.5 77t-134 29z" />
    <glyph glyph-name="Scaron" unicode="&#x160;" horiz-adv-x="1144" 
d="M836 1411q-190 0 -249 -92.5t-67 -144.5q-14 -88 40.5 -139.5t162.5 -104.5l94 -45q170 -80 250 -173t53 -261q-32 -202 -196 -340t-356 -138t-305.5 109t-121.5 291l174 47q0 -124 71 -205.5t196.5 -81.5t235 87.5t128.5 213.5q25 170 -81.5 226.5t-155.5 80.5l-86 41
q-151 74 -201.5 132.5t-68 119t-4.5 147.5q25 169 170 279.5t323 110.5q129 0 224 -62.5t138 -177.5l-151 -88q-74 168 -217 168zM862 1675l-280 273l133 92l176 -174l231 174l103 -92z" />
    <glyph glyph-name="scaron" unicode="&#x161;" horiz-adv-x="817" 
d="M548 838q-44 0 -87 -30t-49 -70t9 -63.5t44 -43t65.5 -34.5t76.5 -33q100 -46 149 -108t30 -169q-20 -138 -130.5 -226t-238.5 -88t-207 64.5t-99 179.5l155 62q20 -68 55 -111t109 -43t125 41t60 100t-17.5 92t-70.5 57.5t-173 77t-102 224.5q20 121 115.5 196.5
t197.5 75.5q101 0 162 -51t84 -127l-149 -72q-10 39 -40 69t-74 30zM594 1145l-281 272l133 92l177 -174l231 174l102 -92z" />
    <glyph glyph-name="Ydieresis" unicode="&#x178;" horiz-adv-x="1214" 
d="M260 1544h199l284 -688l502 688h199l-645 -880l-105 -664h-172l105 664zM743.5 1974q47.5 0 74 -31.5t18 -78.5t-44 -79t-82.5 -32t-75 32t-19.5 79t45 78.5t84 31.5zM1147 1974q47 0 73.5 -31.5t18.5 -78.5t-44 -79t-83 -32t-74.5 32t-19.5 79t45 78.5t84 31.5z" />
    <glyph glyph-name="florin" unicode="&#x192;" 
d="M1218 1559q-44 0 -80 -12.5t-64 -53.5t-47 -92t-36 -94l-94 -279h246l-45 -139h-248l-221 -643q-60 -186 -100 -259t-70 -110q-76 -90 -181.5 -127t-209.5 -37l-103 8l58 154l69 -2q225 0 285.5 153.5t85.5 227.5l217 635h-168l45 139h172l109 324q58 177 146 270.5
t251 93.5q74 0 135 -26l-55 -154q-53 23 -97 23z" />
    <glyph glyph-name="circumflex" unicode="&#x2c6;" horiz-adv-x="962" 
d="M719 1509l280 -272l-133 -92l-178 174l-229 -174l-103 92z" />
    <glyph glyph-name="tilde" unicode="&#x2dc;" horiz-adv-x="1036" 
d="M582 1446q62 0 100.5 -14.5t73.5 -31.5t65.5 -32.5t66.5 -15.5q58 0 122 98l84 -78q-39 -68 -103.5 -117t-130.5 -49t-155 47q-98 45 -140 45q-41 0 -66.5 -29.5t-47.5 -64.5l-89 80q47 61 102.5 111.5t117.5 50.5z" />
    <glyph glyph-name="endash" unicode="&#x2013;" horiz-adv-x="1024" 
d="M1114 569l-24 -151h-1024l24 151h1024z" />
    <glyph glyph-name="emdash" unicode="&#x2014;" horiz-adv-x="2048" 
d="M1872 569l-25 -151h-1515l24 151h1516z" />
    <glyph glyph-name="quoteleft" unicode="&#x2018;" horiz-adv-x="591" 
d="M291 1049l315 522l105 -43l-277 -535z" />
    <glyph glyph-name="quoteright" unicode="&#x2019;" horiz-adv-x="591" 
d="M707 1516l-316 -523l-104 43l276 535z" />
    <glyph glyph-name="quotesinglbase" unicode="&#x201a;" horiz-adv-x="591" 
d="M496 172l-316 -524l-104 45l276 532z" />
    <glyph glyph-name="quotedblleft" unicode="&#x201c;" horiz-adv-x="935" 
d="M635 1049l315 522l105 -43l-277 -535zM291 1049l315 522l105 -43l-277 -535z" />
    <glyph glyph-name="quotedblright" unicode="&#x201d;" horiz-adv-x="935" 
d="M709 1516l-316 -523l-104 43l276 535zM1053 1516l-316 -523l-104 43l276 535z" />
    <glyph glyph-name="quotedblbase" unicode="&#x201e;" horiz-adv-x="950" 
d="M496 172l-316 -524l-104 45l276 532zM854 172l-315 -524l-105 45l277 532z" />
    <glyph glyph-name="dagger" unicode="&#x2020;" horiz-adv-x="1212" 
d="M934 1544l-60 -379h343l-25 -159h-342l-213 -1340h-168l213 1340h-342l25 159h342l59 379h168z" />
    <glyph glyph-name="daggerdbl" unicode="&#x2021;" horiz-adv-x="1212" 
d="M934 1544l-60 -379h343l-25 -159h-342l-119 -744h342l-24 -160h-342l-70 -436h-168l70 436h-342l24 160h342l119 744h-342l25 159h342l59 379h168z" />
    <glyph glyph-name="bullet" unicode="&#x2022;" horiz-adv-x="1212" 
d="M668 387q-80 0 -144.5 29.5t-109.5 82t-63.5 123t-6.5 150.5t53 150.5t101.5 123t136.5 83t155.5 30.5t145 -30.5t110 -83t63.5 -123t7 -150.5t-54 -150.5t-103.5 -123t-136 -82t-154.5 -29.5z" />
    <glyph glyph-name="ellipsis" unicode="&#x2026;" horiz-adv-x="2048" 
d="M377 203q47 0 75.5 -33t20.5 -80t-47 -82t-86 -35t-75.5 35t-20.5 82t47 80t86 33zM1057 203q47 0 75.5 -33t20.5 -80t-47 -82t-86 -35t-76 35t-20.5 82t47.5 80t86 33zM1737 203q47 0 75.5 -33t20.5 -80t-47 -82t-86 -35t-76 35t-20.5 82t47.5 80t86 33z" />
    <glyph glyph-name="perthousand" unicode="&#x2030;" horiz-adv-x="2482" 
d="M661 1571q145 0 230.5 -99.5t60.5 -238.5q-19 -136 -136.5 -236t-259.5 -100t-227 96t-63 238t136 241t259 99zM641 1440q-43 0 -84 -16.5t-74.5 -44t-57.5 -65.5t-30 -81t5.5 -80t37 -64.5t61.5 -44t79 -16.5t83.5 16.5t74.5 44t56.5 64.5t28.5 80t-5 81t-35.5 65.5
t-60.5 44t-79 16.5zM1550 1522l-1138 -1549l-80 54l1143 1544zM1330 647q71 0 130.5 -25.5t99 -71.5t57 -107.5t5.5 -133t-49 -132t-91.5 -106.5t-121 -72t-136 -26t-128 26t-98.5 71t-58 106.5t-6 133t49 133t90 107.5t119.5 71.5t137.5 25.5zM1311 516q-43 0 -84 -16.5
t-75 -44t-57.5 -65.5t-29.5 -81t5 -79.5t35.5 -64.5t60.5 -44.5t79 -16.5t84 16.5t75 44.5t57.5 64.5t29.5 79.5t-5 81t-36 65.5t-60.5 44t-78.5 16.5zM2170 647q71 0 130 -25.5t99 -71.5t57.5 -107.5t5 -133t-49 -132t-91 -106.5t-121 -72t-136 -26t-128 26t-98.5 71
t-58.5 106.5t-6 133t49.5 133t90 107.5t119.5 71.5t137.5 25.5zM2150 516q-43 0 -84 -16.5t-74.5 -44t-57 -65.5t-30 -81t5 -79.5t36 -64.5t60.5 -44.5t79 -16.5t84 16.5t74.5 44.5t57 64.5t30 79.5t-5 81t-36 65.5t-60.5 44t-79 16.5z" />
    <glyph glyph-name="guilsinglleft" unicode="&#x2039;" horiz-adv-x="675" 
d="M561 152l-123 -84l-276 424l413 436l95 -86l-332 -350z" />
    <glyph glyph-name="guilsinglright" unicode="&#x203a;" horiz-adv-x="675" 
d="M494 492l-222 350l123 86l275 -436l-412 -424l-94 84z" />
    <glyph glyph-name="trademark" unicode="&#x2122;" horiz-adv-x="1925" 
d="M1962 682h-123l117 739h-4l-412 -739h-80l-170 739h-4l-117 -739h-122l135 862h207l149 -620l354 620h205zM997 1421h-286l-117 -739h-123l117 739h-289l18 123h699z" />
    <glyph glyph-name="fraction" horiz-adv-x="329" 
d="M901 1522l-1145 -1549l-82 50l1143 1548z" />
    <glyph glyph-name="fi" horiz-adv-x="1062" 
d="M687 1552q-89 0 -119 -56t-54 -208l-53 -325h244l-23 -152h-244l-129 -811h-164l129 811h-90l23 152h90l61 383q10 59 25.5 127.5t61.5 128.5t118 87t137 27t121 -20l-26 -166q-60 22 -108 22zM877 0h-164l151 963h164zM1024 1442q47 0 75.5 -35t20.5 -83t-48 -82
t-87 -34t-76.5 34t-21.5 82t49 83t88 35z" />
    <glyph glyph-name="fl" horiz-adv-x="1026" 
d="M877 0h-164l268 1690h164zM687 1552q-89 0 -119 -56t-54 -208l-53 -325h244l-23 -152h-244l-129 -811h-164l129 811h-90l23 152h90l61 383q10 59 25.5 127.5t61.5 128.5t118 87t137 27t121 -20l-26 -166q-60 22 -108 22z" />
    <glyph glyph-name="breve" horiz-adv-x="993" 
d="M741 1327q108 0 183 139h141q-36 -125 -144 -201.5t-235 -76.5t-212 77.5t-81 200.5h142q16 -70 57 -104.5t149 -34.5z" />
    <glyph glyph-name="dotaccent" horiz-adv-x="733" 
d="M598 1466q47 0 74.5 -31.5t19.5 -78.5t-45 -79t-84 -32t-73.5 32t-18.5 79t44 78.5t83 31.5z" />
    <glyph glyph-name="ring" horiz-adv-x="716" 
d="M538 1130q-83 0 -132.5 58.5t-36.5 140.5t81.5 141.5t150.5 59.5q83 0 132 -58.5t37 -140.5t-80.5 -141.5t-151.5 -59.5zM586 1427q-41 0 -74 -27.5t-39 -68.5t17.5 -69.5t64.5 -28.5t74 28.5t39 69.5t-17.5 68.5t-64.5 27.5z" />
    <glyph glyph-name="hungarumlaut" horiz-adv-x="956" 
d="M451 1194l-78 23l174 331l151 -28zM772 1194l-78 23l174 331l152 -28z" />
    <glyph glyph-name="ogonek" horiz-adv-x="690" 
d="M461 0v-4q-185 -110 -197 -205q-8 -49 23.5 -70.5t84.5 -21.5t120 37l-43 -135q-65 -31 -121 -31q-104 0 -161.5 51t-44.5 135t75.5 144.5t132.5 99.5h131z" />
    <glyph glyph-name="caron" horiz-adv-x="962" 
d="M666 1145l-281 272l133 92l176 -174l232 174l102 -92z" />
    <glyph glyph-name="Lslash" horiz-adv-x="768" 
d="M260 653l-172 -100l25 164l172 100l114 727h172l-96 -614l293 172l-25 -164l-294 -172l-97 -606h426l-24 -160h-598z" />
    <glyph glyph-name="dotlessi" horiz-adv-x="536" 
d="M350 0h-164l152 963h164z" />
    <glyph glyph-name="lslash" horiz-adv-x="528" 
d="M303 758l-168 -101l23 146l168 100l125 787h163l-108 -676l168 100l-23 -145l-168 -101l-137 -868h-164z" />
    <glyph glyph-name="minus" 
d="M231 604h992l-27 -160h-991z" />
    </font>
</defs>
</svg>
