<?xml version="1.0" standalone="no"?>
<!DOCTYPE svg PUBLIC "-//W3C//DTD SVG 1.1//EN" "http://www.w3.org/Graphics/SVG/1.1/DTD/svg11.dtd" >
<svg xmlns="http://www.w3.org/2000/svg">
<metadata>
Created by FontPrep 20130207 at Mon Apr 27 13:26:28 2015
 By Martin
Copyright (c) 1987, 1991, 1993 Adobe Systems Incorporated.  All Rights Reserved.Futura is a registered trademark of Fundicion Tipografica Neufville S. A.
</metadata>
<defs>
<font id="107dc9eca3835f393ab314cf4b05a20a" horiz-adv-x='1024' >
  <font-face 
    font-family="FuturaLT-Oblique"
    font-weight="400"
    font-style="oblique"
    font-stretch="normal"
    units-per-em="2048"
    panose-1="2 0 5 4 3 0 0 9 0 4"
    ascent="1638"
    descent="-410"
    x-height="958"
    cap-height="1544"
    bbox="-330 -549 2523 2038"
    underline-thickness="102"
    underline-position="-153"
    slope="-9"
    unicode-range="U+0020-2122"
  />
<missing-glyph horiz-adv-x="1024" 
d="M102 1049h820v-1049h-820v1049zM905 16v1016h-786v-1016h786z" />
    <glyph glyph-name=".notdef" horiz-adv-x="1024" 
d="M102 1049h820v-1049h-820v1049zM905 16v1016h-786v-1016h786z" />
    <glyph glyph-name=".null" horiz-adv-x="0" 
 />
    <glyph glyph-name="nonmarkingreturn" horiz-adv-x="591" 
 />
    <glyph glyph-name="space" unicode=" " horiz-adv-x="591" 
 />
    <glyph glyph-name="exclam" unicode="!" horiz-adv-x="657" 
d="M362.5 205q49.5 0 79 -36t21.5 -84t-49 -83t-90.5 -35t-78 35t-20.5 83t48 84t89.5 36zM481 1544h185l-187 -1188h-184z" />
    <glyph glyph-name="quotedbl" unicode="&#x22;" horiz-adv-x="899" 
d="M629 1544l-144 -672h-127l70 672h201zM958 1544l-143 -672h-127l70 672h200z" />
    <glyph glyph-name="numbersign" unicode="#" 
d="M836 1470l-138 -397h254l135 397h162l-135 -397h189l-27 -164h-219l-105 -315h207l-26 -164h-240l-145 -430h-156l143 430h-252l-149 -430h-154l144 430h-205l26 164h236l104 315h-215l27 164h244l137 397h158zM541 594h252l104 315h-252z" />
    <glyph glyph-name="dollar" unicode="$" 
d="M707 160q97 20 169 97.5t91 180.5q21 136 -56 195t-116 82zM858 1761h103l-29 -184q228 -20 313 -238l-178 -92q-23 61 -61.5 96t-102.5 56l-76 -481q175 -85 263.5 -191.5t61.5 -278.5t-166.5 -313.5t-309.5 -167.5l-31 -194h-102l30 194q-177 4 -292 127t-115 303
l190 39q4 -131 58.5 -201.5t187.5 -87.5l98 615l-67 37q-55 31 -104.5 64.5t-82 77.5t-47 100.5t4.5 172t144.5 233.5t280.5 130zM801 1399q-82 -12 -146.5 -70.5t-76.5 -143.5t34.5 -137.5t120.5 -80.5z" />
    <glyph glyph-name="percent" unicode="%" horiz-adv-x="1449" 
d="M645 1577q74 0 134.5 -27.5t102.5 -75t61.5 -112t7 -138t-51.5 -137t-96.5 -110.5t-127 -75t-141 -28t-133 28t-103.5 75t-61.5 110.5t-7 137t51 138t95 112t126 75t143.5 27.5zM625 1454q-47 0 -93.5 -18.5t-83 -49t-62.5 -72.5t-34 -89t4.5 -88t40 -72t68.5 -49.5
t88 -18.5t93 18.5t84 49.5t63.5 72t34 88t-5 89t-41 72.5t-68.5 49t-88 18.5zM1464 1524l-1149 -1557l-86 51l1151 1559zM1163.5 670q73.5 0 134 -28t102.5 -75t61.5 -111.5t7 -138t-51.5 -137t-96 -110.5t-128 -75t-142.5 -28t-133 28t-102.5 75t-60.5 110.5t-7 137
t51.5 138t95 111.5t126 75t143.5 28zM967 480.5q-83 -66.5 -98 -161.5t45.5 -162t155 -67t176.5 65.5t100 161.5q12 97 -47.5 163.5t-154 66.5t-177.5 -66.5z" />
    <glyph glyph-name="ampersand" unicode="&#x26;" horiz-adv-x="1417" 
d="M786 195.5q92 56.5 199 148.5l-276 418l-21 -12q-45 -29 -216.5 -133.5t-123 -255.5t121.5 -186.5t148 -35.5q76 0 168 56.5zM883 1425q-113 0 -177 -104t42 -252l40 -65l27 16q33 23 120 80.5t103 160.5q12 78 -32.5 121t-122.5 43zM561 -33q-82 0 -163 34t-167 130.5
t-55 288.5t152 281.5t182 129.5l108 70q-143 173 -118 333t139.5 251.5t267.5 91.5t243 -88t66 -242t-155 -248t-187 -129l261 -389l213 209l104 -127l-225 -221l223 -342h-238l-135 209q-242 -242 -516 -242z" />
    <glyph glyph-name="quotesingle" unicode="'" horiz-adv-x="567" 
d="M629 1544l-144 -672h-127l70 672h201z" />
    <glyph glyph-name="parenleft" unicode="(" horiz-adv-x="598" 
d="M725 1544q-231 -374 -305.5 -829t-45.5 -676t62 -322l-170 -112q-144 411 -50 1027q39 252 134.5 529.5t241.5 495.5z" />
    <glyph glyph-name="parenright" unicode=")" horiz-adv-x="598" 
d="M530 1657q142 -403 52 -1026q-69 -425 -186 -670.5t-191 -355.5l-133 112q232 368 321 909.5t-33 917.5z" />
    <glyph glyph-name="asterisk" unicode="*" horiz-adv-x="884" 
d="M762 1544l-31 -194l182 98l54 -121l-191 -102l158 -103l-90 -118l-150 102l-32 -197h-142l33 199l-195 -100l-51 116l191 101l-156 102l82 117l166 -101l31 201h141z" />
    <glyph glyph-name="plus" unicode="+" 
d="M846 1049l-70 -437h436l-26 -176h-436l-70 -436h-176l69 436h-436l27 176h436l70 437h176z" />
    <glyph glyph-name="comma" unicode="," horiz-adv-x="591" 
d="M524 180l-358 -547l-107 48l316 563z" />
    <glyph glyph-name="hyphenminus" unicode="-" horiz-adv-x="679" 
d="M682 733l-25 -153h-448l24 153h449z" />
    <glyph glyph-name="period" unicode="." horiz-adv-x="591" 
d="M330 205q49 0 78.5 -36t21.5 -84t-49 -83t-90 -35t-78 35t-21 83t48.5 84t89.5 36z" />
    <glyph glyph-name="slash" unicode="/" horiz-adv-x="1128" 
d="M1335 1712l-1165 -1970l-135 65l1163 1971z" />
    <glyph glyph-name="zero" unicode="0" 
d="M585 -33q-99 0 -171 38t-122 100.5t-79 145.5t-41 172t-10 179t14 170t39 170t67 179t95 172t125.5 145.5t154.5 100.5t184.5 38t173 -38t143.5 -128t103 -315t-34 -451t-180 -396.5t-238.5 -226t-223.5 -55.5zM798 1413q-87 0 -166 -69.5t-173 -236.5t-110 -436.5
t60.5 -400.5t259 -131t282.5 258.5t113 344t16 153.5t-2 139.5t-20.5 139t-46 121t-78.5 86t-135 32.5z" />
    <glyph glyph-name="one" unicode="1" 
d="M469 1368l133 176h346l-243 -1544h-185l217 1368h-268z" />
    <glyph glyph-name="two" unicode="2" 
d="M610 1320.5q-97 -80.5 -129 -202.5h-192q60 212 207.5 335.5t350.5 123.5t327 -132t93 -321q-30 -188 -165 -327l-606 -621h622l-28 -176h-998l807 829q57 59 113.5 129t66.5 140t-6 123t-73 116.5t-175 63.5t-215 -80.5z" />
    <glyph glyph-name="three" unicode="3" 
d="M530.5 1479q131.5 98 323.5 98t300.5 -113.5t80.5 -302.5q-38 -240 -252 -348q104 -53 141 -155.5t19 -219.5q-34 -218 -195.5 -344.5t-361.5 -126.5t-318.5 115t-99.5 299h186q-4 -112 72.5 -179t196.5 -67t217.5 87t118.5 225q22 138 -56 219.5t-223 70.5l25 160
q298 0 344 248q16 117 -48 190.5t-174 73.5t-188 -60.5t-109 -160.5h-190q59 193 190.5 291z" />
    <glyph glyph-name="four" unicode="4" 
d="M1198 393l-27 -168h-176l-34 -225h-185l35 225h-762l1165 1385l-192 -1217h176zM940 1030h-4l-537 -637h439z" />
    <glyph glyph-name="five" unicode="5" 
d="M550 -33q-168 0 -285.5 72.5t-166.5 198.5l166 135q20 -96 110.5 -163t181.5 -67q170 0 295.5 112.5t149.5 264.5t-69 260.5t-240 108.5q-82 0 -166 -36t-145 -101h-37l363 792h618l-27 -176h-485l-147 -317l110 6q219 0 331 -159t79 -388q-34 -229 -177 -346t-253 -157
t-206 -40z" />
    <glyph glyph-name="six" unicode="6" 
d="M821 958q84 0 160 -40.5t153 -147t46 -306.5q-30 -200 -206 -348.5t-384 -148.5q-100 0 -186.5 39t-183.5 146.5t-64 308.5q18 117 83.5 216t147.5 191l639 709l125 -94l-500 -557l2 -4q84 36 168 36zM860.5 232.5q112.5 93.5 134.5 228.5t-62.5 230t-214.5 95
q-129 0 -244 -99.5t-134 -228.5q-20 -129 62 -224t214 -95t244.5 93.5z" />
    <glyph glyph-name="seven" unicode="7" 
d="M313 1368l27 176h1112l-1212 -1577l-134 92l1006 1309h-799z" />
    <glyph glyph-name="eight" unicode="8" 
d="M361 433q-20 -118 59 -206t194 -88t219.5 86t124.5 206t-56 205t-196 85t-222.5 -85t-122.5 -203zM1136.5 1455q108.5 -122 80.5 -308q-18 -115 -86 -204t-173 -142q110 -38 158 -139.5t29 -221.5q-18 -119 -70.5 -203.5t-128.5 -145t-169 -92.5t-244 -32t-269.5 126.5
t-87.5 336.5q21 128 99.5 228.5t203.5 142.5q-88 53 -126.5 142t-22.5 193t63 183.5t154.5 168.5t294 89t295 -122zM618 1333.5q-91 -79.5 -106 -178.5t53.5 -184.5t165.5 -85.5t193 85t112 186t-49 179t-172 78q-106 0 -197 -79.5z" />
    <glyph glyph-name="nine" unicode="9" 
d="M644 594q-91 0 -167 40t-153 143t-47 302t204.5 348.5t380.5 149.5q205 0 339 -145t102 -349q-18 -117 -84 -216t-150 -191l-639 -709l-123 96l500 555l-4 5q-68 -29 -159 -29zM990 854.5q107 96.5 126 225.5t-59.5 227t-209.5 98t-247.5 -94.5t-137.5 -229.5
q-22 -135 65.5 -229t221.5 -94t241 96.5z" />
    <glyph glyph-name="colon" unicode=":" horiz-adv-x="591" 
d="M330 205q49 0 78.5 -36t21.5 -84t-49 -83t-90 -35t-78 35t-21 83t48.5 84t89.5 36zM452.5 987q49.5 0 79 -36t21.5 -84t-48 -82.5t-89 -34.5t-79 34.5t-22 82.5t48 84t89.5 36z" />
    <glyph glyph-name="semicolon" unicode=";" horiz-adv-x="591" 
d="M508 180l-358 -547l-107 48l315 563zM549 987q49 0 78.5 -36t21.5 -84t-48 -82.5t-89 -34.5t-78.5 34.5t-21.5 82.5t48 84t89 36z" />
    <glyph glyph-name="less" unicode="&#x3c;" 
d="M1247 827l-833 -303l737 -303l-31 -192l-981 424l23 143l1116 424z" />
    <glyph glyph-name="equal" unicode="=" 
d="M1241 788l-29 -176h-1048l29 176h1048zM1186 436l-29 -176h-1048l28 176h1049z" />
    <glyph glyph-name="greater" unicode="&#x3e;" 
d="M229 1020l981 -424l-22 -143l-1116 -424l30 192l836 303l-739 303z" />
    <glyph glyph-name="question" unicode="?" horiz-adv-x="927" 
d="M816 1355q-46 48 -122 48t-135.5 -50t-73.5 -126q-4 -16 -2 -32.5t4 -33.5h-192l6 68q15 146 143.5 247t281.5 101q152 0 243 -104.5t65 -258.5q-10 -72 -50 -139t-99 -113t-133 -71t-122 -39q-87 -25 -134 -60t-57 -96q-11 -61 23 -104t98 -43t111.5 46t57.5 112h186
q-16 -132 -133.5 -231t-252.5 -99t-216 94t-61 234q30 185 162 241.5t212.5 83.5t144 65t77.5 125t-32 135zM504 205q49 0 78.5 -36t21.5 -84t-49 -83t-90 -35t-78 35t-21 83t48.5 84t89.5 36z" />
    <glyph glyph-name="at" unicode="@" horiz-adv-x="1638" 
d="M976 1022q-114 0 -204.5 -97t-107.5 -216q-17 -94 28.5 -164t126.5 -70q142 0 218.5 79.5t112.5 205.5q36 127 -12 194.5t-162 67.5zM1260 461q30 0 74 32.5t113 125.5t90 229q41 262 -92 413.5t-381 151.5t-455 -186.5t-251 -459.5t118.5 -454.5t428.5 -181.5t398 98
l133 -123q-138 -68 -268 -103.5t-301 -35.5t-305 60.5t-225 168t-130 255t-11 320.5t111.5 320.5t206.5 255t275.5 169t302.5 61.5q301 0 467 -178q199 -199 156 -468t-197 -437q-90 -98 -180.5 -140.5t-147.5 -39.5q-107 6 -107 128q-141 -127 -288 -127q-146 0 -232.5 110
t-60.5 269q30 196 169.5 342t311.5 146t262 -146l49 127h146l-187 -526q-46 -124 -34.5 -150t41.5 -26z" />
    <glyph glyph-name="A" unicode="A" horiz-adv-x="1439" 
d="M428 387l-238 -387h-206l991 1610l483 -1610h-207l-114 387h-709zM909 1188l-372 -625h548z" />
    <glyph glyph-name="B" unicode="B" horiz-adv-x="1095" 
d="M510 860q156 0 252 53.5t119 204.5q31 215 -94 234.5t-193 19.5h-53l-80 -512h49zM498 172q248 0 321.5 95t91 210t-87.5 172.5t-268 57.5h-119l-86 -535h148zM563 1544q253 0 395 -92.5t105 -331.5q-12 -86 -70.5 -171t-142.5 -122v-4q132 -24 199 -139t48 -242
q-34 -225 -205 -333.5t-400 -108.5h-361l244 1544h188z" />
    <glyph glyph-name="C" unicode="C" horiz-adv-x="1353" 
d="M876 143q242 0 443 160l-35 -227q-202 -109 -424 -109q-166 0 -302 61.5t-228 169t-133 253t-15 315.5t114.5 318.5t217.5 258t289 172t296 62.5q249 0 406 -104l-35 -224q-148 152 -394 152q-120 0 -239.5 -50.5t-269.5 -185.5t-190 -394t65 -393t208.5 -184.5
t225.5 -50.5z" />
    <glyph glyph-name="D" unicode="D" horiz-adv-x="1361" 
d="M694 1544q375 0 589.5 -197t155.5 -572t-334.5 -575t-660.5 -200h-313l244 1544h319zM420 176q509 0 655 214t184 455.5t-142.5 382t-508.5 140.5h-67l-189 -1192h68z" />
    <glyph glyph-name="E" unicode="E" horiz-adv-x="1067" 
d="M391 1544h830l-27 -176h-637l-70 -432h619l-27 -176h-618l-92 -584h637l-29 -176h-830z" />
    <glyph glyph-name="F" unicode="F" horiz-adv-x="970" 
d="M555 1368l-70 -434h537l-27 -176h-536l-121 -758h-193l244 1544h748l-27 -176h-555z" />
    <glyph glyph-name="G" unicode="G" horiz-adv-x="1597" 
d="M1101 1577q173 0 327.5 -78t246.5 -221l-155 -129q-66 113 -186 182.5t-255 69.5t-256 -49t-217 -134t-161 -200t-85 -240t8.5 -238.5t95 -201.5t167.5 -141.5t209 -53.5t203.5 36t176 98.5t140 146.5t78.5 178h-400l27 176h612l-10 -61q-50 -320 -288 -535t-481 -215
t-375 64.5t-220 175t-126 256t-12 308.5t111.5 310.5t211.5 258t283 174t330 63.5z" />
    <glyph glyph-name="H" unicode="H" horiz-adv-x="1382" 
d="M1204 922l99 622h192l-244 -1544h-192l117 741h-736l-116 -741h-193l244 1544h192l-98 -622h735z" />
    <glyph glyph-name="I" unicode="I" horiz-adv-x="475" 
d="M334 0h-193l244 1544h193z" />
    <glyph glyph-name="J" unicode="J" horiz-adv-x="741" 
d="M197 -33q-131 0 -230 68l121 164q61 -51 144 -51t134.5 42.5t82 105t45 135.5t24.5 132l154 981h192l-153 -981q-44 -270 -157.5 -433t-356.5 -163z" />
    <glyph glyph-name="K" unicode="K" horiz-adv-x="1228" 
d="M1239 1544h252l-803 -694l572 -850h-261l-467 719l-90 -74l-102 -645h-193l244 1544h193l-105 -670z" />
    <glyph glyph-name="L" unicode="L" horiz-adv-x="788" 
d="M369 176h469l-29 -176h-662l244 1544h193z" />
    <glyph glyph-name="M" unicode="M" horiz-adv-x="1742" 
d="M571 1020h-4l-342 -1020h-198l569 1610l338 -1217l723 1217l61 -1610h-198l-19 1020h-4l-631 -1053z" />
    <glyph glyph-name="N" unicode="N" horiz-adv-x="1607" 
d="M385 1618l967 -1215l180 1141h192l-254 -1607l-966 1214l-182 -1151h-193z" />
    <glyph glyph-name="O" unicode="O" horiz-adv-x="1695" 
d="M1098 1577q166 0 303 -63.5t230 -173t134 -256t13 -315.5t-114.5 -316.5t-213.5 -255t-283.5 -169t-324.5 -61.5t-305.5 61.5t-229.5 169t-133 255t-13 316.5t114.5 315.5t213.5 256t285 173t324 63.5zM870 147q125 0 245 48.5t274.5 181.5t196.5 394t-64.5 393
t-212 182.5t-306 50.5t-403.5 -181.5t-246 -443.5q-23 -133 9 -246.5t103 -197.5t175 -132.5t229 -48.5z" />
    <glyph glyph-name="P" unicode="P" horiz-adv-x="1013" 
d="M612 1544q498 0 534 -170t18 -284q-34 -220 -203.5 -331.5t-407.5 -111.5h-111l-102 -647h-193l244 1544h221zM530 819q184 0 307 59t148 223t-84 217.5t-293 53.5h-51l-88 -553h61z" />
    <glyph glyph-name="Q" unicode="Q" horiz-adv-x="1695" 
d="M1098 1577q166 0 303 -63.5t230 -173t134 -256t14.5 -312.5t-113.5 -313.5t-218 -255.5l201 -236h-234l-110 137q-220 -137 -492 -137q-139 0 -276.5 61.5t-229.5 169t-133 255t-13 316.5t114.5 315.5t213.5 256t285 173t324 63.5zM1003.5 1397q-200.5 0 -403.5 -181.5
t-246 -443.5q-23 -133 9 -246.5t103 -197.5t175.5 -132.5t202.5 -48.5q198 0 348 89l-299 346h240l204 -242q149 114 216.5 308.5t18.5 395t-208.5 277t-360 76.5z" />
    <glyph glyph-name="R" unicode="R" horiz-adv-x="1112" 
d="M625 1544q104 0 207.5 -9t190.5 -64t124 -156t21 -198q-29 -180 -151.5 -303t-289.5 -142l381 -672h-234l-350 653h-80l-104 -653h-193l244 1544h234zM530 813q187 0 308.5 59.5t146.5 221.5t-84.5 220t-292.5 58h-51l-88 -559h61z" />
    <glyph glyph-name="S" unicode="S" horiz-adv-x="1099" 
d="M828 1397q-180 0 -243 -84t-70 -132q-12 -84 40 -136t139 -89l105 -43q180 -78 257.5 -182t48.5 -297t-195 -330t-361 -137t-309.5 120t-110.5 312l201 41q-20 -129 53.5 -211t195.5 -82t218.5 88t120.5 228.5t-76.5 199t-147.5 78.5l-98 45q-149 71 -223.5 156.5
t-50.5 235.5q27 178 181 288.5t337 110.5q129 0 221 -60.5t139 -173.5l-168 -92q-66 146 -204 146z" />
    <glyph glyph-name="T" unicode="T" horiz-adv-x="933" 
d="M563 0h-192l217 1368h-367l27 176h926l-27 -176h-367z" />
    <glyph glyph-name="U" unicode="U" horiz-adv-x="1370" 
d="M756 147q158 0 261.5 132t141.5 354l144 911h192l-154 -977q-41 -261 -221 -430.5t-440 -169.5t-386 171t-83 429l154 977h192l-143 -911q-58 -340 63 -413t279 -73z" />
    <glyph glyph-name="V" unicode="V" horiz-adv-x="1310" 
d="M721 401l639 1143h211l-926 -1626l-416 1626h211z" />
    <glyph glyph-name="W" unicode="W" horiz-adv-x="2103" 
d="M686 438l617 1139l256 -1139l606 1106h209l-895 -1605l-256 1132l-617 -1132l-387 1605h209z" />
    <glyph glyph-name="X" unicode="X" horiz-adv-x="1175" 
d="M303 1544h219l228 -563l424 563h219l-559 -735l340 -809h-216l-264 633l-479 -633h-215l614 809z" />
    <glyph glyph-name="Y" unicode="Y" horiz-adv-x="1173" 
d="M231 1544h222l274 -659l483 659h222l-641 -872l-107 -672h-192l106 672z" />
    <glyph glyph-name="Z" unicode="Z" horiz-adv-x="1130" 
d="M1143 176l-29 -176h-1096l1000 1368h-672l27 176h985l-998 -1368h783z" />
    <glyph glyph-name="bracketleft" unicode="[" horiz-adv-x="636" 
d="M279 -223h200l-28 -172h-390l326 2052h389l-26 -172h-201z" />
    <glyph glyph-name="backslash" unicode="\" horiz-adv-x="1128" 
d="M516 1778l547 -1778h-172l-547 1778h172z" />
    <glyph glyph-name="bracketright" unicode="]" horiz-adv-x="636" 
d="M559 1485h-201l27 172h389l-325 -2052h-390l29 172h201z" />
    <glyph glyph-name="asciicircum" unicode="^" 
d="M721 1544h229l267 -913h-193l-215 741l-451 -741h-190z" />
    <glyph glyph-name="underscore" unicode="_" horiz-adv-x="1024" 
d="M983 -256h-1024l16 102h1024z" />
    <glyph glyph-name="grave" unicode="`" horiz-adv-x="737" 
d="M563 1503l203 -340l-98 -55l-289 305z" />
    <glyph glyph-name="a" unicode="a" horiz-adv-x="1138" 
d="M805 230q96 99 123 249q33 233 -75.5 288.5t-180.5 55.5t-132.5 -28.5t-107.5 -76.5t-77.5 -109.5t-41 -129t0 -130t58.5 -140.5t192 -78q145 0 241 99zM662 987q106 0 183 -51t120 -137h4l24 159h185l-152 -958h-184l24 150h-4q-156 -183 -361 -183t-304.5 150.5
t-67.5 361.5t182.5 359.5t350.5 148.5z" />
    <glyph glyph-name="b" unicode="b" horiz-adv-x="1138" 
d="M855 231.5q97 100.5 122 247.5q33 232 -74.5 288t-180.5 56t-133.5 -28.5t-107.5 -76.5t-77.5 -109.5t-41 -129t0 -130t58.5 -140.5t192 -78q145 0 242 100.5zM428 799q157 188 360 188t304.5 -148t69.5 -358t-180.5 -362t-360.5 -152q-102 0 -178 50.5t-117 132.5h-4
l-25 -150h-184l280 1778h185l-154 -979h4z" />
    <glyph glyph-name="c" unicode="c" horiz-adv-x="903" 
d="M686 815q-132 0 -241 -99.5t-132 -240.5t55.5 -238.5t226.5 -97.5t279 127l-38 -235q-124 -64 -253 -64q-235 0 -361.5 143.5t-92.5 363.5t207.5 366.5t396.5 146.5q148 0 244 -63l-37 -238q-92 129 -254 129z" />
    <glyph glyph-name="d" unicode="d" horiz-adv-x="1138" 
d="M805 230q96 99 123 249q33 233 -75.5 288.5t-180.5 55.5t-132.5 -28.5t-107.5 -76.5t-77.5 -109.5t-41 -129t0 -130t58.5 -140.5t192 -78q145 0 241 99zM659 987q109 0 186 -51t120 -137h4l153 979h185l-281 -1778h-184l24 150h-4q-156 -183 -362 -183t-304.5 149
t-67.5 361q32 212 183 361t348 149z" />
    <glyph glyph-name="e" unicode="e" horiz-adv-x="999" 
d="M533 -33q-230 0 -334.5 142.5t-69.5 367.5t179 367.5t365 142.5t314 -142t57 -368l-4 -28h-731q-21 -128 45 -223t218 -95t292 186l142 -88q-88 -125 -217.5 -193.5t-255.5 -68.5zM652 827q-110 0 -193.5 -67.5t-118.5 -171.5h537q2 109 -56.5 174t-168.5 65z" />
    <glyph glyph-name="f" unicode="f" horiz-adv-x="563" 
d="M727 1630q-75 0 -109 -73.5t-53 -186.5l-65 -412h254l-27 -172h-254l-125 -786h-184l125 786h-84l26 172h84l74 467q41 266 160 321.5t199 55.5t135 -24l-29 -187q-27 12 -57.5 25.5t-69.5 13.5z" />
    <glyph glyph-name="g" unicode="g" horiz-adv-x="1136" 
d="M926 479q21 148 -46.5 246t-207.5 98t-239.5 -102t-121 -242t42.5 -244t206 -104q147 0 243 99t123 249zM860 150q-156 -183 -360 -183q-208 0 -306.5 149t-67.5 361q32 212 183 361t348 149q109 0 186 -51t118 -141h4l26 163h185l-150 -940q-39 -269 -165.5 -418
t-370.5 -149q-223 0 -333 117.5t-81 316.5h184q-20 -129 48.5 -199.5t195.5 -70.5q229 0 273 139.5t57 212.5l30 183h-4z" />
    <glyph glyph-name="h" unicode="h" horiz-adv-x="1071" 
d="M766 987q339 0 268 -416l-90 -571h-184l86 549q23 142 2 188.5t-59.5 66t-118.5 19.5q-148 0 -205.5 -104t-83.5 -279l-70 -440h-184l281 1778h184l-150 -949h4q55 78 140.5 118t179.5 40z" />
    <glyph glyph-name="i" unicode="i" horiz-adv-x="520" 
d="M352 0h-184l151 958h185zM502 1526q53 0 84.5 -38t22.5 -91t-52 -89t-96 -36t-84 35t-22 89t51.5 92t95.5 38z" />
    <glyph glyph-name="j" unicode="j" horiz-adv-x="520" 
d="M266 -549h-184l237 1507h185zM502 1526q53 0 84.5 -38t22.5 -91t-52 -89t-96 -36t-84 35t-22 89t51.5 92t95.5 38z" />
    <glyph glyph-name="k" unicode="k" horiz-adv-x="946" 
d="M418 598l418 360h243l-473 -397l363 -561h-240l-272 436l-74 -63l-59 -373h-185l281 1778h184z" />
    <glyph glyph-name="l" unicode="l" horiz-adv-x="454" 
d="M319 0h-184l281 1778h184z" />
    <glyph glyph-name="m" unicode="m" horiz-adv-x="1570" 
d="M719 987q176 0 250 -170q57 78 143 124t179 46q175 0 227 -112.5t24 -301.5l-90 -573h-184l86 543q17 127 3 177t-44.5 76.5t-98.5 26.5q-125 0 -181.5 -102.5t-80.5 -249.5l-73 -471h-185l80 508q23 137 11.5 194.5t-42 89t-99.5 31.5q-214 0 -265 -352l-74 -471h-184
l151 958h185l-19 -120h4q49 63 124 106t153 43z" />
    <glyph glyph-name="n" unicode="n" horiz-adv-x="1071" 
d="M766 987q339 0 268 -416l-90 -571h-184l86 549q23 142 2 188.5t-59.5 66t-118.5 19.5q-148 0 -205.5 -104t-83.5 -279l-70 -440h-184l152 958h184l-21 -129h4q55 78 140.5 118t179.5 40z" />
    <glyph glyph-name="o" unicode="o" horiz-adv-x="1105" 
d="M935.5 114.5q-172.5 -147.5 -388.5 -147.5q-215 0 -339 147t-91.5 362.5t204 363t387.5 147.5t341 -146t92 -362.5t-205.5 -364zM682 811q-68 0 -132.5 -26.5t-115.5 -71.5t-87 -106.5t-46 -129t5.5 -128t52 -106.5t93 -73t124 -27t132 27t115.5 73t87 106.5t46.5 128
t-5 129t-52.5 106.5t-93 71.5t-124 26.5z" />
    <glyph glyph-name="p" unicode="p" horiz-adv-x="1138" 
d="M855 231.5q97 100.5 122 247.5q33 232 -74.5 288t-180.5 56t-133.5 -28.5t-107.5 -76.5t-77.5 -109.5t-41 -129t0 -130t58.5 -140.5t192 -78q145 0 242 100.5zM428 799q157 188 360 188t304.5 -148t69.5 -358t-180.5 -362t-360.5 -152q-102 0 -178 50.5t-117 132.5h-4
l-111 -699h-184l237 1507h185l-25 -159h4z" />
    <glyph glyph-name="q" unicode="q" horiz-adv-x="1138" 
d="M805 230q96 99 123 249q33 233 -75.5 288.5t-180.5 55.5t-132.5 -28.5t-107.5 -76.5t-77.5 -109.5t-41 -129t0 -130t58.5 -140.5t192 -78q145 0 241 99zM659 987q109 0 186 -51t120 -137h4l24 159h185l-238 -1507h-184l110 699h-4q-156 -183 -362 -183t-304.5 149
t-67.5 361q32 212 183 361t348 149z" />
    <glyph glyph-name="r" unicode="r" horiz-adv-x="718" 
d="M672 811q-131 0 -191.5 -97t-83.5 -243l-73 -471h-185l152 958h184l-24 -155h6q47 86 122.5 135t162.5 49t151 -47l-111 -168q-40 39 -110 39z" />
    <glyph glyph-name="s" unicode="s" horiz-adv-x="786" 
d="M521 823q-40 0 -74.5 -26.5t-40.5 -62.5t9 -59.5t42.5 -44t65.5 -38t159 -73.5t98 -215q-22 -152 -133.5 -244.5t-233.5 -92.5t-204.5 56.5t-108.5 158.5l170 72q20 -53 54 -88t96 -35t112 37t58 87t-6.5 71.5t-42.5 44.5l-166 96q-80 43 -120 98t-25 155q15 101 111 184
t199 83q193 0 251 -168l-162 -80q-10 35 -39 59.5t-69 24.5z" />
    <glyph glyph-name="t" unicode="t" horiz-adv-x="491" 
d="M338 0h-184l125 786h-101l27 172h100l57 367h185l-58 -367h181l-27 -172h-180z" />
    <glyph glyph-name="u" unicode="u" horiz-adv-x="1048" 
d="M468.5 -33q-156.5 0 -237 117t-47.5 324l86 550h185l-84 -530q-51 -289 125.5 -289t234.5 76t82 213l84 530h184l-86 -550q-52 -316 -211 -378.5t-315.5 -62.5z" />
    <glyph glyph-name="v" unicode="v" horiz-adv-x="911" 
d="M512 360l371 598h207l-641 -991l-324 991h207z" />
    <glyph glyph-name="w" unicode="w" horiz-adv-x="1470" 
d="M510 348l387 664l176 -664l375 610h209l-645 -991l-178 641l-385 -641l-330 991h209z" />
    <glyph glyph-name="x" unicode="x" horiz-adv-x="1001" 
d="M207 958h217l178 -309l297 309h223l-422 -438l330 -520h-215l-254 389l-366 -389h-224l510 520z" />
    <glyph glyph-name="y" unicode="y" horiz-adv-x="991" 
d="M125 958h215l227 -608l398 608h206l-1013 -1507h-209l489 713z" />
    <glyph glyph-name="z" unicode="z" horiz-adv-x="1013" 
d="M1012 172l-27 -172h-981l774 786h-538l26 172h897l-774 -786h623z" />
    <glyph glyph-name="braceleft" unicode="{" horiz-adv-x="684" 
d="M688 1657h160l-27 -172h-82q-47 0 -61 -38t-23 -89l-59 -377q-23 -147 -90 -233.5t-121 -118.5q78 -59 96.5 -160.5t3.5 -189.5l-61 -377q-8 -51 -5 -89t50 -38h82l-29 -172h-160q-51 0 -100 79t-31 191l60 373q37 240 -105 309l23 150q168 70 203 309l59 372
q18 111 72.5 171.5t88.5 80t56 19.5z" />
    <glyph glyph-name="bar" unicode="|" horiz-adv-x="1167" 
d="M602 -438h-176l324 2048h176z" />
    <glyph glyph-name="braceright" unicode="}" horiz-adv-x="684" 
d="M195 -397h-160l28 172h82q47 0 60.5 37.5t21.5 89.5l62 377q25 155 95 242t116 108q-79 48 -97 156t-4 196l60 377q8 51 6 89t-49 38h-82l26 172h160q54 0 102.5 -79t28.5 -192l-59 -372q-33 -243 104 -309l-22 -150q-166 -69 -203 -309l-59 -373q-19 -116 -91.5 -193
t-125.5 -77z" />
    <glyph glyph-name="asciitilde" unicode="~" 
d="M857 332q-56 0 -111.5 32.5t-106.5 71.5t-93 72t-85 33q-77 0 -205 -168l-115 92q105 124 181 188t162 64t142 -33t101 -72t82 -71.5t85 -32.5t91 49t102 127l121 -102q-81 -113 -137.5 -158t-107 -68.5t-106.5 -23.5z" />
    <glyph glyph-name="Euro" 
d="M1056 1401q-211 0 -352 -132.5t-204 -326.5h731l-47 -119h-719q-6 -25 -6 -27q-1 -2 -7 -45q-6 -42 -6 -79h662l-47 -119h-612q9 -172 108 -291t301 -119q147 0 221 36t123 67l-33 -207q-146 -72 -304 -72q-292 0 -455.5 150t-163.5 436h-158l47 119h115q4 29 5 46.5
t4 37.5t4 27.5t2 11.5t2 10t5 18h-139l47 119h123q98 309 316 472t489 163q195 0 334 -84l-70 -174q-66 45 -134 63.5t-182 18.5z" />
    <glyph glyph-name="Euro" unicode="&#x20ac;" 
d="M1056 1401q-211 0 -352 -132.5t-204 -326.5h731l-47 -119h-719q-6 -25 -6 -27q-1 -2 -7 -45q-6 -42 -6 -79h662l-47 -119h-612q9 -172 108 -291t301 -119q147 0 221 36t123 67l-33 -207q-146 -72 -304 -72q-292 0 -455.5 150t-163.5 436h-158l47 119h115q4 29 5 46.5
t4 37.5t4 27.5t2 11.5t2 10t5 18h-139l47 119h123q98 309 316 472t489 163q195 0 334 -84l-70 -174q-66 45 -134 63.5t-182 18.5z" />
    <glyph glyph-name="Zcaron" horiz-adv-x="1130" 
d="M1143 176l-29 -176h-1096l1000 1368h-672l27 176h985l-998 -1368h783zM711 2038l174 -197l241 197l105 -94l-377 -297l-279 297z" />
    <glyph glyph-name="Zcaron" unicode="&#x17d;" horiz-adv-x="1130" 
d="M1143 176l-29 -176h-1096l1000 1368h-672l27 176h985l-998 -1368h783zM711 2038l174 -197l241 197l105 -94l-377 -297l-279 297z" />
    <glyph glyph-name="zcaron" horiz-adv-x="1013" 
d="M1012 172l-27 -172h-981l774 786h-538l26 172h897l-774 -786h623zM567 1503l176 -196l240 196l107 -94l-377 -297l-279 297z" />
    <glyph glyph-name="zcaron" unicode="&#x17e;" horiz-adv-x="1013" 
d="M1012 172l-27 -172h-981l774 786h-538l26 172h897l-774 -786h623zM567 1503l176 -196l240 196l107 -94l-377 -297l-279 297z" />
    <glyph glyph-name="nonbreakingspace" unicode="&#xa0;" horiz-adv-x="591" 
 />
    <glyph glyph-name="exclamdown" unicode="&#xa1;" horiz-adv-x="657" 
d="M493.5 1040q49.5 0 79 -35.5t21.5 -83.5t-48 -83t-89 -35t-79 34.5t-22 82.5t48 84t89.5 36zM526 662l-188 -1190h-184l188 1190h184z" />
    <glyph glyph-name="cent" unicode="&#xa2;" 
d="M932 1286q151 -9 242 -63l-39 -236h-5q-77 125 -225 129l-106 -672q151 19 270 127l-37 -239q-113 -49 -225 -58l-35 -2l-27 -174h-98l29 183q-184 29 -282.5 169t-65.5 322q29 194 172 338.5t334 171.5l26 160h98zM805 1104q-104 -11 -213 -138.5t-88 -268t82 -187.5
t116 -59z" />
    <glyph glyph-name="sterling" unicode="&#xa3;" 
d="M317 1104q31 196 210 334.5t384 138.5t316.5 -134t87.5 -345l-195 -70l8 57q20 129 -49 220.5t-196 91.5t-286.5 -132.5t-109.5 -271.5t69 -179t34 -79h303l-19 -119h-253q14 -96 -0.5 -176t-57.5 -176l144 -53q41 -16 89 -37.5t87 -21.5q65 0 104 37.5t96 113.5l140 -94
q-59 -102 -150.5 -172t-199.5 -70t-262.5 66.5t-229.5 66.5q-128 0 -203 -133l-147 82q70 96 150.5 161.5t201.5 70.5q41 88 56.5 171t-19.5 164h-264l18 119h205q-84 223 -62 369z" />
    <glyph glyph-name="currency" unicode="&#xa4;" 
d="M770.5 1126q173.5 0 288.5 -98l106 90l105 -123l-99 -90q67 -137 39 -295t-131 -286l70 -91l-141 -122l-80 90q-145 -99 -319.5 -99t-286.5 99l-109 -90l-104 122l98 91q-66 143 -40 293q26 151 132 288l-70 90l142 123l82 -90q144 98 317.5 98zM743 963q-155 0 -273 -99
t-138 -247t68.5 -249.5t234.5 -101.5t266.5 100.5t146.5 250.5q25 150 -62.5 248t-242.5 98z" />
    <glyph glyph-name="yen" unicode="&#xa5;" 
d="M688 0h-192l84 532h-484l19 119h483l4 21l-80 192h-372l18 119h303l-235 561h221l274 -659l483 659h222l-412 -561h303l-18 -119h-371l-143 -192l-4 -21h483l-19 -119h-483z" />
    <glyph glyph-name="brokenbar" unicode="&#xa6;" horiz-adv-x="1167" 
d="M643 -182h-176l80 512h176zM805 842h-176l82 512h176z" />
    <glyph glyph-name="section" unicode="&#xa7;" 
d="M877 508q59 35 103 93.5t52 108.5q13 80 -22.5 119t-102.5 74l-346 191q-61 -35 -104 -93.5t-51 -110.5q-13 -81 29.5 -126t111.5 -78zM1128.5 1684q102.5 -94 85.5 -250h-178q11 125 -74 153.5t-127 28.5q-82 0 -154.5 -60.5t-84.5 -144.5q-16 -111 47.5 -150.5
t93.5 -56.5l252 -137q43 -25 149 -88.5t84 -213.5q-15 -105 -80 -197.5t-157 -151.5q92 -100 68 -263t-172 -272.5t-338 -109.5q-191 0 -302.5 120t-78.5 320l6 31h182q-25 -126 38.5 -214.5t178.5 -88.5q116 0 201.5 65t101.5 173t-62.5 153t-111.5 63l-266 142
q-124 65 -178 128t-35 184q18 122 85 198.5t165 142.5q-76 106 -55 227q23 151 159 257t295 106q160 0 262.5 -94z" />
    <glyph glyph-name="dieresis" unicode="&#xa8;" horiz-adv-x="962" 
d="M491 1421q52 0 82.5 -35.5t21.5 -87.5t-50 -88t-93 -36t-83 35.5t-22 87.5t50.5 88t93.5 36zM923 1421q52 0 82.5 -35.5t21.5 -87.5t-50 -88t-93 -36t-83 35.5t-22 87.5t50.5 88t93.5 36z" />
    <glyph glyph-name="copyright" unicode="&#xa9;" horiz-adv-x="1638" 
d="M812 -33q-169 0 -305 62.5t-228.5 172t-131 256t-12 314.5t112.5 314.5t212 256t282.5 172t325.5 62.5t306 -62.5t229.5 -172t132.5 -256t13 -314.5t-113 -314.5t-213 -256t-284.5 -172t-326.5 -62.5zM1048 1446q-138 0 -269.5 -52.5t-238 -142.5t-179 -213t-95.5 -265
t11 -266t112 -214t192.5 -142.5t252.5 -52.5t269.5 52.5t238 142.5t180 214t96.5 266t-12 265t-113 213t-192.5 142.5t-252.5 52.5zM1033 1112q-165 0 -260 -99t-117 -238t49 -234t219 -95q205 0 280 183h125q-38 -142 -161 -228t-246 -86q-221 0 -324.5 134t-71.5 334
q33 199 174 329.5t347 130.5q143 0 234 -81t97 -224h-125q-6 86 -66.5 130t-153.5 44z" />
    <glyph glyph-name="ordfeminine" unicode="&#xaa;" horiz-adv-x="684" 
d="M511 1063q96 0 159 61t76 146q13 86 -30.5 147.5t-135.5 61.5t-174.5 -79t-63.5 -182t70 -129t99 -26zM705 1073q-99 -108 -232 -108t-200 91.5t-48 215.5q18 124 115 214.5t229 90.5t199 -113h2l16 95h121l-92 -574h-121l15 88h-4z" />
    <glyph glyph-name="guillemotleft" unicode="&#xab;" horiz-adv-x="1071" 
d="M983 264l-127 -84l-297 475l451 492l100 -84l-369 -408zM590 264l-127 -84l-297 475l450 492l101 -84l-369 -408z" />
    <glyph glyph-name="logicalnot" unicode="&#xac;" 
d="M1036 612h-872l29 176h1048l-88 -552h-176z" />
    <glyph glyph-name="hyphen" unicode="&#xad;" horiz-adv-x="679" 
d="M682 733l-25 -153h-448l24 153h449z" />
    <glyph glyph-name="hyphen" unicode="&#x2010;" horiz-adv-x="679" 
d="M682 733l-25 -153h-448l24 153h449z" />
    <glyph glyph-name="registered" unicode="&#xae;" horiz-adv-x="1638" 
d="M812 -33q-169 0 -305 62.5t-228.5 172t-131 256t-12 314.5t112.5 314.5t212 256t282.5 172t325.5 62.5t306 -62.5t229.5 -172t132.5 -256t13 -314.5t-113 -314.5t-213 -256t-284.5 -172t-326.5 -62.5zM1048 1446q-138 0 -269.5 -52.5t-238 -142.5t-179 -213t-95.5 -265
t11 -266t112 -214t192.5 -142.5t252.5 -52.5t269.5 52.5t238 142.5t180 214t96.5 266t-12 265t-113 213t-192.5 142.5t-252.5 52.5zM1081 1219q217 0 251 -84t24 -154q-18 -123 -96.5 -184t-184.5 -66l162 -418h-150l-163 418h-168l-68 -418h-131l143 906h381zM915 862
q45 0 96.5 -1t123.5 10.5t88 93.5q15 109 -65.5 115.5t-121.5 6.5h-225l-35 -225h139z" />
    <glyph glyph-name="macron" unicode="&#xaf;" horiz-adv-x="1024" 
d="M1108 1421l-23 -139h-739l23 139h739z" />
    <glyph glyph-name="degree" unicode="&#xb0;" horiz-adv-x="819" 
d="M358.5 1053q-75.5 90 -57.5 214t124 217t232 93t203.5 -90.5t56.5 -219t-127 -216.5t-231 -88t-200.5 90zM486.5 1414q-68.5 -61 -81.5 -147q-13 -85 35.5 -143.5t135.5 -58.5t157 60t82 146t-37.5 145t-136 59t-155 -61z" />
    <glyph glyph-name="plusminus" unicode="&#xb1;" 
d="M96 176h1049l-29 -176h-1048zM862 1151l-55 -354h436l-29 -176h-436l-55 -355h-176l55 355h-436l29 176h436l55 354h176z" />
    <glyph glyph-name="twosuperior" unicode="&#xb2;" horiz-adv-x="708" 
d="M378 1489q95 76 228 76t214.5 -79t63.5 -197q-19 -118 -98 -193l-374 -359h385l-19 -119h-649l518 498q89 85 103 160q13 75 -39 122.5t-124 47.5q-71 0 -127.5 -43t-72.5 -113h-137q33 123 128 199z" />
    <glyph glyph-name="threesuperior" unicode="&#xb3;" horiz-adv-x="708" 
d="M590 1458q-61 0 -112.5 -27.5t-61.5 -87.5h-137q75 234 331 234q122 0 199 -67.5t59 -182.5q-20 -136 -170 -209q137 -64 115 -229q-19 -124 -126.5 -201.5t-236.5 -77.5t-207.5 69.5t-66.5 180.5h131q-4 -131 162 -131q74 0 137.5 44t75.5 122t-41 124t-139 42l18 119
q86 0 145.5 33.5t69.5 104.5t-37 105.5t-108 34.5z" />
    <glyph glyph-name="acute" unicode="&#xb4;" horiz-adv-x="737" 
d="M805 1413l-383 -305l-82 55l309 340z" />
    <glyph glyph-name="mu" unicode="&#xb5;" horiz-adv-x="1048" 
d="M541 -33q-137 0 -230 90l-94 -606h-184l237 1507h185l-84 -530q-51 -289 125.5 -289t234.5 76t82 213l84 530h184l-86 -550q-52 -316 -211 -378.5t-243 -62.5z" />
    <glyph glyph-name="paragraph" unicode="&#xb6;" 
d="M768 1544h578l-27 -172h-125l-266 -1685h-172l266 1685h-127l-266 -1685h-172l141 893q-176 0 -273.5 117.5t-78.5 320.5q8 92 52 186t158 217t312 123z" />
    <glyph glyph-name="periodcentered" unicode="&#xb7;" horiz-adv-x="591" 
d="M399.5 643q49.5 0 78 -36t20.5 -84t-48 -82.5t-89.5 -34.5t-79 34.5t-21.5 82.5t49 84t90.5 36z" />
    <glyph glyph-name="periodcentered" unicode="&#x22c5;" horiz-adv-x="591" 
d="M399.5 643q49.5 0 78 -36t20.5 -84t-48 -82.5t-89.5 -34.5t-79 34.5t-21.5 82.5t49 84t90.5 36z" />
    <glyph glyph-name="periodcentered" unicode="&#x2219;" horiz-adv-x="591" 
d="M399.5 643q49.5 0 78 -36t20.5 -84t-48 -82.5t-89.5 -34.5t-79 34.5t-21.5 82.5t49 84t90.5 36z" />
    <glyph glyph-name="cedilla" unicode="&#xb8;" horiz-adv-x="675" 
d="M225 -371l-98 56l221 280l137 -59z" />
    <glyph glyph-name="onesuperior" unicode="&#xb9;" horiz-adv-x="708" 
d="M358 1425l88 119h238l-145 -926h-131l127 807h-177z" />
    <glyph glyph-name="ordmasculine" unicode="&#xba;" horiz-adv-x="663" 
d="M581.5 1577q69.5 0 127 -23.5t96.5 -64.5t55.5 -97.5t6 -122t-45.5 -120.5t-86 -96t-115.5 -64.5t-134 -23.5t-127 23.5t-95.5 64.5t-55.5 96t-7 120.5t45.5 122t86 97.5t115.5 64.5t134 23.5zM565 1470q-139 0 -200.5 -100t-40 -174t77 -99.5t121.5 -25.5t138 59t85 141
q13 83 -39 141t-142 58z" />
    <glyph glyph-name="guillemotright" unicode="&#xbb;" horiz-adv-x="1071" 
d="M539 655l-242 408l129 84l295 -492l-449 -475l-102 84zM932 655l-242 408l129 84l295 -492l-448 -475l-103 84z" />
    <glyph glyph-name="onequarter" unicode="&#xbc;" horiz-adv-x="1775" 
d="M307 1425l88 119h238l-146 -926h-131l127 807h-176zM1735 254l-21 -119h-100l-21 -135h-131l21 135h-498l762 834l-113 -715h101zM1556 590h-6l-305 -336h258zM1638 1524l-1149 -1557l-94 58l1147 1552z" />
    <glyph glyph-name="onehalf" unicode="&#xbd;" horiz-adv-x="1775" 
d="M483 1425h-176l88 119h238l-146 -926h-131zM1294.5 870.5q94.5 75.5 227.5 75.5t213.5 -78t64.5 -200q-24 -120 -98 -191l-375 -358h385l-18 -119h-650l519 498q94 89 105 162q10 73 -41 120t-124 47q-72 0 -128 -43t-72 -112h-138q35 123 129.5 198.5zM1532 1524
l-1149 -1557l-94 58l1147 1552z" />
    <glyph glyph-name="threequarters" unicode="&#xbe;" horiz-adv-x="1775" 
d="M1735 254l-21 -119h-100l-21 -135h-131l21 135h-498l762 834l-113 -715h101zM1556 590h-6l-305 -336h258zM633 1458q-61 0 -112.5 -27.5t-61.5 -87.5h-137q75 234 331 234q122 0 199 -67.5t59 -182.5q-20 -136 -170 -209q137 -64 115 -229q-19 -124 -126.5 -201.5
t-236.5 -77.5t-207.5 69.5t-66.5 180.5h131q-4 -131 162 -131q74 0 137.5 44t75.5 122t-41 124t-139 42l18 119q86 0 145.5 33.5t69.5 104.5t-37 105.5t-108 34.5zM1753 1524l-1149 -1557l-94 58l1147 1552z" />
    <glyph glyph-name="questiondown" unicode="&#xbf;" horiz-adv-x="927" 
d="M776.5 556.5q81.5 -94.5 61.5 -232.5q-30 -185 -150.5 -237.5t-211.5 -84t-155.5 -69.5t-78.5 -125t31.5 -135t122.5 -48t146.5 60t66.5 112.5t-5 69.5h193l-9 -68q-11 -142 -139.5 -245t-281.5 -103t-243.5 104t-67.5 259t151 254q59 45 132 69.5t121 38.5
q85 25 133.5 59.5t59.5 96.5q10 61 -24.5 104t-98.5 43t-110.5 -46t-57.5 -111h-186q16 133 134.5 231t251.5 98t214.5 -94.5zM620.5 1040q49.5 0 79 -35.5t21.5 -83.5t-48 -83t-89 -35t-79 34.5t-22 82.5t48 84t89.5 36z" />
    <glyph glyph-name="Agrave" unicode="&#xc0;" horiz-adv-x="1439" 
d="M428 387l-238 -387h-206l991 1610l483 -1610h-207l-114 387h-709zM909 1188l-372 -625h548zM920 2038l200 -340l-98 -56l-287 306z" />
    <glyph glyph-name="Aacute" unicode="&#xc1;" horiz-adv-x="1439" 
d="M428 387l-238 -387h-206l991 1610l483 -1610h-207l-114 387h-709zM909 1188l-372 -625h548zM1325 1948l-385 -306l-82 56l311 340z" />
    <glyph glyph-name="Acircumflex" unicode="&#xc2;" horiz-adv-x="1439" 
d="M428 387l-238 -387h-206l991 1610l483 -1610h-207l-114 387h-709zM909 1188l-372 -625h548zM1042 2038l283 -297l-137 -94l-176 196l-240 -196l-102 94z" />
    <glyph glyph-name="Atilde" unicode="&#xc3;" horiz-adv-x="1439" 
d="M428 387l-238 -387h-206l991 1610l483 -1610h-207l-114 387h-709zM909 1188l-372 -625h548zM828 1802q-40 0 -75.5 -30.5t-56.5 -63.5l-84 82l76 83q76 83 171 83t183.5 -54.5t137.5 -54.5q69 0 145 99l84 -80q-110 -168 -268 -168q-59 0 -162 53q-37 18 -74 34.5
t-77 16.5z" />
    <glyph glyph-name="Adieresis" unicode="&#xc4;" horiz-adv-x="1439" 
d="M428 387l-238 -387h-206l991 1610l483 -1610h-207l-114 387h-709zM909 1188l-372 -625h548zM814 1956q52 0 83 -36t22 -88t-50.5 -88t-93.5 -36t-82.5 36t-21.5 88t50 88t93 36zM1246 1956q52 0 83 -36t22 -88t-50 -88t-93 -36t-83 36t-22 88t50 88t93 36z" />
    <glyph glyph-name="Aring" unicode="&#xc5;" horiz-adv-x="1439" 
d="M428 387l-238 -387h-206l991 1610l483 -1610h-207l-114 387h-709zM909 1188l-372 -625h548zM982 1647q-79 0 -123 53t-31.5 131t73.5 132t140 54t124 -54.5t33 -131.5t-74.5 -130.5t-141.5 -53.5zM996 1739q38 0 71 26.5t39 65.5t-17.5 66.5t-61.5 27.5t-69.5 -27.5
t-38 -66.5t16 -65.5t60.5 -26.5z" />
    <glyph glyph-name="AE" unicode="&#xc6;" horiz-adv-x="2041" 
d="M449 387l-238 -387h-211l985 1544h676l51 -176h-633l117 -432h616l56 -176h-619l156 -584h637l49 -176h-831l-109 387h-702zM936 1161l-377 -598h549z" />
    <glyph glyph-name="Ccedilla" unicode="&#xc7;" horiz-adv-x="1353" 
d="M876 143q242 0 443 160l-35 -227q-202 -109 -424 -109q-166 0 -302 61.5t-228 169t-133 253t-15 315.5t114.5 318.5t217.5 258t289 172t296 62.5q249 0 406 -104l-35 -224q-148 152 -394 152q-120 0 -239.5 -50.5t-269.5 -185.5t-190 -394t65 -393t208.5 -184.5
t225.5 -50.5zM565 -371l-98 56l221 280l137 -59z" />
    <glyph glyph-name="Egrave" unicode="&#xc8;" horiz-adv-x="1067" 
d="M391 1544h830l-27 -176h-637l-70 -432h619l-27 -176h-618l-92 -584h637l-29 -176h-830zM774 2038l201 -340l-98 -56l-287 306z" />
    <glyph glyph-name="Eacute" unicode="&#xc9;" horiz-adv-x="1067" 
d="M391 1544h830l-27 -176h-637l-70 -432h619l-27 -176h-618l-92 -584h637l-29 -176h-830zM1139 1948l-385 -306l-82 56l311 340z" />
    <glyph glyph-name="Ecircumflex" unicode="&#xca;" horiz-adv-x="1067" 
d="M391 1544h830l-27 -176h-637l-70 -432h619l-27 -176h-618l-92 -584h637l-29 -176h-830zM881 2038l282 -297l-137 -94l-176 196l-240 -196l-102 94z" />
    <glyph glyph-name="Edieresis" unicode="&#xcb;" horiz-adv-x="1067" 
d="M391 1544h830l-27 -176h-637l-70 -432h619l-27 -176h-618l-92 -584h637l-29 -176h-830zM652 1956q52 0 83 -36t22 -88t-50 -88t-93 -36t-83 36t-22 88t50 88t93 36zM1084 1956q52 0 83 -36t22 -88t-50 -88t-93 -36t-83 36t-22 88t50 88t93 36z" />
    <glyph glyph-name="Igrave" unicode="&#xcc;" horiz-adv-x="475" 
d="M334 0h-193l244 1544h193zM457 2038l200 -340l-98 -56l-287 306z" />
    <glyph glyph-name="Iacute" unicode="&#xcd;" horiz-adv-x="475" 
d="M334 0h-193l244 1544h193zM821 1948l-385 -306l-82 56l312 340z" />
    <glyph glyph-name="Icircumflex" unicode="&#xce;" horiz-adv-x="475" 
d="M334 0h-193l244 1544h193zM559 2038l283 -297l-137 -94l-177 196l-239 -196l-103 94z" />
    <glyph glyph-name="Idieresis" unicode="&#xcf;" horiz-adv-x="475" 
d="M334 0h-193l244 1544h193zM331 1956q52 0 82.5 -36t21.5 -88t-50 -88t-93 -36t-83 36t-22 88t50.5 88t93.5 36zM763 1956q52 0 83.5 -36t21.5 -88t-51 -88t-93 -36t-83 36t-21 88t50.5 88t92.5 36z" />
    <glyph glyph-name="Eth" unicode="&#xd0;" horiz-adv-x="1361" 
d="M694 1544q375 0 589.5 -197t155.5 -572t-334.5 -575t-660.5 -200h-313l117 741h-131l26 164h131l101 639h319zM420 176q509 0 655 214t184 455.5t-142.5 382t-508.5 140.5h-67l-74 -463h274l-26 -164h-275l-88 -565h68z" />
    <glyph glyph-name="Ntilde" unicode="&#xd1;" horiz-adv-x="1607" 
d="M385 1618l967 -1215l180 1141h192l-254 -1607l-966 1214l-182 -1151h-193zM912 1802q-40 0 -75.5 -30.5t-56.5 -63.5l-84 82l76 83q76 83 170 83t183.5 -54.5t138.5 -54.5q69 0 145 99l84 -80q-110 -168 -268 -168q-59 0 -162 53q-37 18 -74 34.5t-77 16.5z" />
    <glyph glyph-name="Ograve" unicode="&#xd2;" horiz-adv-x="1695" 
d="M1098 1577q166 0 303 -63.5t230 -173t134 -256t13 -315.5t-114.5 -316.5t-213.5 -255t-283.5 -169t-324.5 -61.5t-305.5 61.5t-229.5 169t-133 255t-13 316.5t114.5 315.5t213.5 256t285 173t324 63.5zM870 147q125 0 245 48.5t274.5 181.5t196.5 394t-64.5 393
t-212 182.5t-306 50.5t-403.5 -181.5t-246 -443.5q-23 -133 9 -246.5t103 -197.5t175 -132.5t229 -48.5zM1067 2038l201 -340l-99 -56l-286 306z" />
    <glyph glyph-name="Oacute" unicode="&#xd3;" horiz-adv-x="1695" 
d="M1098 1577q166 0 303 -63.5t230 -173t134 -256t13 -315.5t-114.5 -316.5t-213.5 -255t-283.5 -169t-324.5 -61.5t-305.5 61.5t-229.5 169t-133 255t-13 316.5t114.5 315.5t213.5 256t285 173t324 63.5zM870 147q125 0 245 48.5t274.5 181.5t196.5 394t-64.5 393
t-212 182.5t-306 50.5t-403.5 -181.5t-246 -443.5q-23 -133 9 -246.5t103 -197.5t175 -132.5t229 -48.5zM1432 1948l-385 -306l-82 56l311 340z" />
    <glyph glyph-name="Ocircumflex" unicode="&#xd4;" horiz-adv-x="1695" 
d="M1098 1577q166 0 303 -63.5t230 -173t134 -256t13 -315.5t-114.5 -316.5t-213.5 -255t-283.5 -169t-324.5 -61.5t-305.5 61.5t-229.5 169t-133 255t-13 316.5t114.5 315.5t213.5 256t285 173t324 63.5zM870 147q125 0 245 48.5t274.5 181.5t196.5 394t-64.5 393
t-212 182.5t-306 50.5t-403.5 -181.5t-246 -443.5q-23 -133 9 -246.5t103 -197.5t175 -132.5t229 -48.5zM1169 2038l283 -297l-137 -94l-176 196l-240 -196l-102 94z" />
    <glyph glyph-name="Otilde" unicode="&#xd5;" horiz-adv-x="1695" 
d="M1098 1577q166 0 303 -63.5t230 -173t134 -256t13 -315.5t-114.5 -316.5t-213.5 -255t-283.5 -169t-324.5 -61.5t-305.5 61.5t-229.5 169t-133 255t-13 316.5t114.5 315.5t213.5 256t285 173t324 63.5zM870 147q125 0 245 48.5t274.5 181.5t196.5 394t-64.5 393
t-212 182.5t-306 50.5t-403.5 -181.5t-246 -443.5q-23 -133 9 -246.5t103 -197.5t175 -132.5t229 -48.5zM955 1802q-40 0 -75.5 -30.5t-56.5 -63.5l-84 82l76 83q76 83 170 83t183.5 -54.5t138.5 -54.5q69 0 145 99l84 -80q-110 -168 -268 -168q-59 0 -162 53
q-37 18 -74 34.5t-77 16.5z" />
    <glyph glyph-name="Odieresis" unicode="&#xd6;" horiz-adv-x="1695" 
d="M1098 1577q166 0 303 -63.5t230 -173t134 -256t13 -315.5t-114.5 -316.5t-213.5 -255t-283.5 -169t-324.5 -61.5t-305.5 61.5t-229.5 169t-133 255t-13 316.5t114.5 315.5t213.5 256t285 173t324 63.5zM870 147q125 0 245 48.5t274.5 181.5t196.5 394t-64.5 393
t-212 182.5t-306 50.5t-403.5 -181.5t-246 -443.5q-23 -133 9 -246.5t103 -197.5t175 -132.5t229 -48.5zM941 1956q52 0 83 -36t22 -88t-50.5 -88t-93.5 -36t-83 36t-21 88t50.5 88t92.5 36zM1373 1956q52 0 83 -36t22 -88t-50.5 -88t-93.5 -36t-82.5 36t-21.5 88t50 88
t93 36z" />
    <glyph glyph-name="multiply" unicode="&#xd7;" 
d="M356 1049l338 -400l465 400l103 -125l-461 -400l336 -399l-144 -125l-338 399l-465 -399l-102 125l463 399l-338 400z" />
    <glyph glyph-name="Oslash" unicode="&#xd8;" horiz-adv-x="1695" 
d="M870 147q125 0 245 48.5t274.5 181.5t197.5 395q31 211 -57 369l-1014 -865q149 -129 354 -129zM1444 1253q-140 144 -390 144q-251 0 -454 -181.5t-246 -443.5q-36 -220 72 -385zM842 -33q-287 0 -482 176l-245 -209l-95 109l246 209q-153 222 -104 520
q27 166 113.5 312.5t213.5 256t285 173t324 63.5q300 0 495 -197l228 195l92 -109l-232 -196q142 -223 99 -498q-29 -172 -116 -319.5t-214 -255t-283.5 -169t-324.5 -61.5z" />
    <glyph glyph-name="Ugrave" unicode="&#xd9;" horiz-adv-x="1370" 
d="M756 147q158 0 261.5 132t141.5 354l144 911h192l-154 -977q-41 -261 -221 -430.5t-440 -169.5t-386 171t-83 429l154 977h192l-143 -911q-58 -340 63 -413t279 -73zM905 2038l201 -340l-98 -56l-287 306z" />
    <glyph glyph-name="Uacute" unicode="&#xda;" horiz-adv-x="1370" 
d="M756 147q158 0 261.5 132t141.5 354l144 911h192l-154 -977q-41 -261 -221 -430.5t-440 -169.5t-386 171t-83 429l154 977h192l-143 -911q-58 -340 63 -413t279 -73zM1270 1948l-385 -306l-82 56l311 340z" />
    <glyph glyph-name="Ucircumflex" unicode="&#xdb;" horiz-adv-x="1370" 
d="M756 147q158 0 261.5 132t141.5 354l144 911h192l-154 -977q-41 -261 -221 -430.5t-440 -169.5t-386 171t-83 429l154 977h192l-143 -911q-58 -340 63 -413t279 -73zM1008 2038l282 -297l-137 -94l-176 196l-240 -196l-102 94z" />
    <glyph glyph-name="Udieresis" unicode="&#xdc;" horiz-adv-x="1370" 
d="M756 147q158 0 261.5 132t141.5 354l144 911h192l-154 -977q-41 -261 -221 -430.5t-440 -169.5t-386 171t-83 429l154 977h192l-143 -911q-58 -340 63 -413t279 -73zM779 1956q52 0 83 -36t22 -88t-50.5 -88t-93.5 -36t-82.5 36t-21.5 88t50 88t93 36zM1211 1956
q52 0 83 -36t22 -88t-50 -88t-93 -36t-83 36t-22 88t50 88t93 36z" />
    <glyph glyph-name="Yacute" unicode="&#xdd;" horiz-adv-x="1173" 
d="M231 1544h222l274 -659l483 659h222l-641 -872l-107 -672h-192l106 672zM1233 1948l-385 -306l-82 56l311 340z" />
    <glyph glyph-name="Thorn" unicode="&#xde;" horiz-adv-x="1013" 
d="M567 1257q498 0 534.5 -169.5t18.5 -284.5q-34 -221 -205 -332t-407 -111h-111l-57 -360h-193l244 1544h193l-45 -287h28zM485 532q184 0 307 59t148 224t-84 217.5t-293 52.5h-51l-88 -553h61z" />
    <glyph glyph-name="germandbls" unicode="&#xdf;" horiz-adv-x="1187" 
d="M862 1802q204 0 313 -123t78 -319q-35 -227 -249 -342q139 -48 202.5 -187t42.5 -282q-39 -258 -241.5 -426t-436.5 -156l29 172q160 0 298.5 115.5t164.5 279.5q25 164 -69 262t-273 111l29 180q119 0 209.5 80t109.5 198q18 119 -47.5 192t-175.5 73
q-248 0 -288 -205.5t-52 -279.5l-182 -1145h-185l125 791h-82l27 172h82l49 303q59 385 235.5 460.5t286.5 75.5z" />
    <glyph glyph-name="agrave" unicode="&#xe0;" horiz-adv-x="1138" 
d="M805 230q96 99 123 249q33 233 -75.5 288.5t-180.5 55.5t-132.5 -28.5t-107.5 -76.5t-77.5 -109.5t-41 -129t0 -130t58.5 -140.5t192 -78q145 0 241 99zM662 987q106 0 183 -51t120 -137h4l24 159h185l-152 -958h-184l24 150h-4q-156 -183 -361 -183t-304.5 150.5
t-67.5 361.5t182.5 359.5t350.5 148.5zM733 1503l203 -340l-98 -55l-289 305z" />
    <glyph glyph-name="aacute" unicode="&#xe1;" horiz-adv-x="1138" 
d="M805 230q96 99 123 249q33 233 -75.5 288.5t-180.5 55.5t-132.5 -28.5t-107.5 -76.5t-77.5 -109.5t-41 -129t0 -130t58.5 -140.5t192 -78q145 0 241 99zM662 987q106 0 183 -51t120 -137h4l24 159h185l-152 -958h-184l24 150h-4q-156 -183 -361 -183t-304.5 150.5
t-67.5 361.5t182.5 359.5t350.5 148.5zM1087 1413l-382 -305l-82 55l309 340z" />
    <glyph glyph-name="acircumflex" unicode="&#xe2;" horiz-adv-x="1138" 
d="M805 230q96 99 123 249q33 233 -75.5 288.5t-180.5 55.5t-132.5 -28.5t-107.5 -76.5t-77.5 -109.5t-41 -129t0 -130t58.5 -140.5t192 -78q145 0 241 99zM662 987q106 0 183 -51t120 -137h4l24 159h185l-152 -958h-184l24 150h-4q-156 -183 -361 -183t-304.5 150.5
t-67.5 361.5t182.5 359.5t350.5 148.5zM805 1503l282 -297l-135 -94l-178 197l-237 -197l-105 94z" />
    <glyph glyph-name="atilde" unicode="&#xe3;" horiz-adv-x="1138" 
d="M805 230q96 99 123 249q33 233 -75.5 288.5t-180.5 55.5t-132.5 -28.5t-107.5 -76.5t-77.5 -109.5t-41 -129t0 -130t58.5 -140.5t192 -78q145 0 241 99zM662 987q106 0 183 -51t120 -137h4l24 159h185l-152 -958h-184l24 150h-4q-156 -183 -361 -183t-304.5 150.5
t-67.5 361.5t182.5 359.5t350.5 148.5zM631 1421q88 0 176.5 -54t135.5 -54q46 0 82 31.5t65 66.5l84 -80q-110 -168 -269 -168q-62 0 -162 54q-37 18 -73.5 34.5t-76.5 16.5t-76 -31t-56 -63l-84 81q121 166 254 166z" />
    <glyph glyph-name="adieresis" unicode="&#xe4;" horiz-adv-x="1138" 
d="M805 230q96 99 123 249q33 233 -75.5 288.5t-180.5 55.5t-132.5 -28.5t-107.5 -76.5t-77.5 -109.5t-41 -129t0 -130t58.5 -140.5t192 -78q145 0 241 99zM662 987q106 0 183 -51t120 -137h4l24 159h185l-152 -958h-184l24 150h-4q-156 -183 -361 -183t-304.5 150.5
t-67.5 361.5t182.5 359.5t350.5 148.5zM579 1421q52 0 82.5 -35.5t21.5 -87.5t-50 -88t-93 -36t-83 35.5t-22 87.5t50.5 88t93.5 36zM1011 1421q52 0 82.5 -35.5t21.5 -87.5t-50 -88t-93 -36t-83 35.5t-22 87.5t50.5 88t93.5 36z" />
    <glyph glyph-name="aring" unicode="&#xe5;" horiz-adv-x="1138" 
d="M805 230q96 99 123 249q33 233 -75.5 288.5t-180.5 55.5t-132.5 -28.5t-107.5 -76.5t-77.5 -109.5t-41 -129t0 -130t58.5 -140.5t192 -78q145 0 241 99zM662 987q106 0 183 -51t120 -137h4l24 159h185l-152 -958h-184l24 150h-4q-156 -183 -361 -183t-304.5 150.5
t-67.5 361.5t182.5 359.5t350.5 148.5zM750 1133q-78 0 -123 53t-33 131t73.5 132t139.5 54t124 -55t29.5 -154.5t-94.5 -130t-116 -30.5zM765 1225q38 0 69.5 26.5t38 65.5t-17 66.5t-61.5 27.5t-70 -27.5t-38 -66.5t17.5 -65.5t61.5 -26.5z" />
    <glyph glyph-name="ae" unicode="&#xe6;" horiz-adv-x="1652" 
d="M1310 827q-110 0 -194 -67.5t-119 -171.5h537q2 109 -56 174t-168 65zM649 171.5q81 40.5 94 118.5t-59 117t-135 39q-62 0 -102.5 -9t-77.5 -29.5t-65 -50t-36.5 -91t59 -98.5t154.5 -37t168 40.5zM1171 -33q-209 0 -340 178q-74 -92 -182.5 -135t-196.5 -43
q-173 0 -275 81.5t-79 231.5t141 236t286 86t263 -88l11 66q39 248 -213 247q-168 0 -267 -30l25 164q137 26 238 26q100 0 147 -9t114 -41t97 -108q154 158 380 158t319 -140.5t59 -369.5l-4 -28h-731q-21 -129 44.5 -223.5t181.5 -94.5q117 0 190 50t139 136l141 -88
q-88 -125 -217 -193.5t-271 -68.5z" />
    <glyph glyph-name="ccedilla" unicode="&#xe7;" horiz-adv-x="903" 
d="M686 815q-132 0 -241 -99.5t-132 -240.5t55.5 -238.5t226.5 -97.5t279 127l-38 -235q-124 -64 -253 -64q-235 0 -361.5 143.5t-92.5 363.5t207.5 366.5t396.5 146.5q148 0 244 -63l-37 -238q-92 129 -254 129zM340 -371l-98 56l221 280l137 -59z" />
    <glyph glyph-name="egrave" unicode="&#xe8;" horiz-adv-x="999" 
d="M533 -33q-230 0 -334.5 142.5t-69.5 367.5t179 367.5t365 142.5t314 -142t57 -368l-4 -28h-731q-21 -128 45 -223t218 -95t292 186l142 -88q-88 -125 -217.5 -193.5t-255.5 -68.5zM652 827q-110 0 -193.5 -67.5t-118.5 -171.5h537q2 109 -56.5 174t-168.5 65zM664 1503
l202 -340l-98 -55l-289 305z" />
    <glyph glyph-name="eacute" unicode="&#xe9;" horiz-adv-x="999" 
d="M533 -33q-230 0 -334.5 142.5t-69.5 367.5t179 367.5t365 142.5t314 -142t57 -368l-4 -28h-731q-21 -128 45 -223t218 -95t292 186l142 -88q-88 -125 -217.5 -193.5t-255.5 -68.5zM652 827q-110 0 -193.5 -67.5t-118.5 -171.5h537q2 109 -56.5 174t-168.5 65zM1018 1413
l-383 -305l-82 55l309 340z" />
    <glyph glyph-name="ecircumflex" unicode="&#xea;" horiz-adv-x="999" 
d="M533 -33q-230 0 -334.5 142.5t-69.5 367.5t179 367.5t365 142.5t314 -142t57 -368l-4 -28h-731q-21 -128 45 -223t218 -95t292 186l142 -88q-88 -125 -217.5 -193.5t-255.5 -68.5zM652 827q-110 0 -193.5 -67.5t-118.5 -171.5h537q2 109 -56.5 174t-168.5 65zM735 1503
l283 -297l-135 -94l-178 197l-238 -197l-105 94z" />
    <glyph glyph-name="edieresis" unicode="&#xeb;" horiz-adv-x="999" 
d="M533 -33q-230 0 -334.5 142.5t-69.5 367.5t179 367.5t365 142.5t314 -142t57 -368l-4 -28h-731q-21 -128 45 -223t218 -95t292 186l142 -88q-88 -125 -217.5 -193.5t-255.5 -68.5zM652 827q-110 0 -193.5 -67.5t-118.5 -171.5h537q2 109 -56.5 174t-168.5 65zM509 1421
q52 0 83.5 -35.5t21.5 -87.5t-51 -88t-93 -36t-83 35.5t-21 87.5t50.5 88t92.5 36zM941 1421q52 0 83.5 -35.5t21.5 -87.5t-51 -88t-93 -36t-83 35.5t-21 87.5t50.5 88t92.5 36z" />
    <glyph glyph-name="igrave" unicode="&#xec;" horiz-adv-x="520" 
d="M352 0h-184l151 958h185zM393 1503l203 -340l-98 -55l-289 305z" />
    <glyph glyph-name="iacute" unicode="&#xed;" horiz-adv-x="520" 
d="M352 0h-184l151 958h185zM758 1413l-383 -305l-82 55l309 340z" />
    <glyph glyph-name="icircumflex" unicode="&#xee;" horiz-adv-x="520" 
d="M352 0h-184l151 958h185zM496 1503l282 -297l-135 -94l-178 197l-238 -197l-104 94z" />
    <glyph glyph-name="idieresis" unicode="&#xef;" horiz-adv-x="520" 
d="M352 0h-184l151 958h185zM269 1421q52 0 83 -35.5t22 -87.5t-50.5 -88t-93.5 -36t-82.5 35.5t-21.5 87.5t50 88t93 36zM701 1421q52 0 83 -35.5t22 -87.5t-50 -88t-93 -36t-83 35.5t-22 87.5t50 88t93 36z" />
    <glyph glyph-name="eth" unicode="&#xf0;" horiz-adv-x="1105" 
d="M682 811q-68 0 -132.5 -26.5t-115.5 -71.5t-87 -106.5t-46 -129t5.5 -128t52 -106.5t93 -73t124 -27t132 27t115.5 73t87 106.5t46.5 128t-5 129t-52.5 106.5t-93 71.5t-124 26.5zM546 -33q-108 0 -194 39t-144 107.5t-83 162t-0.5 255t196 309t388.5 147.5
q84 0 130 -24.5t76 -44.5q-80 249 -213 450l-329 -172l-72 111l324 170q-86 116 -193 215l133 104q111 -88 228 -231l323 170l68 -113l-314 -166q241 -352 276.5 -662t-77 -512.5t-264 -258.5t-259.5 -56z" />
    <glyph glyph-name="ntilde" unicode="&#xf1;" horiz-adv-x="1071" 
d="M766 987q339 0 268 -416l-90 -571h-184l86 549q23 142 2 188.5t-59.5 66t-118.5 19.5q-148 0 -205.5 -104t-83.5 -279l-70 -440h-184l152 958h184l-21 -129h4q55 78 140.5 118t179.5 40zM598 1421q88 0 176.5 -54t135.5 -54q46 0 82 31.5t65 66.5l84 -80
q-110 -168 -269 -168q-61 0 -161 54q-37 18 -74 34.5t-77 16.5t-75.5 -31t-56.5 -63l-84 81q121 166 254 166z" />
    <glyph glyph-name="ograve" unicode="&#xf2;" horiz-adv-x="1105" 
d="M935.5 114.5q-172.5 -147.5 -388.5 -147.5q-215 0 -339 147t-91.5 362.5t204 363t387.5 147.5t341 -146t92 -362.5t-205.5 -364zM682 811q-68 0 -132.5 -26.5t-115.5 -71.5t-87 -106.5t-46 -129t5.5 -128t52 -106.5t93 -73t124 -27t132 27t115.5 73t87 106.5t46.5 128
t-5 129t-52.5 106.5t-93 71.5t-124 26.5zM666 1503l202 -340l-98 -55l-289 305z" />
    <glyph glyph-name="oacute" unicode="&#xf3;" horiz-adv-x="1105" 
d="M935.5 114.5q-172.5 -147.5 -388.5 -147.5q-215 0 -339 147t-91.5 362.5t204 363t387.5 147.5t341 -146t92 -362.5t-205.5 -364zM682 811q-68 0 -132.5 -26.5t-115.5 -71.5t-87 -106.5t-46 -129t5.5 -128t52 -106.5t93 -73t124 -27t132 27t115.5 73t87 106.5t46.5 128
t-5 129t-52.5 106.5t-93 71.5t-124 26.5zM1071 1413l-383 -305l-82 55l309 340z" />
    <glyph glyph-name="ocircumflex" unicode="&#xf4;" horiz-adv-x="1105" 
d="M935.5 114.5q-172.5 -147.5 -388.5 -147.5q-215 0 -339 147t-91.5 362.5t204 363t387.5 147.5t341 -146t92 -362.5t-205.5 -364zM682 811q-68 0 -132.5 -26.5t-115.5 -71.5t-87 -106.5t-46 -129t5.5 -128t52 -106.5t93 -73t124 -27t132 27t115.5 73t87 106.5t46.5 128
t-5 129t-52.5 106.5t-93 71.5t-124 26.5zM788 1503l283 -297l-135 -94l-178 197l-238 -197l-104 94z" />
    <glyph glyph-name="otilde" unicode="&#xf5;" horiz-adv-x="1105" 
d="M935.5 114.5q-172.5 -147.5 -388.5 -147.5q-215 0 -339 147t-91.5 362.5t204 363t387.5 147.5t341 -146t92 -362.5t-205.5 -364zM682 811q-68 0 -132.5 -26.5t-115.5 -71.5t-87 -106.5t-46 -129t5.5 -128t52 -106.5t93 -73t124 -27t132 27t115.5 73t87 106.5t46.5 128
t-5 129t-52.5 106.5t-93 71.5t-124 26.5zM889 1163q-62 0 -162 54q-37 18 -74 34.5t-77 16.5t-75.5 -31t-56.5 -63l-84 81q70 86 126 126t119 40q99 0 186.5 -54t134.5 -54t82.5 31.5t64.5 66.5l84 -80q-110 -168 -268 -168z" />
    <glyph glyph-name="odieresis" unicode="&#xf6;" horiz-adv-x="1105" 
d="M935.5 114.5q-172.5 -147.5 -388.5 -147.5q-215 0 -339 147t-91.5 362.5t204 363t387.5 147.5t341 -146t92 -362.5t-205.5 -364zM682 811q-68 0 -132.5 -26.5t-115.5 -71.5t-87 -106.5t-46 -129t5.5 -128t52 -106.5t93 -73t124 -27t132 27t115.5 73t87 106.5t46.5 128
t-5 129t-52.5 106.5t-93 71.5t-124 26.5zM562 1421q52 0 83 -35.5t22 -87.5t-50.5 -88t-93.5 -36t-82.5 35.5t-21.5 87.5t50 88t93 36zM994 1421q52 0 83 -35.5t22 -87.5t-50 -88t-93 -36t-83 35.5t-22 87.5t50 88t93 36z" />
    <glyph glyph-name="divide" unicode="&#xf7;" 
d="M164 612h1048l-26 -176h-1049zM633 254q53 0 84 -38t21 -91t-51.5 -89t-94.5 -36t-85 36t-22 89q8 53 51.5 91t96.5 38zM758 1049q53 0 84.5 -38t22.5 -91t-52 -89t-96 -36t-84 35.5t-22 89.5t51.5 91.5t95.5 37.5z" />
    <glyph glyph-name="oslash" unicode="&#xf8;" horiz-adv-x="1105" 
d="M860 750q-74 61 -160 61q-155 0 -267 -99t-130 -220t27 -203zM408 197q72 -53 154 -53q150 -1 262 100t132 233q16 100 -22 176zM709 987q176 0 301 -106l145 125l80 -88l-148 -130q81 -138 54 -311q-31 -213 -204.5 -361.5t-371.5 -148.5t-307 99l-164 -144l-76 96
l160 138q-93 143 -61 321q31 214 203 362t389 148z" />
    <glyph glyph-name="ugrave" unicode="&#xf9;" horiz-adv-x="1048" 
d="M468.5 -33q-156.5 0 -237 117t-47.5 324l86 550h185l-84 -530q-51 -289 125.5 -289t234.5 76t82 213l84 530h184l-86 -550q-52 -316 -211 -378.5t-315.5 -62.5zM637 1503l203 -340l-99 -55l-288 305z" />
    <glyph glyph-name="uacute" unicode="&#xfa;" horiz-adv-x="1048" 
d="M468.5 -33q-156.5 0 -237 117t-47.5 324l86 550h185l-84 -530q-51 -289 125.5 -289t234.5 76t82 213l84 530h184l-86 -550q-52 -316 -211 -378.5t-315.5 -62.5zM1042 1413l-383 -305l-81 55l309 340z" />
    <glyph glyph-name="ucircumflex" unicode="&#xfb;" horiz-adv-x="1048" 
d="M468.5 -33q-156.5 0 -237 117t-47.5 324l86 550h185l-84 -530q-51 -289 125.5 -289t234.5 76t82 213l84 530h184l-86 -550q-52 -316 -211 -378.5t-315.5 -62.5zM760 1503l282 -297l-135 -94l-178 197l-237 -197l-105 94z" />
    <glyph glyph-name="udieresis" unicode="&#xfc;" horiz-adv-x="1048" 
d="M468.5 -33q-156.5 0 -237 117t-47.5 324l86 550h185l-84 -530q-51 -289 125.5 -289t234.5 76t82 213l84 530h184l-86 -550q-52 -316 -211 -378.5t-315.5 -62.5zM534 1421q52 0 82.5 -35.5t21.5 -87.5t-50 -88t-93 -36t-83 35.5t-22 87.5t50.5 88t93.5 36zM966 1421
q52 0 82.5 -35.5t21.5 -87.5t-50 -88t-93 -36t-83 35.5t-22 87.5t50.5 88t93.5 36z" />
    <glyph glyph-name="yacute" unicode="&#xfd;" horiz-adv-x="991" 
d="M125 958h215l227 -608l398 608h206l-1013 -1507h-209l489 713zM1055 1413l-383 -305l-82 55l309 340z" />
    <glyph glyph-name="thorn" unicode="&#xfe;" horiz-adv-x="1138" 
d="M428 799q157 188 360 188t304.5 -148t69.5 -358t-180.5 -362t-360.5 -152q-102 0 -178 50.5t-117 132.5h-4l-111 -699h-184l366 2327h185l-154 -979h4zM855 231.5q97 100.5 122 247.5q33 232 -74.5 288t-180.5 56t-133.5 -28.5t-107.5 -76.5t-77.5 -109.5t-41 -129
t0 -130t58.5 -140.5t192 -78q145 0 242 100.5z" />
    <glyph glyph-name="ydieresis" unicode="&#xff;" horiz-adv-x="991" 
d="M125 958h215l227 -608l398 608h206l-1013 -1507h-209l489 713zM525 1421q52 0 83 -35.5t22 -87.5t-50.5 -88t-93.5 -36t-82.5 35.5t-21.5 87.5t50 88t93 36zM957 1421q52 0 83 -35.5t22 -87.5t-50 -88t-93 -36t-83 35.5t-22 87.5t50 88t93 36z" />
    <glyph glyph-name="OE" unicode="&#x152;" horiz-adv-x="2340" 
d="M1511 258h-4q-129 -141 -304 -217t-352 -75t-314.5 62.5t-229.5 169t-133 255t-13 316.5t114.5 315.5t213.5 256t285 173t324 63.5q289 -13 409.5 -121t161.5 -182h4l41 270h809l-26 -176h-635l-70 -432h616l-26 -176h-617l-92 -584h635l-29 -176h-809zM870 147
q125 0 245 48.5t274.5 181.5t196.5 394t-64.5 393t-212 182.5t-306 50.5t-403.5 -181.5t-246 -443.5q-23 -133 9 -246.5t103 -197.5t175 -132.5t229 -48.5z" />
    <glyph glyph-name="oe" unicode="&#x153;" horiz-adv-x="1837" 
d="M1488 827q-110 0 -194 -67.5t-118 -171.5h536q2 109 -56 174t-168 65zM682 811q-68 0 -132.5 -26.5t-115.5 -71.5t-87 -106.5t-46 -129t5.5 -128t52 -106.5t93 -73t124 -27t132 27t115.5 73t87 106.5t46.5 128t-5 129t-52.5 106.5t-93 71.5t-124 26.5zM1702 317l141 -88
q-88 -125 -217 -193.5t-260 -69.5t-231.5 54.5t-143.5 157.5q-86 -104 -205.5 -158.5t-233.5 -53.5t-200 40t-144 107.5t-83 162t-0.5 255t196 309t388.5 147.5q117 -4 220 -59.5t156 -155.5q160 205 428 215q218 0 310.5 -140.5t58.5 -369.5l-4 -28h-731q-21 -130 45 -224
t217 -94q150 0 293 186z" />
    <glyph glyph-name="Scaron" unicode="&#x160;" horiz-adv-x="1099" 
d="M828 1397q-180 0 -243 -84t-70 -132q-12 -84 40 -136t139 -89l105 -43q180 -78 257.5 -182t48.5 -297t-195 -330t-361 -137t-309.5 120t-110.5 312l201 41q-20 -129 53.5 -211t195.5 -82t218.5 88t120.5 228.5t-76.5 199t-147.5 78.5l-98 45q-149 71 -223.5 156.5
t-50.5 235.5q27 178 181 288.5t337 110.5q129 0 221 -60.5t139 -173.5l-168 -92q-66 146 -204 146zM686 2038l174 -197l242 197l104 -94l-377 -297l-278 297z" />
    <glyph glyph-name="scaron" unicode="&#x161;" horiz-adv-x="786" 
d="M521 823q-40 0 -74.5 -26.5t-40.5 -62.5t9 -59.5t42.5 -44t65.5 -38t159 -73.5t98 -215q-22 -152 -133.5 -244.5t-233.5 -92.5t-204.5 56.5t-108.5 158.5l170 72q20 -53 54 -88t96 -35t112 37t58 87t-6.5 71.5t-42.5 44.5l-166 96q-80 43 -120 98t-25 155q15 101 111 184
t199 83q193 0 251 -168l-162 -80q-10 35 -39 59.5t-69 24.5zM422 1503l176 -196l240 196l106 -94l-377 -297l-278 297z" />
    <glyph glyph-name="Ydieresis" unicode="&#x178;" horiz-adv-x="1173" 
d="M231 1544h222l274 -659l483 659h222l-641 -872l-107 -672h-192l106 672zM706 1956q52 0 82.5 -36t21.5 -88t-50 -88t-93 -36t-83 36t-22 88t50.5 88t93.5 36zM1138 1956q52 0 82.5 -36t21.5 -88t-50 -88t-93 -36t-83 36t-22 88t50.5 88t93.5 36z" />
    <glyph glyph-name="florin" unicode="&#x192;" 
d="M29 -305h-49l59 176h39q160 0 231.5 100t130.5 293l209 631h-133l41 139h143l84 254q67 206 172.5 315t296.5 109q70 0 121 -14l-59 -172q-35 14 -89 14q-105 0 -155 -68.5t-98 -205.5l-82 -232h264l-41 -139h-268l-211 -621q-41 -125 -86 -230t-147.5 -227t-372.5 -122z
" />
    <glyph glyph-name="circumflex" unicode="&#x2c6;" horiz-adv-x="962" 
d="M717 1503l282 -297l-135 -94l-178 197l-237 -197l-105 94z" />
    <glyph glyph-name="tilde" unicode="&#x2dc;" horiz-adv-x="1044" 
d="M584 1421q88 0 176.5 -54t135.5 -54q46 0 82 31.5t64 66.5l84 -80q-110 -168 -268 -168q-62 0 -162 54q-37 18 -73.5 34.5t-76.5 16.5t-76 -31t-56 -63l-84 81q121 166 254 166z" />
    <glyph glyph-name="endash" unicode="&#x2013;" horiz-adv-x="1024" 
d="M1141 733l-25 -153h-1024l25 153h1024z" />
    <glyph glyph-name="emdash" unicode="&#x2014;" horiz-adv-x="2048" 
d="M1898 733l-24 -153h-1516l25 153h1515z" />
    <glyph glyph-name="quoteleft" unicode="&#x2018;" horiz-adv-x="567" 
d="M287 1030l358 547l107 -47l-314 -563z" />
    <glyph glyph-name="quoteright" unicode="&#x2019;" horiz-adv-x="567" 
d="M684 1513l-358 -546l-109 47l315 563z" />
    <glyph glyph-name="quotesinglbase" unicode="&#x201a;" horiz-adv-x="567" 
d="M524 180l-358 -547l-107 48l316 563z" />
    <glyph glyph-name="quotedblleft" unicode="&#x201c;" horiz-adv-x="899" 
d="M627 1030l358 547l107 -47l-314 -563zM287 1030l358 547l107 -47l-314 -563z" />
    <glyph glyph-name="quotedblright" unicode="&#x201d;" horiz-adv-x="899" 
d="M676 1513l-359 -546l-108 47l315 563zM1016 1513l-359 -546l-108 47l315 563z" />
    <glyph glyph-name="quotedblbase" unicode="&#x201e;" horiz-adv-x="899" 
d="M516 180l-358 -547l-107 48l316 563zM856 180l-358 -547l-107 48l316 563z" />
    <glyph glyph-name="dagger" unicode="&#x2020;" 
d="M965 1778l-88 -564h370l-28 -176h-371l-193 -1218h-184l193 1218h-371l29 176h370l88 564h185z" />
    <glyph glyph-name="daggerdbl" unicode="&#x2021;" 
d="M965 1778l-76 -490h371l-29 -176h-371l-39 -250h371l-29 -176h-370l-138 -864h-184l137 864h-370l28 176h371l39 250h-371l29 176h371l75 490h185z" />
    <glyph glyph-name="bullet" unicode="&#x2022;" 
d="M653 387q-80 0 -144.5 29.5t-109.5 82t-63.5 123t-6 150.5t53.5 150.5t101.5 123t136 83t155.5 30.5t145.5 -30.5t109.5 -83t63.5 -123t7.5 -150.5t-54 -150.5t-103.5 -123t-136.5 -82t-155 -29.5z" />
    <glyph glyph-name="ellipsis" unicode="&#x2026;" horiz-adv-x="2048" 
d="M1057 205q49 0 78.5 -36t21.5 -84t-49 -83t-90 -35t-77.5 35t-20.5 83t48 84t89 36zM1741 205q49 0 78.5 -36t21.5 -84t-49 -83t-90 -35t-77.5 35t-20.5 83t48 84t89 36zM373 205q49 0 78.5 -36t21.5 -84t-49 -83t-90 -35t-77.5 35t-20.5 83t48 84t89 36z" />
    <glyph glyph-name="perthousand" unicode="&#x2030;" horiz-adv-x="2273" 
d="M655.5 1577q73.5 0 134 -27.5t102.5 -75t61.5 -112t7 -138t-51.5 -137t-96 -110.5t-127 -75t-141.5 -28t-133 28t-103.5 75t-61.5 110.5t-7 137t51.5 138t95 112t126 75t143.5 27.5zM635 1454q-47 0 -93 -18.5t-83 -49t-62.5 -72.5t-34 -89t4 -88t40 -72t68.5 -49.5
t88 -18.5t93 18.5t84 49.5t63.5 72t34 88t-5 89t-41 72.5t-68.5 49t-88 18.5zM1475 1524l-1149 -1557l-86 51l1151 1559zM1173.5 670q73.5 0 134 -28t102.5 -75t61.5 -111.5t7 -138t-51 -137t-96 -110.5t-128 -75t-142.5 -28t-133.5 28t-102.5 75t-60.5 110.5t-7 137
t51.5 138t95.5 111.5t126 75t143 28zM976.5 480q-83.5 -67 -95.5 -163q-16 -94 44 -160.5t155.5 -66.5t177.5 67t96 162t-45.5 161.5t-154 66.5t-178 -67zM1976.5 670q73.5 0 134 -28t102.5 -75t61.5 -111.5t7 -138t-51.5 -137t-96 -110.5t-128 -75t-142.5 -28t-133 28
t-102.5 75t-60.5 110.5t-7 137t51.5 138t95 111.5t126 75t143.5 28zM1780 480.5q-83 -66.5 -98 -161.5t45.5 -162t155 -67t176.5 65.5t100 161.5q12 97 -47.5 163.5t-154 66.5t-177.5 -66.5z" />
    <glyph glyph-name="guilsinglleft" unicode="&#x2039;" horiz-adv-x="688" 
d="M573 264l-127 -84l-296 475l450 492l100 -84l-368 -408z" />
    <glyph glyph-name="guilsinglright" unicode="&#x203a;" horiz-adv-x="688" 
d="M565 655l-241 408l129 84l295 -492l-449 -475l-102 84z" />
    <glyph glyph-name="trademark" unicode="&#x2122;" horiz-adv-x="1925" 
d="M1964 682h-131l115 731h-4l-410 -731h-80l-172 731h-4l-115 -731h-131l135 862h215l152 -608l352 608h213zM989 1413h-282l-115 -731h-131l114 731h-282l20 131h697z" />
    <glyph glyph-name="fraction" horiz-adv-x="337" 
d="M913 1524l-1149 -1557l-94 58l1147 1552z" />
    <glyph glyph-name="fi" horiz-adv-x="1048" 
d="M881 0h-185l152 958h184zM1030 1526q53 0 85 -38t23 -91t-52.5 -89t-96.5 -36t-84 35t-21 89t51.5 92t94.5 38zM727 1630q-75 0 -109 -73.5t-53 -186.5l-65 -412h254l-27 -172h-254l-125 -786h-184l125 786h-84l26 172h84l74 467q41 266 160 321.5t199 55.5t135 -24
l-29 -187q-27 12 -57.5 25.5t-69.5 13.5z" />
    <glyph glyph-name="fl" horiz-adv-x="1017" 
d="M883 0h-185l281 1778h184zM727 1630q-75 0 -109 -73.5t-53 -186.5l-65 -412h254l-27 -172h-254l-125 -786h-184l125 786h-84l26 172h84l74 467q41 266 160 321.5t199 55.5t135 -24l-29 -187q-27 12 -57.5 25.5t-69.5 13.5z" />
    <glyph glyph-name="breve" horiz-adv-x="1003" 
d="M702 1268q84 0 137.5 41t98.5 112h145q-72 -198 -205 -243t-229 -45t-185 81.5t-93 206.5h147q38 -153 184 -153z" />
    <glyph glyph-name="dotaccent" horiz-adv-x="737" 
d="M595 1421q52 0 83.5 -35.5t21.5 -87.5t-51 -88t-93 -36t-83 35.5t-21 87.5t50.5 88t92.5 36z" />
    <glyph glyph-name="ring" horiz-adv-x="737" 
d="M548 1133q-77 0 -122 53t-32.5 131t73.5 132t140 54t124 -54.5t33 -133t-75.5 -130.5t-140.5 -52zM564 1225q38 0 70 26.5t38 65.5t-17.5 66.5t-61.5 27.5t-69.5 -27.5t-38 -66.5t17 -65.5t61.5 -26.5z" />
    <glyph glyph-name="hungarumlaut" horiz-adv-x="962" 
d="M1106 1395l-385 -305l-80 55l309 340zM727 1413l-383 -305l-82 55l309 340z" />
    <glyph glyph-name="ogonek" horiz-adv-x="696" 
d="M426 -33v-4q-137 -85 -152 -174q-10 -53 21 -74.5t88 -21.5t96 26l-33 -118q-64 -35 -119 -35q-102 0 -155.5 45t-42.5 123q21 133 203 233h94z" />
    <glyph glyph-name="caron" horiz-adv-x="966" 
d="M512 1503l176 -196l240 196l106 -94l-377 -297l-278 297z" />
    <glyph glyph-name="Lslash" horiz-adv-x="788" 
d="M492 954l268 170l-29 -184l-268 -162l-94 -602h469l-29 -176h-662l105 659l-184 -118l28 186l185 111l110 706h193z" />
    <glyph glyph-name="dotlessi" horiz-adv-x="520" 
d="M352 0h-184l151 958h185z" />
    <glyph glyph-name="lslash" horiz-adv-x="522" 
d="M301 844l-182 -113l24 166l185 113l121 768h184l-101 -643l187 114l-27 -168l-186 -112l-154 -969h-184z" />
    <glyph glyph-name="minus" 
d="M164 612h1048l-26 -176h-1049z" />
    </font>
</defs>
</svg>
