<?xml version="1.0" standalone="no"?>
<!DOCTYPE svg PUBLIC "-//W3C//DTD SVG 1.1//EN" "http://www.w3.org/Graphics/SVG/1.1/DTD/svg11.dtd" >
<svg xmlns="http://www.w3.org/2000/svg">
<metadata>
Created by FontPrep 20130207 at Mon Apr 27 16:38:48 2015
 By Martin
Copyright 1990-2001 Bitstream Inc. All rights reserved.
</metadata>
<defs>
<font id="a9d8e84ae4733e0e34812274c77277dc" horiz-adv-x='1024' >
  <font-face 
    font-family="BauerBodoniBT-Roman"
    font-weight="400"
    font-stretch="normal"
    units-per-em="2048"
    panose-1="2 7 6 3 8 7 6 2 3 3"
    ascent="1556"
    descent="-492"
    x-height="815"
    cap-height="1356"
    bbox="-342 -512 2077 1917"
    underline-thickness="115"
    underline-position="-189"
    unicode-range="U+0020-F002"
  />
<missing-glyph horiz-adv-x="1229" 
d="M217 -248h795v1577h-795v-1577zM102 -362v1806h1024v-1806h-1024z" />
    <glyph glyph-name=".notdef" horiz-adv-x="1229" 
d="M217 -248h795v1577h-795v-1577zM102 -362v1806h1024v-1806h-1024z" />
    <glyph glyph-name=".null" horiz-adv-x="0" 
 />
    <glyph glyph-name="nonmarkingreturn" horiz-adv-x="494" 
 />
    <glyph glyph-name="space" unicode=" " horiz-adv-x="494" 
 />
    <glyph glyph-name="exclam" unicode="!" horiz-adv-x="674" 
d="M350 346v-51h-31v55q0 577 -88 824q62 87 103 210q46 -122 106 -210q-90 -260 -90 -828zM238 63q0 38 27 64.5t65 26.5t64 -26t26 -64t-26.5 -65.5t-64.5 -27.5t-64.5 27t-26.5 65z" />
    <glyph glyph-name="quotedbl" unicode="&#x22;" horiz-adv-x="678" 
d="M90 1382q0 28 22 54t62 26t63 -26t23 -74l-70 -498h-32l-64 457q-4 33 -4 61zM504 1462q84 0 84 -100q0 -23 -2 -41l-68 -457h-31l-65 457l-4 39q0 49 23 75.5t63 26.5z" />
    <glyph glyph-name="numbersign" unicode="#" horiz-adv-x="1575" 
d="M778 1456h133l-168 -471h287l168 471h131l-166 -471h307l-40 -117h-310l-100 -286h332l-43 -115h-330l-166 -469h-133l166 469h-287l-166 -469h-131l166 469h-324l43 115h322l100 286h-348l43 117h348zM700 868l-100 -286h289l102 286h-291z" />
    <glyph glyph-name="dollar" unicode="$" horiz-adv-x="985" 
d="M526 -6q-44 0 -106 14v-305h-43v311q-57 18 -132 55t-97 37q-45 0 -50 -91l-30 -1v471h24q11 -177 80.5 -282.5t204.5 -151.5v563q-137 18 -216 100.5t-79 205.5q0 166 76.5 278t218.5 154v170h43v-164q40 4 57 4t65 -8l1 168h43v-179q45 -16 101 -56t79 -40q49 0 49 90
v11h21v-420h-23q-11 147 -69.5 244t-157.5 133v-539q342 -46 342 -340q0 -167 -93 -284.5t-249 -147.5v-291h-43v291h-17zM543 25v563q-61 14 -123 20v-567q52 -16 123 -16zM838 312q0 106 -66.5 176t-185.5 92v-553q114 22 183 100.5t69 184.5zM164 1041q0 -191 213 -230
v508q-98 -27 -155.5 -103.5t-57.5 -174.5zM465 1329q-33 0 -45 -2v-526q74 -19 122 -27l1 544q-45 11 -78 11z" />
    <glyph glyph-name="percent" unicode="%" horiz-adv-x="1442" 
d="M391 -25h-61l719 1385h63zM57 992q0 154 78 257t191 103t191.5 -103t78.5 -257t-79 -257.5t-191 -103.5t-190.5 103.5t-78.5 257.5zM188 992q0 -188 31.5 -260.5t106.5 -72.5t106 71.5t31 261.5t-30.5 260.5t-106.5 70.5t-107 -71.5t-31 -259.5zM846 346q0 154 77 256.5
t191 102.5t192 -102.5t78 -256.5t-79 -257t-191 -103t-190 103t-78 257zM979 347q0 -189 30.5 -261t105.5 -72t105.5 71.5t30.5 260.5t-30.5 259.5t-106.5 70.5t-105.5 -70t-29.5 -259z" />
    <glyph glyph-name="ampersand" unicode="&#x26;" horiz-adv-x="1464" 
d="M250 434q0 -113 92.5 -219t197.5 -106t216 147q-98 119 -272 361l-44 61q-102 -54 -146 -111t-44 -133zM752 1030q0 110 -47 159.5t-117 49.5t-110 -37t-40 -100q0 -94 138 -297l2 -2q174 117 174 227zM1100 -12q-74 0 -140 47.5t-182 191.5q-103 -129 -193.5 -187
t-199.5 -58t-206 101.5t-97 215.5q0 224 344 403q-77 110 -107 178.5t-30 127.5q0 103 83.5 184.5t186.5 81.5t165 -58.5t62 -152.5q0 -159 -190 -285q162 -227 272 -370l18 22q175 219 265 219q49 0 83 -32.5t34 -82.5t-29.5 -82t-72.5 -32q-106 0 -107.5 68.5t-11 68.5
t-56.5 -57l-102 -119q183 -248 311 -248q44 0 78.5 32.5t71.5 110.5l30 -20q-84 -159 -145 -213.5t-135 -54.5z" />
    <glyph glyph-name="quotesingle" unicode="'" horiz-adv-x="348" 
d="M90 1360q0 102 62.5 102t85 -26t22.5 -74l-70 -498h-32l-66 457q-2 16 -2 39z" />
    <glyph glyph-name="parenleft" unicode="(" horiz-adv-x="664" 
d="M322 575v-221q0 -264 76.5 -451.5t240.5 -324.5v-33q-225 158 -349 398.5t-124 521.5t124 521.5t349 397.5v-32q-164 -137 -240.5 -324.5t-76.5 -452.5z" />
    <glyph glyph-name="parenright" unicode=")" horiz-adv-x="664" 
d="M498 465q0 -281 -124 -521.5t-349 -398.5v33q163 137 240 324.5t77 451.5v221q0 265 -77 452.5t-240 324.5v32q225 -157 349 -397.5t124 -521.5z" />
    <glyph glyph-name="asterisk" unicode="*" 
d="M225 1161q4 0 23 -19q111 -110 258 -163q-14 161 -92 290q-11 18 -11 21q0 13 17 13h8l45 -7l12 56q7 32 23 32t24 -30v-2l17 -54l41 11l6 2q16 -2 16 -19q0 -3 -8 -19q-68 -131 -69 -292q136 69 246 171q26 24 30 24q10 -2 10 -13l6 -53l60 6h6q18 0 18 -16t-4 -17
l-55 -41l16 -36q20 -33 -4 -33q-2 0 -26 7t-130 7q-107 0 -167 -33q80 -83 173 -143.5t93 -66.5t-15 -12l-1 -1l-35 -12l26 -53q6 -12 6 -21q0 -22 -20 -22q-5 0 -12 4l-62 41l-35 -35q-5 -6 -13 -6q-8 -1 -14 27t-13 72q-8 44 -34 105.5t-65 104.5q-52 -103 -75 -210.5
t-25 -107.5q-4 2 -6 5l-37 36l-51 -45q-14 -12 -23 -12q-18 0 -18 21q0 5 4 16l18 57l-43 17q-14 5 -14 16q0 1 91.5 65.5t157.5 162.5q-50 14 -115 14t-129 -7.5t-67 -7.5q-32 2 -32 17q0 2 2 4l30 39l-63 39q-14 8 -14 21q0 14 24 14h21l49 -5l2 52q0 24 18 24z" />
    <glyph glyph-name="plus" unicode="+" horiz-adv-x="1706" 
d="M795 1221h118v-551h539v-117h-539v-553h-118v553h-541v117h541v551z" />
    <glyph glyph-name="comma" unicode="," horiz-adv-x="494" 
d="M377 -47q0 53 -43 53q-12 0 -51 -14.5t-78 -14.5t-67.5 27.5t-28.5 73.5t34.5 76t100.5 30t115 -59t49 -157q0 -194 -183 -361l-20 22q172 170 172 324z" />
    <glyph glyph-name="hyphen" unicode="-" horiz-adv-x="786" 
d="M170 344v131h446v-131h-446z" />
    <glyph glyph-name="period" unicode="." horiz-adv-x="494" 
d="M156 76q0 38 26 65t64 27t65 -27t27 -65t-27 -64t-65 -26t-64 26t-26 64z" />
    <glyph glyph-name="slash" unicode="/" horiz-adv-x="569" 
d="M-4 -190h-55l573 1574h55z" />
    <glyph glyph-name="zero" unicode="0" horiz-adv-x="985" 
d="M57 668q0 281 125 485q126 203 312 203q187 0 311 -203q125 -203 125 -485q0 -281 -127 -487t-309 -206t-309 206q-128 206 -128 487zM246 667q0 -373 56 -518t192 -145t190.5 144t54.5 519t-55 517.5t-191 142.5t-191.5 -143.5t-55.5 -516.5z" />
    <glyph glyph-name="one" unicode="1" horiz-adv-x="985" 
d="M629 1337v-1302h151v-35h-493v35h168v1044q0 72 -19 72q-25 0 -115 -43t-196 -111l-6 35q289 169 440 305h70z" />
    <glyph glyph-name="two" unicode="2" horiz-adv-x="985" 
d="M692 990q0 150 -78 240.5t-202 90.5t-212.5 -73t-88.5 -154q0 -31 14.5 -43.5t62.5 -16.5q97 -7 97 -86q0 -42 -28.5 -71t-76.5 -29t-84.5 48.5t-36.5 125.5q0 142 110.5 238t294.5 96t301.5 -103.5t117.5 -275.5q0 -115 -70 -222t-308 -295q-238 -187 -327 -298h682
l33 209h31l-56 -371h-829q40 122 284 358t306.5 359t62.5 273z" />
    <glyph glyph-name="three" unicode="3" horiz-adv-x="985" 
d="M305 766q210 0 293.5 67t83.5 211t-64 214.5t-170 70.5t-184 -44.5t-78 -88.5q0 -18 39 -18h17q32 0 52.5 -22t20.5 -58t-24 -64t-66 -28t-71 33t-29 91q0 98 92 162t256 64t267.5 -80t103.5 -208t-87.5 -208.5t-236.5 -99.5q185 -26 286 -123.5t101 -258.5t-142.5 -282
t-328.5 -121t-290.5 73.5t-104.5 189.5q0 61 34.5 102t80.5 41t76 -29.5t30 -69.5t-26.5 -69t-63.5 -29l-53 6q-8 0 -14.5 -9.5t-6.5 -22.5q0 -51 91 -100.5t206 -49.5q163 0 248.5 93t85.5 281t-93 277t-300 89q-25 0 -115 -6v26q32 -2 84 -2z" />
    <glyph glyph-name="four" unicode="4" horiz-adv-x="985" 
d="M422 0v35h149v446h-553l713 914l23 -17l-592 -755h409v458h177v-458h198v-142h-198v-446h157v-35h-483z" />
    <glyph glyph-name="five" unicode="5" horiz-adv-x="985" 
d="M162 992q0 197 -35 325q76 39 211 39q134 0 239 -17.5t117 -17.5q62 0 62 51v8h22v-26q0 -93 -48.5 -136.5t-151.5 -43.5q-49 0 -135.5 13t-143.5 13t-113 -33q9 -54 9 -195t-21 -200q124 62 260 62q219 0 352.5 -116t133.5 -304t-149.5 -313.5t-373.5 -125.5
q-159 0 -257.5 77t-98.5 198q0 58 32.5 94.5t79.5 36.5t73 -27t26 -68q0 -83 -84 -83h-21q-43 0 -43 -37q0 -54 83.5 -106t195.5 -52q164 0 257 105t93 291t-88.5 289.5t-240.5 103.5t-254 -84l-31 18q43 64 43 261z" />
    <glyph glyph-name="six" unicode="6" horiz-adv-x="985" 
d="M545 858q165 0 277 -122t112 -309t-129 -319.5t-313 -132.5t-309.5 143.5t-125.5 358.5q0 350 199.5 581.5t577.5 319.5l12 -22q-295 -76 -441 -240t-157 -430q132 172 297 172zM508 811q-120 0 -197.5 -95t-77.5 -261q0 -221 69.5 -336t192.5 -115t189 113t66 303
t-61 290.5t-181 100.5z" />
    <glyph glyph-name="seven" unicode="7" horiz-adv-x="985" 
d="M457 170q0 -14 28 -14h17q110 0 110 -88q0 -42 -24 -67.5t-68 -25.5t-72 38t-28 112t69 254l304 792h-572q-74 0 -86 -8q-11 -8 -20 -35.5t-29 -109.5l-25 4q25 213 41 315h856l-354 -770q-66 -145 -106.5 -256t-40.5 -141z" />
    <glyph glyph-name="eight" unicode="8" horiz-adv-x="985" 
d="M121 1045q0 122 112 219.5t265 97.5t264.5 -96t111.5 -218t-85.5 -205.5t-243.5 -119.5q195 -60 297 -165.5t102 -247.5t-126 -238.5t-320 -96.5t-319.5 97.5t-125.5 238.5t107 249t297 163q-159 36 -247.5 118t-88.5 204zM244 344q0 -148 71 -243t189 -95t184 83t66 239
q0 320 -254 383q-122 -33 -189 -126t-67 -241zM504 1329q-211 0 -211 -275t207 -319q107 24 153.5 100t46.5 232q0 262 -196 262z" />
    <glyph glyph-name="nine" unicode="9" horiz-adv-x="985" 
d="M45 910q0 186 128.5 319t312.5 133t310 -143t126 -359q0 -350 -199.5 -581.5t-577.5 -319.5l-12 23q296 77 441.5 240.5t156.5 428.5q-132 -172 -298 -172t-277 122.5t-111 308.5zM471 526q120 0 197 96t77 288t-69.5 307.5t-192.5 115.5t-188.5 -113t-65.5 -303
t61 -290.5t181 -100.5z" />
    <glyph glyph-name="colon" unicode=":" horiz-adv-x="674" 
d="M246 76q0 38 27 64t65 26t64 -26t26 -64t-26 -64t-64 -26t-65 26t-27 64zM246 750q0 38 27 64t65 26t64 -26t26 -64t-26 -65.5t-64 -27.5t-65 27.5t-27 65.5z" />
    <glyph glyph-name="semicolon" unicode=";" horiz-adv-x="674" 
d="M246 750q0 38 26 64t64 26t65 -26t27 -64t-27 -65.5t-65 -27.5t-64 27.5t-26 65.5zM449 -47q0 53 -41 53q-12 0 -51 -14.5t-78 -14.5t-68 27t-29 74t34 76.5t100 29.5t114.5 -59t48.5 -157q0 -197 -180 -361l-23 22q173 169 173 324z" />
    <glyph glyph-name="less" unicode="&#x3c;" horiz-adv-x="1706" 
d="M1442 1145v-127l-1000 -408l1000 -405v-129l-1178 483v103z" />
    <glyph glyph-name="equal" unicode="=" horiz-adv-x="1706" 
d="M254 860h1198v-117h-1198v117zM254 477h1198v-117h-1198v117z" />
    <glyph glyph-name="greater" unicode="&#x3e;" horiz-adv-x="1706" 
d="M264 1145l1178 -483v-103l-1178 -483v129l1000 405l-1000 408v127z" />
    <glyph glyph-name="question" unicode="?" horiz-adv-x="920" 
d="M293 496q0 188 175 340l11 10l5 4q186 162 186 289q0 94 -67 154.5t-158 60.5t-148 -35.5t-57 -66.5t46 -48q46 -16 64.5 -36.5t18.5 -57.5t-23.5 -60.5t-69.5 -23.5t-76 33t-30 88q0 105 73.5 171t199.5 66t208 -94t82 -248q0 -103 -40.5 -184.5t-141.5 -173.5
q-17 -15 -49 -43q-160 -141 -160 -270q0 -46 4 -92l-24 -5q-29 108 -29 222zM256 62q0 38 26 65t64 27t64 -27t26 -65t-26 -64.5t-64 -26.5t-64 26.5t-26 64.5z" />
    <glyph glyph-name="at" unicode="@" horiz-adv-x="2019" 
d="M1108 965q-64 0 -109 -31.5t-105 -119.5t-102 -214t-42 -222t40.5 -150t107.5 -54q131 0 243 178q57 94 91 202.5t34 199.5t-47 151t-111 60zM604 439q0 252 187 431q65 64 144 100t155 36q176 0 221 -195l53 180h143l-170 -610q0 -2 -9 -33t-9 -77t25.5 -73.5
t63.5 -27.5q83 0 169 66q122 90 187 231t65 298q0 293 -196 465q-196 173 -490 173q-375 0 -617 -234q-264 -256 -264 -663q0 -175 57 -304.5t176 -230.5q236 -200 575 -200t624 206l30 -36q-299 -222 -665 -222q-367 0 -606 185q-308 230 -308 633q0 204 86 381t250 313
q263 221 623 221q359 0 565.5 -187t206.5 -499q0 -157 -58 -297t-170 -242t-251 -102q-195 0 -207 211q-123 -211 -309 -211q-125 0 -201 92t-76 222z" />
    <glyph glyph-name="A" unicode="A" horiz-adv-x="934" 
d="M-145 0v29h26q108 0 147 123l396 1218h22l482 -1341h135v-29h-520v29h176l-150 411h-417l-101 -326q-8 -27 -8 -36q0 -25 29 -35t137 -14v-29h-354zM162 469h397l-207 580z" />
    <glyph glyph-name="B" unicode="B" horiz-adv-x="1165" 
d="M25 0v29h151v1298h-151v29h536q233 0 359.5 -84t126.5 -228t-103 -228.5t-280 -96.5q206 -20 314.5 -109.5t108.5 -245.5t-126.5 -260t-331.5 -104h-604zM465 733q200 0 292.5 67t92.5 212t-96.5 229t-266.5 84h-108v-589q26 -3 86 -3zM379 29h88q207 0 304 84.5
t97 263.5q0 334 -436 334l-53 -2v-680z" />
    <glyph glyph-name="C" unicode="C" horiz-adv-x="1241" 
d="M680 1356q-391 0 -391 -699q0 -320 76 -460q48 -90 128.5 -142.5t174.5 -52.5t191 58.5t159 153.5t76 271h26v-458h-26q-16 96 -53 95.5t-79 -28.5l-54 -36q-129 -87 -247 -87q-240 0 -430 217q-170 197 -170 461q0 319 180 527t425 208q129 0 278 -93l40 -25t54 -21
q52 0 56 82h26v-405h-26q-20 189 -138 311.5t-276 122.5z" />
    <glyph glyph-name="D" unicode="D" horiz-adv-x="1337" 
d="M25 0v29h151v1298h-151v29h512q170 0 290 -37t223 -127t161.5 -222t58.5 -292q0 -324 -230 -522q-94 -82 -214 -119t-289 -37h-512zM379 29h119q278 0 414.5 160.5t136.5 488.5t-136 488.5t-415 160.5h-119v-1298z" />
    <glyph glyph-name="E" unicode="E" horiz-adv-x="1284" 
d="M178 29v1298h-143v29h1003l25 -330h-31q-15 174 -94.5 237.5t-298.5 63.5h-256v-622h63q177 0 236 48.5t59 182.5v8h29v-508h-29v17q0 131 -53.5 176t-241.5 45h-63v-645h262q263 0 364 80t101 280v6h29v-395h-1104v29h143z" />
    <glyph glyph-name="F" unicode="F" horiz-adv-x="1171" 
d="M39 0v29h158v1298h-158v29h1026l29 -346h-33q-15 179 -110 248t-337 69h-213v-622h54q203 0 262 50.5t59 196.5v9h29v-525l-29 1q-1 142 -59 190.5t-262 48.5h-54v-647h166v-29h-528z" />
    <glyph glyph-name="G" unicode="G" horiz-adv-x="1346" 
d="M238 161q-175 190 -175 521t211 530q180 172 410 172q103 0 195 -41q41 -17 99.5 -58.5t78.5 -41.5q61 0 61 84v14h27v-413h-29q-24 194 -140 311t-292 117t-287.5 -171.5t-111.5 -467.5q0 -715 420 -715q288 0 288 305v99h-162v28h506v-28h-139v-228
q-233 -207 -509 -207t-451 190z" />
    <glyph glyph-name="H" unicode="H" horiz-adv-x="1460" 
d="M25 0v29h151v1298h-151v29h512v-29h-158v-606h702v606h-157v29h512v-29h-152v-1298h152v-29h-512v29h157v663h-702v-663h158v-29h-512z" />
    <glyph glyph-name="I" unicode="I" horiz-adv-x="555" 
d="M25 0v29h153v1298h-153v29h505v-29h-145v-1298h145v-29h-505z" />
    <glyph glyph-name="J" unicode="J" horiz-adv-x="707" 
d="M144 -115q86 0 117.5 56t31.5 196v1190h-158v29h508v-29h-147v-989q0 -262 -74.5 -375t-241.5 -113q-103 0 -173 51t-70 111t29.5 91.5t73.5 31.5t67.5 -24.5t23.5 -62.5t-24.5 -63t-67.5 -32q19 -68 105 -68z" />
    <glyph glyph-name="K" unicode="K" horiz-adv-x="1063" 
d="M889 1282q0 45 -170 45v29h485v-29h-12q-83 0 -150 -30t-188 -142l-369 -344l633 -782h146v-29h-551v29h166l-525 651l-20 -21v-630h145v-29h-508v29h156v1298h-156v29h508v-29h-145v-627l471 463q84 82 84 119z" />
    <glyph glyph-name="L" unicode="L" horiz-adv-x="1180" 
d="M25 0v29h153v1298h-153v29h505v-29h-145v-1298h229q310 0 411 78.5t101 298.5v36h29v-442h-1130z" />
    <glyph glyph-name="M" unicode="M" horiz-adv-x="1565" 
d="M25 0v29q101 3 126 23t25 120v1155h-151v29h350l416 -1022l399 1022h352v-29h-147v-1298h147v-29h-508v29h156v1233l-481 -1233h-17l-475 1179v-1036q0 -101 29.5 -122t148.5 -21v-29h-370z" />
    <glyph glyph-name="N" unicode="N" horiz-adv-x="1352" 
d="M217 186q0 -97 31.5 -124t148.5 -33v-29h-374v29q95 7 123 33.5t28 125.5v1139h-151v29h387l725 -994v807q0 98 -31.5 125t-149.5 33v29h373v-29q-95 -7 -123 -34t-28 -126v-1177h-23l-936 1278v-1082z" />
    <glyph glyph-name="O" unicode="O" horiz-adv-x="1346" 
d="M233 1165q189 219 441.5 219t439.5 -219q166 -193 166 -487t-166 -488q-188 -219 -439.5 -219t-441.5 219q-167 197 -167 488.5t167 486.5zM289 678q0 -318 102.5 -497t282.5 -179t281.5 178t101.5 498t-101.5 499t-281.5 179t-282.5 -180t-102.5 -498z" />
    <glyph glyph-name="P" unicode="P" horiz-adv-x="1124" 
d="M610 588q-106 0 -227 35v-594h147v-29h-505v29h155v1298h-155v29h530q253 0 385.5 -95t132.5 -275t-127.5 -289t-335.5 -109zM575 625q138 0 220 92t82 248q0 366 -437 366l-57 -2v-667q103 -37 192 -37z" />
    <glyph glyph-name="Q" unicode="Q" horiz-adv-x="1346" 
d="M289 678q0 -318 102.5 -497t282.5 -179t281.5 178t101.5 498t-101.5 499t-281.5 179t-282.5 -180t-102.5 -498zM893 -440q-154 0 -239 75t-85 211v136q-232 57 -367.5 244t-135.5 465t167 474q189 219 441.5 219t439.5 -219q166 -191 166 -473t-138 -469t-374 -241v-152
q0 -119 45.5 -174t144.5 -55q61 0 127 34l11 -26q-104 -49 -203 -49z" />
    <glyph glyph-name="R" unicode="R" horiz-adv-x="1237" 
d="M1072 -14q-76 0 -121.5 24t-83.5 82t-52 194t-20 177q-18 130 -90 178.5t-250 48.5h-68v-661h143v-29h-505v29h153v1298h-153v29h569q232 0 351.5 -81.5t119.5 -230.5q0 -294 -383 -331q174 -26 249.5 -101.5t94.5 -244.5q4 -34 9 -93q21 -245 120 -245q41 0 74 14
l12 -27q-93 -30 -169 -30zM387 1327v-606h68q204 0 302.5 73t98.5 230t-77.5 230t-252.5 73h-139z" />
    <glyph glyph-name="S" unicode="S" horiz-adv-x="1014" 
d="M94 485h29q15 -223 128.5 -353t291.5 -130q141 0 235 88.5t94 211.5t-86 196q-67 59 -311 105q-18 4 -26 5q-192 38 -272.5 125t-80.5 261t101 282t272 108q108 0 217.5 -58t112.5 -58q23 0 37 18t14 49v11h29v-400h-29q-24 196 -124 303t-246 107t-221 -71.5t-75 -209.5
t109 -205q35 -21 152.5 -40t179.5 -33q183 -43 261.5 -131.5t78.5 -269.5t-114 -302t-302 -121q-110 0 -236.5 53.5t-144.5 53.5t-31 -22t-15 -58h-28v485z" />
    <glyph glyph-name="T" unicode="T" horiz-adv-x="1223" 
d="M1198 1356v-395h-29v51q0 181 -40 231q-40 49 -106 66.5t-224 17.5h-86v-1298h149v-29h-506v29h150v1298h-84q-159 0 -225.5 -17.5t-96.5 -54.5t-40.5 -90t-10.5 -153v-51h-29v395h1178z" />
    <glyph glyph-name="U" unicode="U" horiz-adv-x="1346" 
d="M168 1327h-156v29h535v-29h-168v-895q0 -139 16 -232.5t120.5 -136.5t218.5 -43q229 0 337 146q33 45 47.5 101.5t14.5 181.5v706q0 125 -27.5 148.5t-138.5 23.5h-35v29h401v-29h-16q-94 0 -121 -25t-27 -149v-696q0 -141 -26 -255.5t-170 -172.5t-293 -58
q-295 0 -424 135q-48 51 -68 119t-20 228v874z" />
    <glyph glyph-name="V" unicode="V" horiz-adv-x="1010" 
d="M-133 1327v29h524v-29h-166l361 -1042l309 889q27 76 27 100q0 23 -26 35t-120 18v29h375v-29q-107 -4 -142.5 -26.5t-66.5 -110.5l-432 -1229l-10 -6l-492 1372h-141z" />
    <glyph glyph-name="W" unicode="W" horiz-adv-x="1511" 
d="M928 1270q0 57 -99 57h-100l115 -326l59 173q25 71 25 96zM-127 1327v29h440v-29h-82l361 -1042l143 411l-223 631h-141v29h786v-29q-105 -4 -141.5 -26.5t-67.5 -110.5l-86 -248l225 -657l312 889q24 68 24 95q0 28 -25 40t-118 19v28h373v-29q-102 -4 -138.5 -26
t-68.5 -111l-432 -1229l-10 -6l-248 684l-240 -678l-10 -6l-492 1372h-141z" />
    <glyph glyph-name="X" unicode="X" horiz-adv-x="1114" 
d="M-141 0v29q121 0 170 20.5t94 91.5l336 525l-381 661h-137v29h501v-29h-120l264 -463l184 287q64 101 64 125q0 45 -142 51h-10v29h379v-29q-136 0 -226 -141l-229 -361l447 -796h121v-29h-515v29h150l-332 596l-268 -420q-66 -103 -66 -125q1 -46 117 -51h19v-29h-420z
" />
    <glyph glyph-name="Y" unicode="Y" horiz-adv-x="1014" 
d="M233 0v29h177v483l-363 815h-160v29h523v-29h-146l328 -729l264 598q21 47 21 76t-26.5 42t-90.5 13h-19v29h349v-29h-31q-61 0 -91.5 -20t-62.5 -90l-295 -666v-522h174v-29h-551z" />
    <glyph glyph-name="Z" unicode="Z" horiz-adv-x="1223" 
d="M1110 395v-395h-1067l809 1327h-225q-296 0 -391 -61t-95 -224q0 -33 2 -53h-28v367h995l-821 -1327h262q314 0 423 70t109 253l-2 43h29z" />
    <glyph glyph-name="bracketleft" unicode="[" horiz-adv-x="664" 
d="M639 -436h-444v1792h444v-31h-303v-1726h303v-35z" />
    <glyph glyph-name="backslash" unicode="\" horiz-adv-x="569" 
d="M627 -190h-54l-573 1574h55z" />
    <glyph glyph-name="bracketright" unicode="]" horiz-adv-x="664" 
d="M25 -436v35h303v1726h-303v31h444v-1792h-444z" />
    <glyph glyph-name="asciicircum" unicode="^" horiz-adv-x="2048" 
d="M934 1462h178l520 -565h-92l-518 436l-520 -436h-90z" />
    <glyph glyph-name="underscore" unicode="_" 
d="M0 -365h1024v-118h-1024v118z" />
    <glyph glyph-name="grave" unicode="`" 
d="M229 1242q0 26 20.5 46.5t46.5 20.5t47 -12.5t56 -47.5l289 -299h-67l-330 205q-62 39 -62 87z" />
    <glyph glyph-name="a" unicode="a" horiz-adv-x="901" 
d="M233 217q0 -197 144 -197q60 0 113.5 35t82.5 95v276q-22 2 -61 2q-142 0 -210.5 -55t-68.5 -156zM291 -25q-102 0 -169 59t-67 146q0 132 132.5 204.5t375.5 72.5h10v207q0 78 -37.5 112.5t-113.5 34.5t-129 -34t-53 -66q0 -3 28.5 -30t28.5 -66t-23.5 -65t-65.5 -26
t-67.5 26.5t-25.5 70.5q0 91 87 155t217 64t230 -72q48 -35 66 -73t18 -124v-411q0 -129 62 -129q45 0 104 78l23 -21q-86 -106 -177 -106q-64 0 -107 33.5t-56 95.5q-80 -136 -291 -136z" />
    <glyph glyph-name="b" unicode="b" horiz-adv-x="1010" 
d="M563 -25q-164 0 -264 160v-135h-289v29h119v1298h-119v29h101q107 0 190 49v-754q41 91 112 140t160 49q150 0 260.5 -126t110.5 -312t-108.5 -306.5t-272.5 -120.5zM758 293v235q0 277 -197 277q-84 0 -152 -59.5t-108 -167.5v-369q86 -203 264 -203q102 0 147.5 67
t45.5 220z" />
    <glyph glyph-name="c" unicode="c" horiz-adv-x="801" 
d="M463 -25q-178 0 -290 113.5t-112 300.5t123.5 320t300.5 133q113 0 190 -54.5t77 -132.5q0 -35 -30 -63.5t-68 -28.5t-64.5 27.5t-26.5 69.5t46 89q9 11 9 13q0 17 -40 37t-93 20q-115 0 -178 -74q-34 -39 -48.5 -93.5t-14.5 -174.5v-131q0 -112 12.5 -167t42.5 -93
q58 -74 170 -74q236 0 264 260h31q-14 -138 -94.5 -217.5t-206.5 -79.5z" />
    <glyph glyph-name="d" unicode="d" horiz-adv-x="1010" 
d="M59 400q0 184 111 311t260 127q89 0 159.5 -49t112.5 -140v678h-116v29h98q104 0 190 49v-1376h119v-29h-288v135q-107 -160 -268 -160t-269.5 120.5t-108.5 304.5zM442 801q-196 0 -196 -275v-235q0 -152 45 -218.5t147 -66.5q181 0 264 203v366q-39 108 -107 167
t-153 59z" />
    <glyph glyph-name="e" unicode="e" horiz-adv-x="801" 
d="M233 489v-237q0 -128 49 -186t156 -58t185 70t110 194h31q-37 -141 -125 -220t-209 -79q-158 0 -270.5 124.5t-112.5 307.5t101.5 309t245.5 126t244.5 -99t111.5 -252h-517zM389 811q-156 0 -156 -225v-68h316v96q0 101 -39 149t-121 48z" />
    <glyph glyph-name="f" unicode="f" horiz-adv-x="541" 
d="M457 1407q74 0 123 -48.5t49 -106.5q0 -112 -99 -111q-34 0 -54.5 22.5t-20.5 59.5t48 66.5t48 43.5q0 19 -25 31t-65 12q-71 0 -100 -65.5t-29 -239.5v-256h180v-29h-180v-757h117v-29h-402v29h119v757h-119v29h118l-1 86q0 243 76 374.5t217 131.5z" />
    <glyph glyph-name="g" unicode="g" horiz-adv-x="905" 
d="M748 544q0 -104 -93.5 -187t-222.5 -83q-33 0 -93.5 15.5t-106.5 15.5t-88 -30.5t-42 -74.5t40.5 -61.5t181.5 -17.5h172q213 0 282.5 -53t69.5 -208t-121.5 -263.5t-305.5 -108.5t-290 68.5t-106 177.5q0 66 51 124.5t143 98.5q-68 6 -113 61.5t-45 135.5t50 126.5
t145 51.5q-147 99 -147 222t92.5 204.5t230.5 81.5t219 -82q68 78 150 78q43 0 70.5 -23.5t27.5 -56.5t-19 -51.5t-51 -18.5t-53.5 17.5t-21.5 46.5t26 55q-56 -10 -108 -66q76 -91 76 -195zM262 550q0 -140 41 -193.5t131 -53.5t126 56.5t36 198.5t-38.5 199.5t-128.5 57.5
t-128.5 -62.5t-38.5 -202.5zM549 -37h-180q-116 0 -179 -56.5t-63 -160.5t76.5 -164.5t224.5 -60.5t261.5 90.5t113.5 216.5q0 74 -54.5 104.5t-199.5 30.5z" />
    <glyph glyph-name="h" unicode="h" horiz-adv-x="995" 
d="M580 801q-157 0 -267 -201v-571h113v-29h-401v29h116v1298h-116v29h98q111 0 190 49v-748q114 183 289 183q121 0 190.5 -68.5t69.5 -187.5v-555h119v-29h-403v29h114v614q0 91 -25 124.5t-87 33.5z" />
    <glyph glyph-name="i" unicode="i" horiz-adv-x="455" 
d="M135 1304q0 38 26.5 65.5t64.5 27.5t63.5 -27.5t25.5 -65.5t-25.5 -64t-63.5 -26t-64.5 26t-26.5 64zM123 815q132 0 190 25v-811h113v-29h-401v29h116v757h-116v29h98z" />
    <glyph glyph-name="j" unicode="j" horiz-adv-x="455" 
d="M143 1304q0 38 26.5 65.5t64.5 27.5t64 -27.5t26 -65.5t-26 -64t-64 -26t-64.5 26t-26.5 64zM131 815q131 0 191 25v-854q0 -235 -78 -364.5t-217 -129.5q-74 0 -122 48t-48 106q0 110 96 110q32 0 55 -22t23 -59t-49.5 -66.5t-49.5 -42.5q0 -19 25.5 -31t65.5 -12
q72 0 100.5 63t28.5 260v940h-119v29h98z" />
    <glyph glyph-name="k" unicode="k" horiz-adv-x="948" 
d="M678 733q0 27 -94 27h-29v28h344v-28h-14q-50 0 -91.5 -19t-95.5 -69l-198 -191l358 -452h115v-29h-434v29h102l-254 340l-72 -72v-268h111v-29h-401v29h116v1298h-116v29h98q103 0 192 49v-1059l265 262q98 98 98 125z" />
    <glyph glyph-name="l" unicode="l" horiz-adv-x="455" 
d="M123 1356q111 0 190 49v-1376h113v-29h-401v29h116v1298h-116v29h98z" />
    <glyph glyph-name="m" unicode="m" horiz-adv-x="1546" 
d="M580 801q-157 0 -267 -201v-571h113v-29h-401v29h116v757h-116v29h98q132 0 190 25v-183q114 183 289 183q103 0 171 -51.5t83 -141.5q120 193 297 193q121 0 190.5 -68.5t69.5 -187.5v-555h119v-29h-404v29h115v614q0 91 -25 124.5t-95 33.5q-142 0 -261 -201v-571h119
v-29h-403v29h114v614q0 91 -25 124.5t-87 33.5z" />
    <glyph glyph-name="n" unicode="n" horiz-adv-x="995" 
d="M580 801q-157 0 -267 -201v-571h113v-29h-401v29h116v757h-116v29h98q132 0 190 25v-183q114 183 289 183q121 0 190.5 -68.5t69.5 -187.5v-555h119v-29h-403v29h114v614q0 91 -25 124.5t-87 33.5z" />
    <glyph glyph-name="o" unicode="o" horiz-adv-x="891" 
d="M231 285q0 -143 52.5 -211t162.5 -68t161.5 68t51.5 211v247q0 143 -51.5 211t-161.5 68t-162.5 -68t-52.5 -211v-247zM47 408q0 176 122 304t279 128q158 0 277 -129t119 -302t-120 -303q-120 -129 -277 -129t-278 127q-122 128 -122 304z" />
    <glyph glyph-name="p" unicode="p" horiz-adv-x="1010" 
d="M565 -25q-164 0 -264 160v-600h119v-29h-408v29h119v1251h-119v29h99q127 0 190 25v-189q41 91 112 140t160 49q150 0 261.5 -127t111.5 -312t-108.5 -305.5t-272.5 -120.5zM760 293v235q0 277 -197 277q-84 0 -153.5 -60t-108.5 -167v-369q82 -203 266 -203
q102 0 147.5 67t45.5 220z" />
    <glyph glyph-name="q" unicode="q" horiz-adv-x="1010" 
d="M897 815h100v-29h-118v-1251h118v-29h-407v29h119v600q-99 -160 -264 -160t-273.5 120.5t-108.5 306.5t111 312t260 126q90 0 161 -49t112 -140v189q62 -25 190 -25zM442 6q181 0 265 203v369q-40 108 -108.5 167.5t-152.5 59.5q-196 0 -196 -277v-235q0 -153 45.5 -220
t146.5 -67z" />
    <glyph glyph-name="r" unicode="r" horiz-adv-x="682" 
d="M510 805q-60 0 -114 -81t-83 -216v-479h113v-29h-401v29h116v757h-116v29h98q132 0 190 25v-213q87 213 226 213q58 0 94.5 -30t36.5 -76t-22.5 -72.5t-59.5 -26.5t-64.5 25.5t-27.5 60.5t38 80q-18 4 -24 4z" />
    <glyph glyph-name="s" unicode="s" horiz-adv-x="674" 
d="M137 51q-37 0 -37 -57h-28v287h20q38 -143 99 -207t153 -64t141.5 50.5t49.5 131.5q0 162 -199 162q-124 0 -194 62t-70 170t65 180t157 72t178 -45q18 -9 22 -9q24 0 24 35q0 14 -2 20l33 1v-240h-23q-45 211 -223 211q-73 0 -120.5 -42.5t-47.5 -101.5t37 -100
q38 -37 158 -47q49 -4 76 -8q103 -15 160 -80t57 -182t-70.5 -197t-180.5 -80t-205 63q-23 15 -30 15z" />
    <glyph glyph-name="t" unicode="t" horiz-adv-x="592" 
d="M393 18q106 0 146 113h30q-23 -75 -76.5 -115.5t-116.5 -40.5q-117 0 -181 62q-45 43 -45 137v612h-142v29q121 0 186 65t87 207h24v-272h227v-29h-227v-643q0 -68 20 -96.5t68 -28.5z" />
    <glyph glyph-name="u" unicode="u" horiz-adv-x="991" 
d="M422 39q142 0 264 201v546h-119v29h99q130 0 190 25v-811h115v-29h-287v182q-122 -182 -293 -182q-120 0 -191 69t-71 187v530h-117v29h99q130 0 190 25v-645q0 -84 28 -120t93 -36z" />
    <glyph glyph-name="v" unicode="v" horiz-adv-x="901" 
d="M6 786v29h381v-29h-117l244 -575l188 461q17 38 17 64q0 27 -22.5 37.5t-108.5 13.5v28h284v-29h-12q-41 0 -69 -30.5t-70 -130.5l-262 -639l-17 -11l-350 811h-86z" />
    <glyph glyph-name="w" unicode="w" horiz-adv-x="1352" 
d="M6 786v29h381v-29h-117l244 -575l141 342l-102 233h-131v29h450v-29h-139l242 -575l188 460q19 47 19 69q0 23 -23 33.5t-110 12.5v29h284v-29h-12q-40 0 -66.5 -27.5t-70.5 -133.5l-264 -639l-17 -11l-229 531l-215 -520l-17 -11l-352 811h-84z" />
    <glyph glyph-name="x" unicode="x" horiz-adv-x="891" 
d="M211 78q0 -49 94 -49h12v-29h-319v29h16q98 0 195 125l178 227l-244 405h-106v29h399v-29h-102l149 -247l115 145q29 35 29 57q0 45 -99 45v29h301v-29h-10q-111 0 -180 -96l-139 -180l293 -481h100v-29h-428v29h135l-194 323l-150 -188q-45 -58 -45 -86z" />
    <glyph glyph-name="y" unicode="y" horiz-adv-x="901" 
d="M297 -436q34 0 65 81.5t82 323.5l-352 817h-86v29h381v-29h-117l252 -602l180 487q17 42 17 68q0 44 -161 47h-7v29h321v-29h-10q-43 0 -74 -35t-67 -128l-180 -484q-43 -114 -87 -276t-53 -191q-32 -102 -72.5 -142t-96.5 -40t-84.5 29t-28.5 71t24.5 68.5t62.5 26.5
t62.5 -26.5t24.5 -66.5l-2 -24q0 -4 6 -4z" />
    <glyph glyph-name="z" unicode="z" horiz-adv-x="782" 
d="M330 786q-121 0 -169 -52.5t-48 -184.5v-39h-31v305h672l-518 -786h202q122 0 181 62.5t59 191.5v20h27v-303h-680l503 786h-198z" />
    <glyph glyph-name="braceleft" unicode="{" 
d="M846 1516v-51q-142 -2 -194 -55.5t-52 -209.5v-143q0 -226 -61 -308.5t-226 -113.5q165 -31 226 -113.5t61 -308.5v-143q0 -156 51.5 -208.5t194.5 -54.5v-51h-10q-217 0 -298 73.5t-81 272.5v213q0 158 -59 218t-222 73v60q165 15 223 74t58 216v213q0 200 81 273.5
t298 73.5h10z" />
    <glyph glyph-name="bar" unicode="|" 
d="M449 1565h126v-2048h-126v2048z" />
    <glyph glyph-name="braceright" unicode="}" 
d="M178 1516h10q216 0 297.5 -74t81.5 -273v-213q0 -157 58 -216t223 -74v-60q-163 -13 -222 -73t-59 -218v-213q0 -198 -81.5 -272t-297.5 -74h-10v51q143 2 194.5 54.5t51.5 208.5v143q0 226 61 308.5t226 113.5q-165 31 -226 113.5t-61 308.5v143q0 156 -52 209.5
t-194 55.5v51z" />
    <glyph glyph-name="asciitilde" unicode="~" horiz-adv-x="1706" 
d="M1143 483q-82 1 -151 23q-70 22 -127 43q-202 72 -302 72q-157 0 -385 -160v133q209 145 387 145q127 0 326 -78q164 -59 254 -59q163 0 385 156v-131q-202 -144 -387 -144z" />
    <glyph glyph-name="Euro" horiz-adv-x="985" 
d="M864 1227q43 0 43 80h27v-398h-27q-13 184 -110 304t-229 120t-217 -144t-85 -382v-16h426l-20 -50h-408v-145h342l-20 -49h-322q0 -249 83 -396t216 -147t238 140t106 337h27v-450h-27q-6 94 -49 94q-18 0 -108.5 -75t-190.5 -75q-168 0 -310.5 166.5t-168.5 405.5h-111
l21 49h86v61q0 38 4 84h-111l23 50h94q39 258 171.5 413.5t307.5 155.5q102 0 194 -66.5t105 -66.5z" />
    <glyph glyph-name="Euro" unicode="&#x20ac;" horiz-adv-x="985" 
d="M864 1227q43 0 43 80h27v-398h-27q-13 184 -110 304t-229 120t-217 -144t-85 -382v-16h426l-20 -50h-408v-145h342l-20 -49h-322q0 -249 83 -396t216 -147t238 140t106 337h27v-450h-27q-6 94 -49 94q-18 0 -108.5 -75t-190.5 -75q-168 0 -310.5 166.5t-168.5 405.5h-111
l21 49h86v61q0 38 4 84h-111l23 50h94q39 258 171.5 413.5t307.5 155.5q102 0 194 -66.5t105 -66.5z" />
    <glyph glyph-name="nonbreakingspace" unicode="&#xa0;" horiz-adv-x="985" 
 />
    <glyph glyph-name="exclamdown" unicode="&#xa1;" horiz-adv-x="674" 
d="M319 1008v55h33v-55q0 -574 88 -826q-63 -91 -102 -211q-48 127 -107 211q88 247 88 826zM432 1293q0 -38 -26 -64.5t-64 -26.5t-64 26t-26 64t26 65t64 27t64 -26.5t26 -64.5z" />
    <glyph glyph-name="cent" unicode="&#xa2;" horiz-adv-x="985" 
d="M487 -174v174q-179 15 -280 122t-101 283t106 301t275 148v162h37l1 -158q122 -3 197 -55t75 -131q0 -36 -29.5 -63t-67.5 -27t-65 26.5t-27 67.5t46 89q10 11 10 13q0 17 -37.5 35t-85.5 18h-17l1 -798q112 5 177.5 71.5t77.5 188.5h29q-15 -134 -89.5 -210.5
t-195.5 -82.5v-174h-37zM289 429q0 -235 43 -307t155 -87v796q-112 -23 -155 -95t-43 -307z" />
    <glyph glyph-name="sterling" unicode="&#xa3;" horiz-adv-x="985" 
d="M381 360q0 141 -92 273h-207v37h182q-137 175 -137 331t112.5 257.5t268.5 101.5t238.5 -65.5t82.5 -176.5q0 -75 -33.5 -124.5t-79.5 -49.5t-75 29t-29 69t23.5 67.5t56.5 27.5l29 -2q22 0 35.5 13t13.5 34q0 51 -63.5 95t-145.5 44q-114 0 -187 -85.5t-73 -231.5
t76 -334h399v-37h-393q37 -101 37 -194q0 -94 -14 -152q123 -38 264 -111.5t172 -73.5q56 0 116 84l21 -16q-56 -102 -109.5 -148.5t-127.5 -46.5t-246 99q-87 49 -138 73q-90 -161 -196 -161q-49 0 -82 32t-33 80q0 83 72.5 142t179.5 59q33 0 77 -6q5 45 5 67zM88 106
q0 -40 22 -61.5t58 -21.5q77 0 160 145q-70 31 -123 31t-85 -26.5t-32 -66.5z" />
    <glyph glyph-name="currency" unicode="&#xa4;" horiz-adv-x="985" 
d="M864 1227q43 0 43 80h27v-398h-27q-13 184 -110 304t-229 120t-217 -144t-85 -382v-16h426l-20 -50h-408v-145h342l-20 -49h-322q0 -249 83 -396t216 -147t238 140t106 337h27v-450h-27q-6 94 -49 94q-18 0 -108.5 -75t-190.5 -75q-168 0 -310.5 166.5t-168.5 405.5h-111
l21 49h86v61q0 38 4 84h-111l23 50h94q39 258 171.5 413.5t307.5 155.5q102 0 194 -66.5t105 -66.5z" />
    <glyph glyph-name="yen" unicode="&#xa5;" horiz-adv-x="1096" 
d="M313 0v29h170v475l-49 112h-397v48h377l-66 147h-311v47h289l-199 451h-158v28h477v-28h-141l322 -719l262 590q18 42 18 72t-26 43.5t-88 13.5h-19v28h344v-28h-28q-63 0 -94 -21t-60 -90l-150 -340h271v-47h-293l-64 -147h357v-48h-379l-33 -71v-516h172v-29h-504z" />
    <glyph glyph-name="brokenbar" unicode="&#xa6;" 
d="M449 1432h126v-758h-126v758zM449 408h126v-758h-126v758z" />
    <glyph glyph-name="section" unicode="&#xa7;" 
d="M193 1031q0 133 101.5 243t233.5 110t212.5 -62t80.5 -157q0 -56 -31 -91.5t-74 -35.5t-69 27.5t-26 66.5t23.5 63t53.5 24t49 -9.5t26 -9.5t7 6q0 51 -74 101.5t-173 50.5t-171.5 -72t-72.5 -176q0 -66 37.5 -109t179.5 -108q254 -115 331.5 -194.5t77.5 -175.5
q0 -187 -190 -367q135 -99 135 -242q0 -173 -103 -280t-272 -107q-132 0 -220.5 69.5t-88.5 167.5q0 54 34 94t78 40t70.5 -28.5t26.5 -67.5t-24.5 -62t-59.5 -23l-55 13q-17 0 -17 -15q0 -60 74.5 -108.5t190.5 -48.5t199 69.5t83 179.5q0 136 -354 298
q-231 109 -284.5 173.5t-53.5 165.5q0 170 195 363q-86 91 -86 224zM834 410q0 48 -24.5 84t-91.5 81t-211.5 109.5t-205.5 106.5q-80 -77 -113.5 -131t-33.5 -106q0 -108 141 -181q24 -13 159 -77.5t246 -121.5q134 120 134 236z" />
    <glyph glyph-name="dieresis" unicode="&#xa8;" 
d="M223 1150q0 41 29.5 71t69.5 30t70 -30t30 -71t-29 -69t-71 -28t-70.5 28t-28.5 69zM604 1150q0 41 29 71t69 30t70.5 -30t30.5 -71t-29.5 -69t-71.5 -28t-70 28t-28 69z" />
    <glyph glyph-name="copyright" unicode="&#xa9;" horiz-adv-x="1683" 
d="M842 1382q140 0 269 -53.5t227 -150.5t152 -228.5t54 -346t-204 -421.5t-495.5 -207t-498.5 205t-207 496t205 500q98 99 228 152.5t270 53.5zM842 1303q-121 0 -235.5 -48.5t-201.5 -136.5q-180 -183 -180 -441t181 -439t437 -181t436 184q179 184 179 372.5t-47 305
t-133 202.5t-200.5 134t-235.5 48zM588 680q0 -377 266 -377q170 0 283 174l34 -24q-115 -209 -342 -209q-167 0 -285 123t-118 303t116 306t285 126q74 0 148 -34t82 -34q52 0 63 62h35l2 -314h-41q-68 275 -280 275q-248 0 -248 -377z" />
    <glyph glyph-name="ordfeminine" unicode="&#xaa;" horiz-adv-x="676" 
d="M385 1085q-209 0 -209 -157q0 -61 28 -94t76 -33t88 24t62 66v194h-45zM430 1251q0 103 -113 103q-57 0 -97 -24t-40 -46q0 -2 21.5 -20t21.5 -46t-18.5 -46.5t-48.5 -18.5t-50 19t-20 49q0 64 65.5 108.5t139.5 44.5q123 0 196 -49q37 -26 50.5 -53t13.5 -86v-287
q0 -90 45 -90q34 0 78 53l18 -14q-65 -74 -133 -74q-100 0 -123 90q-58 -94 -217 -94q-77 0 -127.5 40.5t-50.5 102.5q0 92 100 142.5t281 50.5h8v145z" />
    <glyph glyph-name="guillemotleft" unicode="&#xab;" horiz-adv-x="909" 
d="M436 98q-87 92 -325 312q233 214 325 311h29q-55 -107 -227 -311q173 -208 227 -312h-29zM774 98q-75 80 -325 312q244 225 325 311h27q-55 -107 -226 -311q173 -207 226 -312h-27z" />
    <glyph glyph-name="logicalnot" unicode="&#xac;" horiz-adv-x="1706" 
d="M254 858h1198v-502h-115v385h-1083v117z" />
    <glyph glyph-name="sfthyphen" unicode="&#xad;" horiz-adv-x="786" 
d="M170 344v131h446v-131h-446z" />
    <glyph glyph-name="registered" unicode="&#xae;" horiz-adv-x="1683" 
d="M842 1382q140 0 270 -54t228 -152t151 -228.5t53 -269.5t-56 -269.5t-156 -230.5q-202 -202 -490 -203q-288 0 -495.5 205t-207.5 496t205 500q98 99 228 152.5t270 53.5zM842 1303q-120 0 -234 -48t-248.5 -184t-134.5 -394t181 -439t437 -181t436 184
q179 184 179 372.5t-47 306t-133 202.5t-201 133t-235 48zM1286 451q0 -179 -160 -179q-94 0 -127 66q-18 40 -21 113.5t-9 95.5q-39 133 -207 133h-33v-248q0 -54 26.5 -75.5t98.5 -25.5v-40h-385v40q72 3 99.5 24.5t27.5 76.5v516q0 55 -26 76t-101 25v43h393
q147 0 232.5 -54.5t85.5 -138.5t-69.5 -132t-217.5 -75q93 -29 150.5 -86t73.5 -188q13 -88 59 -88q67 0 67 133h43v-12zM795 717q112 0 173.5 45.5t61.5 123.5t-53 122.5t-151 44.5t-97 -72v-262q32 -2 66 -2z" />
    <glyph glyph-name="macron" unicode="&#xaf;" 
d="M254 1042v125h516v-125h-516z" />
    <glyph glyph-name="degree" unicode="&#xb0;" horiz-adv-x="674" 
d="M338 1454q118 0 200.5 -83t82.5 -199t-83.5 -199.5t-201.5 -83.5t-199.5 82.5t-81.5 200.5t82.5 200t200.5 82zM338 1372q-84 0 -143.5 -58.5t-59.5 -142.5t59.5 -143t143.5 -59t142.5 59t58.5 143t-58.5 142.5t-142.5 58.5z" />
    <glyph glyph-name="plusminus" unicode="&#xb1;" horiz-adv-x="1706" 
d="M795 1180h118v-344h539v-117h-539v-344h-118v344h-541v117h541v344zM254 158h1198v-117h-1198v117z" />
    <glyph glyph-name="twosuperior" unicode="&#xb2;" horiz-adv-x="649" 
d="M457 1128q0 90 -51.5 144.5t-133.5 54.5t-140 -44t-58 -93q0 -19 9 -26t41 -9q64 -4 64 -51q0 -26 -18 -44t-50 -18t-56.5 29.5t-24.5 75.5q0 85 73.5 143t194.5 58t198 -62t77 -166q0 -69 -44 -130t-170 -155l-54 -39q-139 -99 -197 -165h450l23 127h20l-37 -223h-546
q25 72 187 215t202.5 215.5t40.5 162.5z" />
    <glyph glyph-name="threesuperior" unicode="&#xb3;" horiz-adv-x="649" 
d="M201 993q138 0 194 40.5t56 127.5q0 170 -160 170q-66 0 -117 -26t-51 -54q0 -10 27 -10h10q21 0 35 -13t14 -35t-16 -38t-39 -16q-72 0 -72 73q0 59 62 97.5t170 38.5t175.5 -48t67.5 -126t-57.5 -125t-155.5 -58q122 -17 188 -75.5t66 -154.5t-93 -168.5t-217 -72.5
t-192.5 44t-68.5 114q0 37 22.5 61.5t52.5 24.5t50 -18t20 -42t-17 -41.5t-42 -17.5l-35 4q-12 0 -12 -20q0 -30 59.5 -60t150.5 -30t148 56.5t57 168.5t-61.5 165.5t-198.5 53.5q-11 0 -75 -4v16q22 -2 55 -2z" />
    <glyph glyph-name="acute" unicode="&#xb4;" 
d="M728 1309q26 0 46.5 -20.5t20.5 -46.5q0 -48 -62 -87l-330 -205h-67l289 299q35 35 56 47.5t47 12.5z" />
    <glyph glyph-name="mu" unicode="&#xb5;" horiz-adv-x="1120" 
d="M0 -418q-37 0 -58.5 24t-21.5 64t64.5 273.5t105.5 427.5l109 514h147l-104 -492q-13 -65 -13 -130t42 -111t129 -46t152.5 68.5t94.5 200.5l111 510h149l-114 -531q-21 -95 -21 -140t26 -75t64 -30t68 18t51 51t41 93.5t39 60.5q26 0 26 -31q0 -63 -39 -150
q-75 -169 -231 -169q-68 0 -108.5 51t-40.5 139v23q-91 -218 -283 -218t-221 216q-27 -136 -52 -339q-34 -272 -112 -272z" />
    <glyph glyph-name="paragraph" unicode="&#xb6;" 
d="M948 1479v-78h-125v-1401h-94v1401h-182v-1401h-96v782q-173 8 -274 102.5t-101 248.5t107.5 250t285.5 96h479z" />
    <glyph glyph-name="glyph122" unicode="&#xb7;" horiz-adv-x="494" 
d="M156 668q0 38 26 65t64 27t65 -27t27 -65t-27 -64t-65 -26t-64 26t-26 64z" />
    <glyph glyph-name="cedilla" unicode="&#xb8;" 
d="M481 -356q109 0 109 98q0 43 -23 68.5t-47 25.5t-43 -3v167h35v-124l43 1q88 0 138 -37.5t50 -99.5t-61 -101.5t-162 -39.5t-262 59l21 41q145 -55 202 -55z" />
    <glyph glyph-name="onesuperior" unicode="&#xb9;" horiz-adv-x="651" 
d="M414 1337v-782h100v-20h-326v20h111v627q0 43 -14 43t-73.5 -26t-129.5 -66l-4 20q187 101 291 184h45z" />
    <glyph glyph-name="ordmasculine" unicode="&#xba;" horiz-adv-x="668" 
d="M296 1354q-122 0 -122 -195v-174q0 -194 122 -194t161 47t39 147v174q0 100 -39 147.5t-161 47.5zM337 1374q119 0 207.5 -90t88.5 -211t-89 -212t-208 -91t-210 90t-91 213t92 212q91 89 210 89z" />
    <glyph glyph-name="guillemotright" unicode="&#xbb;" horiz-adv-x="909" 
d="M469 721q85 -91 326 -311q-246 -227 -326 -312h-27q53 105 226 312q-171 204 -226 311h27zM133 721q100 -104 326 -311q-231 -213 -326 -312h-29q52 101 228 312q-174 208 -228 311h29z" />
    <glyph glyph-name="onequarter" unicode="&#xbc;" horiz-adv-x="1583" 
d="M395 1337v-729h97v-20h-312v20h105v584q0 41 -13 41t-70.5 -24.5t-123.5 -61.5l-4 18q180 95 278 172h43zM340 -25h-61l962 1385h62zM1229 0v20h94v250h-348l448 510l15 -8l-373 -424h258v258h111v-258h125v-78h-125v-250h98v-20h-303z" />
    <glyph glyph-name="onehalf" unicode="&#xbd;" horiz-adv-x="1583" 
d="M395 1337v-729h97v-20h-312v20h105v584q0 41 -13 41t-70.5 -24.5t-123.5 -61.5l-4 18q180 95 278 172h43zM340 -25h-61l962 1385h62zM1399 554q0 84 -49.5 134.5t-127.5 50.5t-134 -40.5t-56 -86.5q0 -17 10 -23.5t39 -8.5t45.5 -14.5t16.5 -35.5t-18 -39t-49 -16t-54 27
t-23 69q0 81 70.5 135t186.5 54t190 -58.5t74 -154.5q0 -63 -45.5 -125t-194.5 -165q-148 -103 -205 -167h430l21 117h18l-35 -207h-522q27 71 209 226l21 18q105 92 143.5 159t38.5 151z" />
    <glyph glyph-name="threequarters" unicode="&#xbe;" horiz-adv-x="1583" 
d="M193 1016q132 0 184.5 37t52.5 119q0 158 -154 159q-60 0 -109.5 -24.5t-49.5 -49.5q0 -10 24 -10h11q20 0 33.5 -12.5t13.5 -32.5t-15.5 -35.5t-41.5 -15.5t-45 18.5t-19 51.5q0 55 58 91t162 36t169 -45t65 -117t-55.5 -117t-148.5 -55q117 -15 180 -69.5t63 -144.5
t-88.5 -158.5t-206.5 -68.5t-183.5 41.5t-65.5 106.5q0 35 21.5 57.5t50.5 22.5t48 -16.5t19 -38.5t-17.5 -39t-39.5 -17l-33 4q-15 0 -15 -18q0 -28 58 -56t145 -28t141 52.5t54 157.5t-58.5 154.5t-189.5 49.5q-42 0 -72 -2l1 14q16 -2 53 -2zM340 -25h-61l962 1385h62z
M1229 0v20h94v250h-348l448 510l15 -8l-373 -424h258v258h111v-258h125v-78h-125v-250h98v-20h-303z" />
    <glyph glyph-name="questiondown" unicode="&#xbf;" horiz-adv-x="920" 
d="M647 1294q0 -38 -26 -65t-64 -27t-65 27t-27 65t26.5 64t64.5 26t64.5 -26t26.5 -64zM610 856q0 -193 -194 -355q-183 -159 -183 -286q0 -94 66 -155.5t157 -61.5t149.5 36.5t58.5 74.5q0 22 -47 38q-47 17 -64.5 37.5t-17.5 51.5q0 90 88 90q49 0 78.5 -33t29.5 -88
q0 -105 -73 -171.5t-199 -66.5t-207.5 94.5t-81.5 249.5q0 103 40.5 184.5t141.5 174.5q18 16 51 45q158 137 158 266q0 26 -6 94l27 4q28 -110 28 -223z" />
    <glyph glyph-name="Agrave" unicode="&#xc0;" horiz-adv-x="934" 
d="M-145 0v29h26q108 0 147 123l396 1218h22l482 -1341h135v-29h-520v29h176l-150 411h-417l-101 -326q-8 -27 -8 -36q0 -25 29 -35t137 -14v-29h-354zM162 469h397l-207 580zM184 1788q0 26 20 46t48 20q26 0 46 -12t56 -48l289 -299h-67l-330 205q-62 40 -62 88z" />
    <glyph glyph-name="Aacute" unicode="&#xc1;" horiz-adv-x="934" 
d="M-145 0v29h26q108 0 147 123l396 1218h22l482 -1341h135v-29h-520v29h176l-150 411h-417l-101 -326q-8 -27 -8 -36q0 -25 29 -35t137 -14v-29h-354zM162 469h397l-207 580zM682 1854q26 0 48 -20q20 -20 20 -46q0 -48 -62 -88l-330 -205h-67l289 299q36 36 56 48t46 12z
" />
    <glyph glyph-name="Acircumflex" unicode="&#xc2;" horiz-adv-x="934" 
d="M-145 0v29h26q108 0 147 123l396 1218h22l482 -1341h135v-29h-520v29h176l-150 411h-417l-101 -326q-8 -27 -8 -36q0 -25 29 -35t137 -14v-29h-354zM162 469h397l-207 580zM176 1495l232 348h118l232 -348h-58l-233 209l-233 -209h-58z" />
    <glyph glyph-name="Atilde" unicode="&#xc3;" horiz-adv-x="934" 
d="M-145 0v29h26q108 0 147 123l396 1218h22l482 -1341h135v-29h-520v29h176l-150 411h-417l-101 -326q-8 -27 -8 -36q0 -25 29 -35t137 -14v-29h-354zM162 469h397l-207 580zM377 1753q33 0 63 -8l110 -28q44 -11 68 -11q56 0 82 86h54q-40 -205 -195 -205q-30 0 -74 11
l-108 28q-26 6 -57 8q-61 3 -89 -92h-51q38 211 197 211z" />
    <glyph glyph-name="Adieresis" unicode="&#xc4;" horiz-adv-x="934" 
d="M-145 0v29h26q108 0 147 123l396 1218h22l482 -1341h135v-29h-520v29h176l-150 411h-417l-101 -326q-8 -27 -8 -36q0 -25 29 -35t137 -14v-29h-354zM162 469h397l-207 580zM178 1695q0 41 30 71t68 30q40 0 70 -30t31 -71q0 -41 -29 -69q-30 -28 -72 -28t-70 28t-28 69z
M559 1695q-1 41 29 71t70 30t70 -30t30 -71t-29 -69t-71 -28t-71 28q-28 28 -28 69z" />
    <glyph glyph-name="Aring" unicode="&#xc5;" horiz-adv-x="934" 
d="M-145 0v29h26q108 0 147 123l396 1218h22l482 -1341h135v-29h-520v29h176l-150 411h-417l-101 -326q-8 -27 -8 -36q0 -25 29 -35t137 -14v-29h-354zM162 469h397l-207 580zM197 1678q0 102 68.5 170.5t170.5 68.5t172 -69.5t70 -170.5t-70 -171t-172 -70t-170.5 70
t-68.5 172zM270 1677q0 -71 48 -119.5t118 -48.5t119 49.5t49 118.5t-49 118.5t-119 49.5t-118 -48.5t-48 -119.5z" />
    <glyph glyph-name="AE" unicode="&#xc6;" horiz-adv-x="1788" 
d="M68 90q0 -59 122 -59h15v-31h-398v25h7q93 0 153.5 45.5t143.5 205.5l546 1053h-178v27h1092l24 -330h-28q-16 174 -95 237.5t-298 63.5h-259v-622h64q178 0 237.5 49t59.5 182v8h29v-504h-29v13q0 130 -54 175.5t-243 45.5h-64v-645h263q262 0 363 80t101 280v6h29v-395
h-1104v29h146v415h-482l-127 -251q-36 -70 -36 -103zM713 473v856h-21l-440 -856h461z" />
    <glyph glyph-name="Ccedilla" unicode="&#xc7;" horiz-adv-x="1241" 
d="M680 1356q-391 0 -391 -699q0 -320 76 -460q49 -91 129 -143t174 -52t190 58q98 58 160 154q62 95 76 271h26v-458h-26q-16 96 -66 96q-24 -1 -66 -29l-54 -36q-129 -87 -251 -87h-14v-95l43 1q88 0 138 -37q50 -38 50 -100t-61 -102t-162 -39q-101 0 -262 59l21 41
q146 -55 202 -55q109 0 109 98q0 42 -23 68t-47 26t-43 -3v141q-209 22 -378 217t-169 458q0 319 180 527t425 208q129 0 278 -93l40 -25t54 -21q52 0 56 82h26v-405h-26q-20 190 -138 312t-276 122z" />
    <glyph glyph-name="Egrave" unicode="&#xc8;" horiz-adv-x="1284" 
d="M178 29v1298h-143v29h1003l25 -330h-31q-14 174 -94 238t-299 63h-256v-622h63q177 1 236 49t59 182v8h29v-508h-29v17q1 131 -53 176t-242 45h-63v-645h262q263 0 364 80t101 280v6h29v-395h-1104v29h143zM405 1788q1 26 21 46t46 20t48 -12q20 -12 55 -48l289 -299h-67
l-330 205q-62 40 -62 88z" />
    <glyph glyph-name="Eacute" unicode="&#xc9;" horiz-adv-x="1284" 
d="M178 29v1298h-143v29h1003l25 -330h-31q-14 174 -94 238t-299 63h-256v-622h63q177 1 236 49t59 182v8h29v-508h-29v17q1 131 -53 176t-242 45h-63v-645h262q263 0 364 80t101 280v6h29v-395h-1104v29h143zM904 1854q26 0 46 -20t21 -46q0 -48 -62 -88l-330 -205h-67
l289 299q35 36 55 48q22 12 48 12z" />
    <glyph glyph-name="Ecircumflex" unicode="&#xca;" horiz-adv-x="1284" 
d="M178 29v1298h-143v29h1003l25 -330h-31q-14 174 -94 238t-299 63h-256v-622h63q177 1 236 49t59 182v8h29v-508h-29v17q1 131 -53 176t-242 45h-63v-645h262q263 0 364 80t101 280v6h29v-395h-1104v29h143zM397 1495l232 348h118l232 -348h-58l-233 209l-233 -209h-58z
" />
    <glyph glyph-name="Edieresis" unicode="&#xcb;" horiz-adv-x="1284" 
d="M178 29v1298h-143v29h1003l25 -330h-31q-14 174 -94 238t-299 63h-256v-622h63q177 1 236 49t59 182v8h29v-508h-29v17q1 131 -53 176t-242 45h-63v-645h262q263 0 364 80t101 280v6h29v-395h-1104v29h143zM399 1695q-1 41 29 71t70 30t70 -30t30 -71t-29 -69t-71 -28
t-71 28q-28 28 -28 69zM780 1695q0 41 30 71t68 30q40 0 70 -30t31 -71q0 -41 -29 -69q-30 -28 -72 -28t-70 28t-28 69z" />
    <glyph glyph-name="Igrave" unicode="&#xcc;" horiz-adv-x="555" 
d="M25 0v29h153v1298h-153v29h505v-29h-145v-1298h145v-29h-505zM-37 1788q1 26 21 46t46 20t48 -12q20 -12 55 -48l289 -299h-67l-330 205q-62 40 -62 88z" />
    <glyph glyph-name="Iacute" unicode="&#xcd;" horiz-adv-x="555" 
d="M25 0v29h153v1298h-153v29h505v-29h-145v-1298h145v-29h-505zM462 1854q26 0 46 -20t21 -46q0 -48 -62 -88l-330 -205h-67l289 299q35 36 55 48q22 12 48 12z" />
    <glyph glyph-name="Icircumflex" unicode="&#xce;" horiz-adv-x="555" 
d="M25 0v29h153v1298h-153v29h505v-29h-145v-1298h145v-29h-505zM-45 1495l232 348h118l232 -348h-58l-233 209l-233 -209h-58z" />
    <glyph glyph-name="Idieresis" unicode="&#xcf;" horiz-adv-x="555" 
d="M25 0v29h153v1298h-153v29h505v-29h-145v-1298h145v-29h-505zM-43 1695q-1 41 29 71t70 30t70 -30t30 -71t-29 -69t-71 -28t-71 28q-28 28 -28 69zM338 1695q0 41 30 71t68 30q40 0 70 -30t31 -71q0 -41 -29 -69q-30 -28 -72 -28t-70 28t-28 69z" />
    <glyph glyph-name="Eth" unicode="&#xd0;" horiz-adv-x="1337" 
d="M25 0v29h149v651h-174v53h174v594h-149v29h512q170 0 290 -37t223 -127t161.5 -222t58.5 -292q0 -324 -230 -522q-94 -82 -214 -119t-289 -37h-512zM379 29h119q278 0 414.5 160.5t136.5 488.5t-136 488.5t-415 160.5h-119v-594h352v-53h-352v-651z" />
    <glyph glyph-name="Ntilde" unicode="&#xd1;" horiz-adv-x="1352" 
d="M217 186q-1 -97 31 -124t149 -33v-29h-374v29q95 7 123 33t28 126v1139h-151v29h387l725 -994v807q1 98 -31 125t-150 33v29h373v-29q-95 -7 -123 -34t-28 -126v-1177h-23l-936 1278v-1082zM586 1753q33 0 63 -8l110 -28q44 -11 68 -11q56 0 82 86h54q-40 -205 -195 -205
q-30 0 -74 11l-108 28q-26 6 -57 8q-61 3 -89 -92h-51q38 211 197 211z" />
    <glyph glyph-name="Ograve" unicode="&#xd2;" horiz-adv-x="1346" 
d="M233 1165q189 219 442 219t439 -219q166 -193 166 -487t-166 -488q-188 -219 -439 -219t-442 219q-167 197 -167 489q0 291 167 486zM289 678q1 -318 103 -497t282 -179t282 178t101 498q0 320 -102 499q-101 179 -281 179t-282 -180t-103 -498zM352 1788q0 26 20 46
t48 20q26 0 46 -12t56 -48l289 -299h-67l-330 205q-62 40 -62 88z" />
    <glyph glyph-name="Oacute" unicode="&#xd3;" horiz-adv-x="1346" 
d="M233 1165q189 219 442 219t439 -219q166 -193 166 -487t-166 -488q-188 -219 -439 -219t-442 219q-167 197 -167 489q0 291 167 486zM289 678q1 -318 103 -497t282 -179t282 178t101 498q0 320 -102 499q-101 179 -281 179t-282 -180t-103 -498zM850 1854q26 0 48 -20
q20 -20 20 -46q0 -48 -62 -88l-330 -205h-67l289 299q36 36 56 48t46 12z" />
    <glyph glyph-name="Ocircumflex" unicode="&#xd4;" horiz-adv-x="1346" 
d="M233 1165q189 219 442 219t439 -219q166 -193 166 -487t-166 -488q-188 -219 -439 -219t-442 219q-167 197 -167 489q0 291 167 486zM289 678q1 -318 103 -497t282 -179t282 178t101 498q0 320 -102 499q-101 179 -281 179t-282 -180t-103 -498zM344 1495l232 348h118
l232 -348h-58l-233 209l-233 -209h-58z" />
    <glyph glyph-name="Otilde" unicode="&#xd5;" horiz-adv-x="1346" 
d="M233 1165q189 219 442 219t439 -219q166 -193 166 -487t-166 -488q-188 -219 -439 -219t-442 219q-167 197 -167 489q0 291 167 486zM289 678q1 -318 103 -497t282 -179t282 178t101 498q0 320 -102 499q-101 179 -281 179t-282 -180t-103 -498zM545 1753q33 0 63 -8
l110 -28q44 -11 68 -11q56 0 82 86h54q-40 -205 -195 -205q-30 0 -74 11l-108 28q-26 6 -57 8q-61 3 -89 -92h-51q38 211 197 211z" />
    <glyph glyph-name="Odieresis" unicode="&#xd6;" horiz-adv-x="1346" 
d="M233 1165q189 219 442 219t439 -219q166 -193 166 -487t-166 -488q-188 -219 -439 -219t-442 219q-167 197 -167 489q0 291 167 486zM289 678q1 -318 103 -497t282 -179t282 178t101 498q0 320 -102 499q-101 179 -281 179t-282 -180t-103 -498zM346 1695q0 41 30 71
t68 30q40 0 70 -30t31 -71q0 -41 -29 -69q-30 -28 -72 -28t-70 28t-28 69zM727 1695q-1 41 29 71t70 30t70 -30t30 -71t-29 -69t-71 -28t-71 28q-28 28 -28 69z" />
    <glyph glyph-name="multiply" unicode="&#xd7;" horiz-adv-x="1706" 
d="M381 1169l477 -477l475 477l82 -82l-475 -477l475 -475l-82 -82l-475 475l-477 -475l-80 82l475 475l-475 477z" />
    <glyph glyph-name="Oslash" unicode="&#xd8;" horiz-adv-x="1346" 
d="M1057 709q0 176 -49 348l-660 -783q107 -272 326 -272q183 0 283 183t100 524zM289 672q0 -199 43 -353l661 785q-117 252 -308 252t-293.5 -179t-102.5 -505zM66 678q0 240 116 418q92 140 218.5 214t273.5 74q227 0 405 -182l164 193l33 -21l-170 -200
q174 -190 174 -500q0 -224 -96 -384t-228.5 -239.5t-281.5 -79.5q-227 0 -418 195l-166 -195l-27 29l166 197q-163 190 -163 481z" />
    <glyph glyph-name="Ugrave" unicode="&#xd9;" horiz-adv-x="1346" 
d="M168 1327h-156v29h535v-29h-168v-895q-1 -139 9 -195q22 -131 153 -185q79 -32 193 -32q229 0 337 146q33 46 47 102t15 181v706q1 125 -27 149t-139 23h-35v29h401v-29h-16q-94 0 -121 -25t-27 -149v-696q0 -141 -14 -203q-37 -168 -217 -240q-108 -44 -258 -43
q-295 0 -424 135q-48 51 -68 119t-20 228v874zM391 1788q1 26 21 46t46 20t48 -12q20 -12 55 -48l289 -299h-67l-330 205q-62 40 -62 88z" />
    <glyph glyph-name="Uacute" unicode="&#xda;" horiz-adv-x="1346" 
d="M168 1327h-156v29h535v-29h-168v-895q-1 -139 9 -195q22 -131 153 -185q79 -32 193 -32q229 0 337 146q33 46 47 102t15 181v706q1 125 -27 149t-139 23h-35v29h401v-29h-16q-94 0 -121 -25t-27 -149v-696q0 -141 -14 -203q-37 -168 -217 -240q-108 -44 -258 -43
q-295 0 -424 135q-48 51 -68 119t-20 228v874zM890 1854q26 0 46 -20t21 -46q0 -48 -62 -88l-330 -205h-67l289 299q35 36 55 48q22 12 48 12z" />
    <glyph glyph-name="Ucircumflex" unicode="&#xdb;" horiz-adv-x="1346" 
d="M168 1327h-156v29h535v-29h-168v-895q-1 -139 9 -195q22 -131 153 -185q79 -32 193 -32q229 0 337 146q33 46 47 102t15 181v706q1 125 -27 149t-139 23h-35v29h401v-29h-16q-94 0 -121 -25t-27 -149v-696q0 -141 -14 -203q-37 -168 -217 -240q-108 -44 -258 -43
q-295 0 -424 135q-48 51 -68 119t-20 228v874zM383 1495l232 348h118l232 -348h-58l-233 209l-233 -209h-58z" />
    <glyph glyph-name="Udieresis" unicode="&#xdc;" horiz-adv-x="1346" 
d="M168 1327h-156v29h535v-29h-168v-895q-1 -139 9 -195q22 -131 153 -185q79 -32 193 -32q229 0 337 146q33 46 47 102t15 181v706q1 125 -27 149t-139 23h-35v29h401v-29h-16q-94 0 -121 -25t-27 -149v-696q0 -141 -14 -203q-37 -168 -217 -240q-108 -44 -258 -43
q-295 0 -424 135q-48 51 -68 119t-20 228v874zM385 1695q-1 41 29 71t70 30t70 -30t30 -71t-29 -69t-71 -28t-71 28q-28 28 -28 69zM766 1695q0 41 30 71t68 30q40 0 70 -30t31 -71q0 -41 -29 -69q-30 -28 -72 -28t-70 28t-28 69z" />
    <glyph glyph-name="Yacute" unicode="&#xdd;" horiz-adv-x="1014" 
d="M233 0v29h177v483l-363 815h-160v29h523v-29h-146l328 -729l264 598q21 47 21 76q-1 29 -27 42t-90 13h-19v29h349v-29h-31q-61 0 -91 -20t-63 -90l-295 -666v-522h174v-29h-551zM724 1854q26 0 46 -20t21 -46q0 -48 -62 -88l-330 -205h-67l289 299q35 36 55 48
q22 12 48 12z" />
    <glyph glyph-name="Thorn" unicode="&#xde;" horiz-adv-x="1124" 
d="M610 309q-110 0 -227 37v-317h147v-29h-505v29h155v1298h-155v29h516v-29h-158v-252h172q254 0 386 -94.5t132 -274.5t-127.5 -288.5t-335.5 -108.5zM877 686q0 365 -435 365l-59 -2v-666q117 -39 192 -39q137 0 219.5 93t82.5 249z" />
    <glyph glyph-name="germandbls" unicode="&#xdf;" horiz-adv-x="1034" 
d="M20 0v29h107v757h-107v29h107v35q0 266 106 410.5t302 144.5q124 0 205 -77.5t81 -191.5t-92 -223q-21 -25 -84 -95t-63 -110t104 -83q191 -84 239 -147.5t48 -162.5q0 -150 -91.5 -245t-219.5 -95t-195.5 58.5t-67.5 152.5q0 49 29 79t71 30t64.5 -21.5t22.5 -57.5
t-46 -71t-46 -63t45 -52t131 -24t155.5 64t69.5 159q0 125 -134 181q-21 9 -59 25q-213 90 -213 179q0 67 109 199q37 46 66 83t49 103.5t20 156.5t-54.5 154t-146.5 64q-124 0 -180.5 -105t-56.5 -339v-901h100v-29h-375z" />
    <glyph glyph-name="agrave" unicode="&#xe0;" horiz-adv-x="901" 
d="M233 217q0 -197 144 -197q59 0 113 35t83 95v276q-22 2 -61 2q-142 0 -210 -55t-69 -156zM291 -25q-102 0 -169 59t-67 146q1 132 133 204t375 73h10v207q0 78 -37 112q-38 34 -114 35q-76 0 -129 -34t-53 -66q0 -3 28 -30t29 -66q0 -39 -24 -65q-23 -26 -65 -26t-68 26
t-25 71q0 91 87 155t217 64t230 -72q48 -35 66 -73t18 -124v-411q0 -129 62 -129q45 0 104 78l23 -21q-86 -106 -177 -106q-64 0 -107 34t-56 95q-80 -136 -291 -136zM168 1242q0 26 20 47q20 20 48 20q26 -1 46 -13t56 -47l289 -299h-67l-330 205q-62 39 -62 87z" />
    <glyph glyph-name="aacute" unicode="&#xe1;" horiz-adv-x="901" 
d="M233 217q0 -197 144 -197q59 0 113 35t83 95v276q-22 2 -61 2q-142 0 -210 -55t-69 -156zM291 -25q-102 0 -169 59t-67 146q1 132 133 204t375 73h10v207q0 78 -37 112q-38 34 -114 35q-76 0 -129 -34t-53 -66q0 -3 28 -30t29 -66q0 -39 -24 -65q-23 -26 -65 -26t-68 26
t-25 71q0 91 87 155t217 64t230 -72q48 -35 66 -73t18 -124v-411q0 -129 62 -129q45 0 104 78l23 -21q-86 -106 -177 -106q-64 0 -107 34t-56 95q-80 -136 -291 -136zM666 1309q26 0 48 -20q20 -21 20 -47q0 -48 -62 -87l-330 -205h-67l289 299q36 35 56 47t46 13z" />
    <glyph glyph-name="acircumflex" unicode="&#xe2;" horiz-adv-x="901" 
d="M233 217q0 -197 144 -197q59 0 113 35t83 95v276q-22 2 -61 2q-142 0 -210 -55t-69 -156zM291 -25q-102 0 -169 59t-67 146q1 132 133 204t375 73h10v207q0 78 -37 112q-38 34 -114 35q-76 0 -129 -34t-53 -66q0 -3 28 -30t29 -66q0 -39 -24 -65q-23 -26 -65 -26t-68 26
t-25 71q0 91 87 155t217 64t230 -72q48 -35 66 -73t18 -124v-411q0 -129 62 -129q45 0 104 78l23 -21q-86 -106 -177 -106q-64 0 -107 34t-56 95q-80 -136 -291 -136zM160 950l232 348h118l232 -348h-58l-233 209l-233 -209h-58z" />
    <glyph glyph-name="atilde" unicode="&#xe3;" horiz-adv-x="901" 
d="M233 217q0 -197 144 -197q59 0 113 35t83 95v276q-22 2 -61 2q-142 0 -210 -55t-69 -156zM291 -25q-102 0 -169 59t-67 146q1 132 133 204t375 73h10v207q0 78 -37 112q-38 34 -114 35q-76 0 -129 -34t-53 -66q0 -3 28 -30t29 -66q0 -39 -24 -65q-23 -26 -65 -26t-68 26
t-25 71q0 91 87 155t217 64t230 -72q48 -35 66 -73t18 -124v-411q0 -129 62 -129q45 0 104 78l23 -21q-86 -106 -177 -106q-64 0 -107 34t-56 95q-80 -136 -291 -136zM361 1208q33 0 63 -8l110 -28q44 -11 68 -11q56 0 82 86h54q-40 -205 -195 -205q-30 0 -74 11l-108 28
q-26 6 -57 8q-61 3 -89 -92h-51q38 211 197 211z" />
    <glyph glyph-name="adieresis" unicode="&#xe4;" horiz-adv-x="901" 
d="M233 217q0 -197 144 -197q59 0 113 35t83 95v276q-22 2 -61 2q-142 0 -210 -55t-69 -156zM291 -25q-102 0 -169 59t-67 146q1 132 133 204t375 73h10v207q0 78 -37 112q-38 34 -114 35q-76 0 -129 -34t-53 -66q0 -3 28 -30t29 -66q0 -39 -24 -65q-23 -26 -65 -26t-68 26
t-25 71q0 91 87 155t217 64t230 -72q48 -35 66 -73t18 -124v-411q0 -129 62 -129q45 0 104 78l23 -21q-86 -106 -177 -106q-64 0 -107 34t-56 95q-80 -136 -291 -136zM162 1150q0 41 30 71t68 30q40 0 70 -30t31 -71q0 -41 -29 -69q-30 -28 -72 -28t-70 28t-28 69zM543 1150
q-1 41 29 71t70 30t70 -30t30 -71t-29 -69t-71 -28t-71 28q-28 28 -28 69z" />
    <glyph glyph-name="aring" unicode="&#xe5;" horiz-adv-x="901" 
d="M233 217q0 -197 144 -197q60 0 113.5 35t82.5 95v276q-22 2 -61 2q-142 0 -210.5 -55t-68.5 -156zM291 -25q-102 0 -169 59t-67 146q0 132 132.5 204.5t375.5 72.5h10v207q0 78 -37.5 112.5t-113.5 34.5t-129 -34t-53 -66q0 -3 28.5 -30t28.5 -66t-23.5 -65t-65.5 -26
t-67.5 26.5t-25.5 70.5q0 91 87 155t217 64t230 -72q48 -35 66 -73t18 -124v-411q0 -129 62 -129q45 0 104 78l23 -21q-86 -106 -177 -106q-64 0 -107 33.5t-56 95.5q-80 -136 -291 -136zM178 1147q0 101 70 170t172 69t172 -69t70 -170t-70 -171.5t-172 -70.5t-172 70.5
t-70 171.5zM254 1146q0 -70 48 -118.5t118 -48.5t119 48.5t49 118.5t-49.5 119.5t-118.5 49.5t-117.5 -49.5t-48.5 -119.5z" />
    <glyph glyph-name="ae" unicode="&#xe6;" horiz-adv-x="1331" 
d="M55 176q0 135 131 208t375 73h19v207q0 80 -39.5 113.5t-118.5 33.5t-130.5 -34t-51.5 -64q0 -3 28.5 -31t28.5 -67t-23.5 -65t-65.5 -26t-67.5 26t-25.5 71q0 92 86 155.5t219 63.5q186 0 287 -99q97 99 231 99t232 -96.5t110 -251.5h-528v-213q0 -139 53.5 -204
t162.5 -65t186.5 70t109.5 194h32q-81 -299 -370 -299q-217 0 -344 129q-93 -131 -293 -131q-101 0 -167.5 58t-66.5 145zM1079 614q0 197 -164 197q-77 0 -120 -59t-43 -166v-66h327v94zM516 428q-280 0 -280 -212q0 -196 143 -196q61 0 115 35t86 95l-1 276q-22 2 -63 2z
" />
    <glyph glyph-name="ccedilla" unicode="&#xe7;" horiz-adv-x="801" 
d="M463 -25h-23v-99l43 1q88 0 138 -37q50 -38 50 -100t-61 -102t-162 -39q-101 0 -262 59l21 41q146 -55 202 -55q109 0 109 98q0 42 -23 68t-47 26t-43 -3v145q-139 16 -241 120q-103 104 -103 291q-1 187 123 320t301 133q113 0 190 -54t77 -133q0 -35 -30 -63t-68 -29
t-64 27t-27 70q0 42 46 89q9 11 9 13q0 17 -40 37t-93 20q-115 0 -178 -74q-35 -39 -49 -93t-14 -175v-131q0 -112 12 -166t43 -94q58 -74 170 -74q236 0 264 260h31q-14 -138 -94 -218t-207 -79z" />
    <glyph glyph-name="egrave" unicode="&#xe8;" horiz-adv-x="801" 
d="M233 489v-237q0 -128 49 -186t156 -58t185 70t110 194h31q-37 -141 -125 -220t-209 -79q-158 1 -270 125t-113 307t101 309t246 126t245 -99q100 -99 111 -252h-517zM389 811q-156 0 -156 -225v-68h316v96q0 101 -39 149t-121 48zM172 1242q0 26 20 47q20 20 48 20
q26 -1 46 -13t56 -47l289 -299h-67l-330 205q-62 39 -62 87z" />
    <glyph glyph-name="eacute" unicode="&#xe9;" horiz-adv-x="801" 
d="M233 489v-237q0 -128 49 -186t156 -58t185 70t110 194h31q-37 -141 -125 -220t-209 -79q-158 1 -270 125t-113 307t101 309t246 126t245 -99q100 -99 111 -252h-517zM389 811q-156 0 -156 -225v-68h316v96q0 101 -39 149t-121 48zM670 1309q26 0 48 -20q20 -21 20 -47
q0 -48 -62 -87l-330 -205h-67l289 299q36 35 56 47t46 13z" />
    <glyph glyph-name="ecircumflex" unicode="&#xea;" horiz-adv-x="801" 
d="M233 489v-237q0 -128 49 -186t156 -58t185 70t110 194h31q-37 -141 -125 -220t-209 -79q-158 1 -270 125t-113 307t101 309t246 126t245 -99q100 -99 111 -252h-517zM389 811q-156 0 -156 -225v-68h316v96q0 101 -39 149t-121 48zM164 950l232 348h118l232 -348h-58
l-233 209l-233 -209h-58z" />
    <glyph glyph-name="edieresis" unicode="&#xeb;" horiz-adv-x="801" 
d="M233 489v-237q0 -128 49 -186t156 -58t185 70t110 194h31q-37 -141 -125 -220t-209 -79q-158 1 -270 125t-113 307t101 309t246 126t245 -99q100 -99 111 -252h-517zM389 811q-156 0 -156 -225v-68h316v96q0 101 -39 149t-121 48zM166 1150q0 41 30 71t68 30q40 0 70 -30
t31 -71q0 -41 -29 -69q-30 -28 -72 -28t-70 28t-28 69zM547 1150q-1 41 29 71t70 30t70 -30t30 -71t-29 -69t-71 -28t-71 28q-28 28 -28 69z" />
    <glyph glyph-name="igrave" unicode="&#xec;" horiz-adv-x="455" 
d="M123 815q142 0 190 25v-811h113v-29h-401v29h116v757h-116v29h98zM-56 1242q0 26 20 47q20 20 48 20q26 -1 46 -13t56 -47l289 -299h-67l-330 205q-62 39 -62 87z" />
    <glyph glyph-name="iacute" unicode="&#xed;" horiz-adv-x="455" 
d="M123 815q142 0 190 25v-811h113v-29h-401v29h116v757h-116v29h98zM442 1309q26 0 48 -20q20 -21 20 -47q0 -48 -62 -87l-330 -205h-67l289 299q36 35 56 47t46 13z" />
    <glyph glyph-name="icircumflex" unicode="&#xee;" horiz-adv-x="455" 
d="M123 815q142 0 190 25v-811h113v-29h-401v29h116v757h-116v29h98zM-64 950l232 348h118l232 -348h-58l-233 209l-233 -209h-58z" />
    <glyph glyph-name="idieresis" unicode="&#xef;" horiz-adv-x="455" 
d="M123 815q142 0 190 25v-811h113v-29h-401v29h116v757h-116v29h98zM-62 1150q0 41 30 71t68 30q40 0 70 -30t31 -71q0 -41 -29 -69q-30 -28 -72 -28t-70 28t-28 69zM319 1150q-1 41 29 71t70 30t70 -30t30 -71t-29 -69t-71 -28t-71 28q-28 28 -28 69z" />
    <glyph glyph-name="eth" unicode="&#xf0;" horiz-adv-x="891" 
d="M231 532v-247q0 -143 52.5 -211t162.5 -68t161.5 68t51.5 211v247q0 143 -51.5 211t-161.5 68t-162.5 -68t-52.5 -211zM844 473q0 -226 -108 -361t-278 -135t-287.5 128.5t-117.5 301.5t122 303t276 130q107 0 188 -64q-30 180 -137 340l-256 -121l-23 47l256 117
q-71 106 -190 217l26 29q143 -100 248 -209l254 117l19 -45l-238 -109q246 -295 246 -686z" />
    <glyph glyph-name="ntilde" unicode="&#xf1;" horiz-adv-x="995" 
d="M580 801q-157 0 -267 -201v-571h113v-29h-401v29h116v757h-116v29h98q132 0 190 25v-183q114 183 289 183q120 0 190 -68t70 -188v-555h119v-29h-403v29h114v614q0 91 -25 125t-87 33zM649 1161q56 0 82 86h54q-40 -205 -195 -205q-30 0 -74 11l-108 28q-26 6 -57 8
q-61 3 -89 -92h-51q38 211 197 211q33 0 63 -8l110 -28q44 -11 68 -11z" />
    <glyph glyph-name="ograve" unicode="&#xf2;" horiz-adv-x="891" 
d="M231 285q0 -143 53 -211q52 -68 162 -68t162 68t51 211v247q1 143 -51 211t-162 68t-162 -68q-53 -68 -53 -211v-247zM47 408q0 176 122 304t279 128q158 0 277 -129t119 -302t-120 -303q-120 -129 -277 -129t-278 127q-122 128 -122 304zM184 1242q0 26 20 47
q20 20 48 20q26 -1 46 -13t56 -47l289 -299h-67l-330 205q-62 39 -62 87z" />
    <glyph glyph-name="oacute" unicode="&#xf3;" horiz-adv-x="891" 
d="M231 285q0 -143 53 -211q52 -68 162 -68t162 68t51 211v247q1 143 -51 211t-162 68t-162 -68q-53 -68 -53 -211v-247zM47 408q0 176 122 304t279 128q158 0 277 -129t119 -302t-120 -303q-120 -129 -277 -129t-278 127q-122 128 -122 304zM682 1309q26 0 48 -20
q20 -21 20 -47q0 -48 -62 -87l-330 -205h-67l289 299q36 35 56 47t46 13z" />
    <glyph glyph-name="ocircumflex" unicode="&#xf4;" horiz-adv-x="891" 
d="M231 285q0 -143 53 -211q52 -68 162 -68t162 68t51 211v247q1 143 -51 211t-162 68t-162 -68q-53 -68 -53 -211v-247zM47 408q0 176 122 304t279 128q158 0 277 -129t119 -302t-120 -303q-120 -129 -277 -129t-278 127q-122 128 -122 304zM176 950l232 348h118l232 -348
h-58l-233 209l-233 -209h-58z" />
    <glyph glyph-name="otilde" unicode="&#xf5;" horiz-adv-x="891" 
d="M231 285q0 -143 53 -211q52 -68 162 -68t162 68t51 211v247q1 143 -51 211t-162 68t-162 -68q-53 -68 -53 -211v-247zM47 408q0 176 122 304t279 128q158 0 277 -129t119 -302t-120 -303q-120 -129 -277 -129t-278 127q-122 128 -122 304zM377 1208q33 0 63 -8l110 -28
q44 -11 68 -11q56 0 82 86h54q-40 -205 -195 -205q-30 0 -74 11l-108 28q-26 6 -57 8q-61 3 -89 -92h-51q38 211 197 211z" />
    <glyph glyph-name="odieresis" unicode="&#xf6;" horiz-adv-x="891" 
d="M231 285q0 -143 53 -211q52 -68 162 -68t162 68t51 211v247q1 143 -51 211t-162 68t-162 -68q-53 -68 -53 -211v-247zM47 408q0 176 122 304t279 128q158 0 277 -129t119 -302t-120 -303q-120 -129 -277 -129t-278 127q-122 128 -122 304zM178 1150q0 41 30 71t68 30
q40 0 70 -30t31 -71q0 -41 -29 -69q-30 -28 -72 -28t-70 28t-28 69zM559 1150q-1 41 29 71t70 30t70 -30t30 -71t-29 -69t-71 -28t-71 28q-28 28 -28 69z" />
    <glyph glyph-name="divide" unicode="&#xf7;" horiz-adv-x="1706" 
d="M854 1085q48 0 81.5 -33.5t33.5 -81.5t-33.5 -81t-81.5 -33t-81.5 33t-33.5 81t33.5 81.5t81.5 33.5zM254 670h1198v-117h-1198v117zM854 365q47 0 81 -34t34 -81t-33.5 -81t-81.5 -34t-81.5 33.5t-33.5 81.5t34 81.5t81 33.5z" />
    <glyph glyph-name="oslash" unicode="&#xf8;" horiz-adv-x="901" 
d="M844 400q0 -168 -118 -296.5t-280 -128.5q-80 0 -151 31.5t-113 85.5l-121 -135l-22 27l121 131q-111 143 -111 305t119 291t279 129t268 -117l108 119l23 -25l-107 -115q105 -134 105 -302zM649 651q-29 160 -217 160q-96 0 -145 -64.5t-49 -214.5v-331zM659 285v327
l-411 -450q8 -70 62.5 -113t150.5 -43q198 0 198 279z" />
    <glyph glyph-name="ugrave" unicode="&#xf9;" horiz-adv-x="991" 
d="M422 39q142 0 264 201v546h-119v29h99q130 0 190 25v-811h115v-29h-287v182q-122 -182 -293 -182q-120 0 -191 69t-71 187v530h-117v29h99q130 0 190 25v-645q0 -84 28 -120t93 -36zM213 1242q1 26 21 47q20 20 46 20q26 -1 48 -13q20 -12 55 -47l289 -299h-67l-330 205
q-62 39 -62 87z" />
    <glyph glyph-name="uacute" unicode="&#xfa;" horiz-adv-x="991" 
d="M422 39q142 0 264 201v546h-119v29h99q130 0 190 25v-811h115v-29h-287v182q-122 -182 -293 -182q-120 0 -191 69t-71 187v530h-117v29h99q130 0 190 25v-645q0 -84 28 -120t93 -36zM712 1309q26 0 46 -20q20 -21 21 -47q0 -48 -62 -87l-330 -205h-67l289 299
q35 35 55 47q22 12 48 13z" />
    <glyph glyph-name="ucircumflex" unicode="&#xfb;" horiz-adv-x="991" 
d="M422 39q142 0 264 201v546h-119v29h99q130 0 190 25v-811h115v-29h-287v182q-122 -182 -293 -182q-120 0 -191 69t-71 187v530h-117v29h99q130 0 190 25v-645q0 -84 28 -120t93 -36zM205 950l232 348h118l232 -348h-58l-233 209l-233 -209h-58z" />
    <glyph glyph-name="udieresis" unicode="&#xfc;" horiz-adv-x="991" 
d="M422 39q142 0 264 201v546h-119v29h99q130 0 190 25v-811h115v-29h-287v182q-122 -182 -293 -182q-120 0 -191 69t-71 187v530h-117v29h99q130 0 190 25v-645q0 -84 28 -120t93 -36zM207 1150q-1 41 29 71t70 30t70 -30t30 -71t-29 -69t-71 -28t-71 28q-28 28 -28 69z
M588 1150q0 41 30 71t68 30q40 0 70 -30t31 -71q0 -41 -29 -69q-30 -28 -72 -28t-70 28t-28 69z" />
    <glyph glyph-name="yacute" unicode="&#xfd;" horiz-adv-x="901" 
d="M297 -436q34 0 65 82t82 323l-352 817h-86v29h381v-29h-117l252 -602l180 487q17 42 17 68q0 44 -161 47h-7v29h321v-29h-10q-43 0 -74 -35t-67 -128l-180 -484q-43 -114 -87 -276t-53 -191q-33 -102 -73 -142t-96 -40t-84 29t-29 71q0 42 25 68q24 26 62 27
q38 -1 62 -27t25 -66l-2 -24q0 -4 6 -4zM666 1309q26 0 48 -20q20 -21 20 -47q0 -48 -62 -87l-330 -205h-67l289 299q36 35 56 47t46 13z" />
    <glyph glyph-name="thorn" unicode="&#xfe;" horiz-adv-x="1010" 
d="M565 -25q-164 0 -264 160v-600h119v-29h-408v29h119v1792h-119v29h99q107 0 190 49v-754q41 91 112 140t160 49q151 0 262 -126t111 -312t-108.5 -306.5t-272.5 -120.5zM760 293v235q0 275 -199 275q-84 0 -152.5 -59t-107.5 -166v-369q82 -203 266 -203q102 0 147.5 67
t45.5 220z" />
    <glyph glyph-name="ydieresis" unicode="&#xff;" horiz-adv-x="901" 
d="M297 -436q34 0 65 82t82 323l-352 817h-86v29h381v-29h-117l252 -602l180 487q17 42 17 68q0 44 -161 47h-7v29h321v-29h-10q-43 0 -74 -35t-67 -128l-180 -484q-43 -114 -87 -276t-53 -191q-33 -102 -73 -142t-96 -40t-84 29t-29 71q0 42 25 68q24 26 62 27
q38 -1 62 -27t25 -66l-2 -24q0 -4 6 -4zM162 1150q0 41 30 71t68 30q40 0 70 -30t31 -71q0 -41 -29 -69q-30 -28 -72 -28t-70 28t-28 69zM543 1150q-1 41 29 71t70 30t70 -30t30 -71t-29 -69t-71 -28t-71 28q-28 28 -28 69z" />
    <glyph glyph-name="Cacute" unicode="&#x106;" horiz-adv-x="1241" 
d="M680 1356q-391 0 -391 -699q0 -320 76 -460q49 -91 129 -143t174 -52t190 58q98 58 160 154q62 95 76 271h26v-458h-26q-16 96 -66 96q-24 -1 -66 -29l-54 -36q-129 -87 -247 -87q-240 0 -430 217q-170 197 -170 461q0 319 180 527t425 208q129 0 278 -93l40 -25t54 -21
q52 0 56 82h26v-405h-26q-20 190 -138 312t-276 122zM836 1854q26 0 48 -20q20 -20 20 -46q0 -48 -62 -88l-330 -205h-67l289 299q36 36 56 48t46 12z" />
    <glyph glyph-name="cacute" unicode="&#x107;" horiz-adv-x="801" 
d="M463 -25q-178 -1 -290 113t-112 301q-1 187 123 320t301 133q113 0 190 -54t77 -133q0 -35 -30 -63t-68 -29t-64 27t-27 70q0 42 46 89q9 11 9 13q0 17 -40 37t-93 20q-115 0 -178 -74q-35 -39 -49 -93t-14 -175v-131q0 -112 12 -166t43 -94q58 -74 170 -74
q236 0 264 260h31q-14 -138 -94 -218t-207 -79zM656 1309q26 0 46 -20q20 -21 21 -47q0 -48 -62 -87l-330 -205h-67l289 299q35 35 55 47q22 12 48 13z" />
    <glyph glyph-name="Ccaron" unicode="&#x10c;" horiz-adv-x="1241" 
d="M680 1356q-391 0 -391 -699q0 -320 76 -460q49 -91 129 -143t174 -52t190 58q98 58 160 154q62 95 76 271h26v-458h-26q-16 96 -66 96q-24 -1 -66 -29l-54 -36q-129 -87 -247 -87q-240 0 -430 217q-170 197 -170 461q0 319 180 527t425 208q129 0 278 -93l40 -25t54 -21
q52 0 56 82h26v-405h-26q-20 190 -138 312t-276 122zM330 1843h58l233 -211l233 211h58l-232 -348h-118z" />
    <glyph glyph-name="ccaron" unicode="&#x10d;" horiz-adv-x="801" 
d="M463 -25q-178 -1 -290 113t-112 301q-1 187 123 320t301 133q113 0 190 -54t77 -133q0 -35 -30 -63t-68 -29t-64 27t-27 70q0 42 46 89q9 11 9 13q0 17 -40 37t-93 20q-115 0 -178 -74q-35 -39 -49 -93t-14 -175v-131q0 -112 12 -166t43 -94q58 -74 170 -74
q236 0 264 260h31q-14 -138 -94 -218t-207 -79zM149 1298h58l233 -211l233 211h58l-232 -348h-118z" />
    <glyph glyph-name="dcroat" unicode="&#x111;" horiz-adv-x="1010" 
d="M441 -25q-163 0 -272.5 121t-109.5 305t112 310.5t261 126.5q88 0 160.5 -50.5t109.5 -138.5v389h-294v52h294v237h-116v29h98q109 0 190 49v-315h138v-52h-138v-1009h119v-29h-291v135q-98 -160 -261 -160zM442 801q-196 0 -196 -275v-235q0 -152 45.5 -218.5
t146.5 -66.5q182 0 264 203v366q-37 106 -106 166t-154 60z" />
    <glyph glyph-name="Gbreve" unicode="&#x11e;" horiz-adv-x="1346" 
d="M238 161q-175 190 -175 521t211 530q180 172 410 172q103 0 195 -41q41 -17 99 -59t79 -41q61 0 61 84v14h27v-413h-29q-24 194 -140 311t-292 117t-288 -172t-111 -467q0 -715 420 -715q288 0 288 305v99h-162v28h506v-28h-139v-228q-233 -207 -509 -207t-451 190z
M674 1663q109 -1 166 33t74 109h51q-40 -271 -291 -271q-122 0 -197 69t-96 202h51q17 -74 75 -108t167 -34z" />
    <glyph glyph-name="gbreve" unicode="&#x11f;" horiz-adv-x="905" 
d="M748 544q0 -104 -94 -187t-222 -83q-33 0 -94 16q-60 16 -106 15q-46 0 -88 -30q-42 -31 -42 -75t40 -62t182 -17h172q212 0 282 -53t70 -208q0 -156 -122 -264t-305 -108q-184 0 -290 68t-106 178q0 66 51 124t143 99q-68 5 -113 61t-45 136t50 127q50 46 145 51
q-147 99 -147 222q1 122 93 204t230 82t219 -82q68 78 150 78q43 0 71 -24t27 -56q0 -34 -19 -52t-51 -18q-31 0 -53 18t-22 46q0 29 26 55q-56 -10 -108 -66q76 -91 76 -195zM262 550q0 -140 41 -193q41 -54 131 -54q90 1 126 57t36 198t-38 200t-129 57t-129 -63t-38 -202
zM549 -37h-180q-116 -1 -179 -57t-63 -160t76 -164q77 -60 225 -61q148 1 262 91t113 216q-1 74 -55 104t-199 31zM453 1118q109 0 166 34t74 108h51q-40 -271 -291 -271q-122 0 -197 69t-96 202h51q17 -74 75 -108t167 -34z" />
    <glyph glyph-name="Idotaccent" unicode="&#x130;" horiz-adv-x="555" 
d="M25 0v29h153v1298h-153v29h505v-29h-145v-1298h145v-29h-505zM146 1650q0 42 30 72t70 29q40 1 70 -29t30 -72t-30 -70q-30 -29 -70 -29t-70 29q-30 28 -30 70z" />
    <glyph glyph-name="dotlessi" unicode="&#x131;" horiz-adv-x="455" 
d="M123 815q142 0 190 25v-811h113v-29h-401v29h116v757h-116v29h98z" />
    <glyph glyph-name="Lslash" unicode="&#x141;" horiz-adv-x="1180" 
d="M25 0v29h151v549l-176 -127v67l176 123v686h-151v29h505v-29h-145v-557l406 285v-68l-406 -287v-671h229q310 0 411 78.5t101 298.5v36h29v-442h-1130z" />
    <glyph glyph-name="lslash" unicode="&#x142;" horiz-adv-x="455" 
d="M123 1356q107 0 190 49v-610l142 100v-68l-142 -100v-698h113v-29h-401v29h118v592l-143 -99v60l143 104v641h-118v29h98z" />
    <glyph glyph-name="OE" unicode="&#x152;" horiz-adv-x="1907" 
d="M1327 1327h-258v-622h64q177 0 237 49t60 182v8h28v-500h-28v9q0 130 -54.5 175.5t-242.5 45.5h-64v-645h262q263 0 364 80t101 280v6h29v-395h-852l-295 -14q-250 0 -426 166q-225 209 -225 517q0 307 184.5 504t468.5 197l299 -14h745l25 -330h-29q-15 174 -94 237.5
t-299 63.5zM864 143v1069q0 74 -38.5 101.5t-145.5 27.5q-217 0 -323.5 -159t-106.5 -502t102 -504.5t328 -161.5q107 0 145.5 28t38.5 101z" />
    <glyph glyph-name="oe" unicode="&#x153;" horiz-adv-x="1421" 
d="M47 409q0 176 123.5 303.5t287.5 127.5t304 -140q115 140 257 140q143 0 242 -99t109 -252h-516v-237q0 -129 49 -186.5t156 -57.5t185 70.5t110 193.5h30q-36 -141 -125 -220t-210 -79q-185 0 -297 164q-139 -162 -301 -162t-283 129t-121 305zM393 807
q-162 0 -162 -277v-247q0 -277 162 -277t214 67.5t52 209.5v247q0 142 -52 209.5t-214 67.5zM1167 614q0 197 -157 197q-74 0 -115 -58.5t-41 -166.5v-66h313v94z" />
    <glyph glyph-name="Scedilla" unicode="&#x15e;" horiz-adv-x="1014" 
d="M516 -164q-24 0 -43 -3v146q-77 12 -182 57q-105 44 -123 44t-30 -22q-14 -22 -16 -58h-28v485h29q15 -223 129 -353t291 -130q141 0 235 88t94 212q0 123 -86 196q-67 59 -311 105q-18 4 -26 5q-193 38 -273 125t-80 261t101 282t272 108q107 0 217 -58t113 -58
q23 0 37 18t14 49v11h29v-400h-29q-24 196 -124 303t-246 107t-222 -72q-74 -72 -74 -209q0 -138 109 -205q35 -21 153 -40t179 -33q183 -43 261 -131t79 -270q0 -181 -114 -302t-302 -121q-20 0 -41 2v-99l43 1q88 0 138 -37q50 -38 50 -100t-61 -102t-162 -39
q-101 0 -262 59l21 41q146 -55 202 -55q109 0 109 98q0 42 -23 68t-47 26z" />
    <glyph glyph-name="scedilla" unicode="&#x15f;" horiz-adv-x="674" 
d="M137 51q-37 0 -37 -57h-28v287h20q38 -143 99 -207t153 -64t142 50t49 132q0 162 -199 162q-124 0 -194 62t-70 170t65 180t157 72t178 -45q18 -9 22 -9q24 0 24 35q0 14 -2 20l33 1v-240h-23q-45 211 -223 211q-73 -1 -121 -43t-47 -101q0 -59 37 -100q38 -37 158 -47
q49 -4 76 -8q103 -15 160 -80t57 -182t-71 -197t-187 -80q-14 0 -27 1v-98l43 1q88 0 138 -37q50 -38 50 -100t-61 -102t-162 -39q-101 0 -262 59l21 41q146 -55 202 -55q109 0 109 98q0 42 -23 68t-47 26t-43 -3v146q-70 13 -114 43q-45 29 -52 29z" />
    <glyph glyph-name="Scaron" unicode="&#x160;" horiz-adv-x="1014" 
d="M94 485h29q15 -223 129 -353t291 -130q141 0 235 88t94 212q0 123 -86 196q-67 59 -311 105q-18 4 -26 5q-193 38 -273 125t-80 261t101 282t272 108q107 0 217 -58t113 -58q23 0 37 18t14 49v11h29v-400h-29q-24 196 -124 303t-246 107t-222 -72q-74 -72 -74 -209
q0 -138 109 -205q35 -21 153 -40t179 -33q183 -43 261 -131t79 -270q0 -181 -114 -302t-302 -121q-111 -1 -237 53t-144 54t-30 -22q-14 -22 -16 -58h-28v485zM217 1843h58l233 -211l233 211h58l-232 -348h-118z" />
    <glyph glyph-name="scaron" unicode="&#x161;" horiz-adv-x="674" 
d="M137 51q-37 0 -37 -57h-28v287h20q38 -143 99 -207t153 -64t142 50t49 132q0 162 -199 162q-124 0 -194 62t-70 170t65 180t157 72t178 -45q18 -9 22 -9q24 0 24 35q0 14 -2 20l33 1v-240h-23q-45 211 -223 211q-73 -1 -121 -43t-47 -101q0 -59 37 -100q38 -37 158 -47
q49 -4 76 -8q103 -15 160 -80t57 -182t-71 -197q-70 -80 -180 -80t-205 63q-23 15 -30 15zM47 1298h58l233 -211l233 211h58l-232 -348h-118z" />
    <glyph glyph-name="Ydieresis" unicode="&#x178;" horiz-adv-x="1014" 
d="M233 0v29h177v483l-363 815h-160v29h523v-29h-146l328 -729l264 598q21 47 21 76q-1 29 -27 42t-90 13h-19v29h349v-29h-31q-61 0 -91 -20t-63 -90l-295 -666v-522h174v-29h-551zM219 1695q-1 41 29 71t70 30t70 -30t30 -71t-29 -69t-71 -28t-71 28q-28 28 -28 69z
M600 1695q0 41 30 71t68 30q40 0 70 -30t31 -71q0 -41 -29 -69q-30 -28 -72 -28t-70 28t-28 69z" />
    <glyph glyph-name="Zcaron" unicode="&#x17d;" horiz-adv-x="1223" 
d="M1110 395v-395h-1067l809 1327h-225q-296 0 -391 -61t-95 -224q0 -33 2 -53h-28v367h995l-821 -1327h262q314 0 423 70t109 253l-2 43h29zM321 1843h58l233 -211l233 211h58l-232 -348h-118z" />
    <glyph glyph-name="zcaron" unicode="&#x17e;" horiz-adv-x="782" 
d="M330 786q-121 0 -169 -52t-48 -185v-39h-31v305h672l-518 -786h202q122 1 181 63t59 191v20h27v-303h-680l503 786h-198zM100 1298h58l233 -211l233 211h58l-232 -348h-118z" />
    <glyph glyph-name="florin" unicode="&#x192;" horiz-adv-x="985" 
d="M117 -391q0 -23 37 -23q73 0 111.5 102.5t60.5 370.5l47 590h-236v37h240q41 314 152.5 494t261.5 180q70 0 112.5 -39t42.5 -93t-28 -84t-66 -30t-63 23t-25 55t24.5 64.5t24.5 37.5q0 33 -41 33q-152 0 -197 -412l-24 -229h248v-37h-248q-58 -598 -159 -850t-277 -252
q-64 0 -103 32t-39 79t26.5 73.5t62.5 26.5t57.5 -23t21.5 -47t-12 -46t-12 -33z" />
    <glyph glyph-name="circumflex" unicode="&#x2c6;" 
d="M221 950l232 348h118l232 -348h-58l-233 209l-233 -209h-58z" />
    <glyph glyph-name="caron" unicode="&#x2c7;" 
d="M221 1298h58l233 -211l233 211h58l-232 -348h-118z" />
    <glyph glyph-name="breve" unicode="&#x2d8;" 
d="M512 1118q109 0 166 33.5t74 108.5h51q-40 -271 -291 -271q-122 0 -197 69t-96 202h51q17 -74 75 -108t167 -34z" />
    <glyph glyph-name="dotaccent" unicode="&#x2d9;" 
d="M412 1106q0 42 29.5 71t70.5 29t70.5 -29t29.5 -71t-29.5 -71t-70.5 -29t-70.5 29t-29.5 71z" />
    <glyph glyph-name="ring" unicode="&#x2da;" 
d="M272 1172q0 102 69.5 171.5t170.5 69.5t171.5 -69.5t70.5 -171.5t-70 -171t-172 -69t-171 69t-69 171zM362 1171q0 -63 43.5 -106t106.5 -43t106.5 43t43.5 105t-44 107.5t-106 45.5t-106 -44.5t-44 -107.5z" />
    <glyph glyph-name="ogonek" unicode="&#x2db;" 
d="M442 -266q0 -54 28.5 -86.5t74.5 -32.5q77 0 119 74l28 -19q-74 -149 -211 -149q-69 0 -114 40.5t-45 102.5q0 172 253 336h50q-183 -141 -183 -266z" />
    <glyph glyph-name="tilde" unicode="&#x2dc;" 
d="M422 1208q33 0 63 -8l110 -28q44 -11 68 -11q56 0 82 86h54q-40 -205 -195 -205q-30 0 -74 11l-108 28q-26 6 -57 8q-61 3 -89 -92h-51q38 211 197 211z" />
    <glyph glyph-name="hungarumlaut" unicode="&#x2dd;" 
d="M556 1311q26 0 46.5 -20t20.5 -49t-41 -75l-205 -217h-58l144 279q44 82 93 82zM876.5 1291q20.5 -20 20.5 -49t-41 -75l-203 -217h-59l143 279q45 82 93 82q26 0 46.5 -20z" />
    <glyph glyph-name="Omega" unicode="&#x3a9;" horiz-adv-x="1567" 
d="M369 864q0 -390 272 -864h-500l-110 365h61l68 -203h311v26q-165 203 -234 361.5t-69 327.5q0 272 174.5 446t443.5 174t443 -174.5t174 -445.5q0 -169 -69 -327.5t-234 -361.5v-26h313l66 203h61l-108 -365h-500q270 469 270 864q0 271 -107.5 416t-308.5 145t-309 -145
t-108 -416z" />
    <glyph glyph-name="pi" unicode="&#x3c0;" horiz-adv-x="1354" 
d="M356 -43q-77 0 -77 96q0 56 77.5 277t118.5 393h-133q-136 0 -180 -43.5t-72 -171.5h-59q37 207 117.5 292t238.5 85h942l-35 -162h-329q-33 -179 -55 -473t-119 -293q-78 0 -78 94q0 58 77 280.5t117 391.5h-375q-34 -177 -56 -471t-120 -295z" />
    <glyph glyph-name="endash" unicode="&#x2013;" 
d="M0 352v115h1024v-115h-1024z" />
    <glyph glyph-name="emdash" unicode="&#x2014;" horiz-adv-x="2048" 
d="M0 467h2048v-115h-2048v115z" />
    <glyph glyph-name="quoteleft" unicode="&#x2018;" horiz-adv-x="494" 
d="M141 1036q0 -51 41 -51q12 0 51 14.5t78 14.5t68 -27.5t29 -74.5t-35 -77t-101 -30t-114.5 60t-48.5 158q0 199 182 361l20 -22q-170 -168 -170 -326z" />
    <glyph glyph-name="quoteright" unicode="&#x2019;" horiz-adv-x="494" 
d="M377 1153q0 53 -43 53q-12 0 -51 -14t-78 -14t-67.5 27t-28.5 73t34.5 76t100.5 30t115 -59t49 -156q0 -195 -183 -362l-20 22q172 170 172 324z" />
    <glyph glyph-name="quotesinglbase" unicode="&#x201a;" horiz-adv-x="494" 
d="M377 -47q0 53 -43 53q-12 0 -51 -14.5t-78 -14.5t-67.5 27.5t-28.5 73.5t34.5 76t100.5 30t115 -59t49 -157q0 -194 -183 -361l-20 22q172 170 172 324z" />
    <glyph glyph-name="quotedblleft" unicode="&#x201c;" horiz-adv-x="872" 
d="M141 1036q0 -51 41 -51q12 0 51 14.5t78 14.5t68 -27.5t29 -74.5t-35 -77t-101 -30t-114.5 60t-48.5 158q0 199 182 361l20 -22q-170 -168 -170 -326zM524 1036q0 -51 41 -51q12 0 51 14.5t78 14.5t68 -27.5t29 -74.5t-35.5 -77t-100.5 -30t-113 59.5t-48 157.5
q0 197 180 362l20 -22q-170 -168 -170 -326z" />
    <glyph glyph-name="quotedblright" unicode="&#x201d;" horiz-adv-x="872" 
d="M377 1153q0 53 -43 53q-12 0 -51 -14t-78 -14t-67.5 27t-28.5 73t34.5 76t100.5 30t115 -59t49 -156q0 -195 -183 -362l-20 22q172 170 172 324zM745 1153q0 53 -40 53q-12 0 -51 -14t-78 -14t-68 26.5t-29 73.5t34.5 76.5t100.5 29.5t114 -59t48 -157q0 -197 -180 -361
l-21 22q170 168 170 324z" />
    <glyph glyph-name="quotedblbase" unicode="&#x201e;" horiz-adv-x="872" 
d="M377 -47q0 53 -43 53q-12 0 -51 -14.5t-78 -14.5t-67.5 27.5t-28.5 73.5t34.5 76t100.5 30t115 -59t49 -157q0 -194 -183 -361l-20 22q172 170 172 324zM750 -47q0 53 -41 53q-12 0 -51 -14.5t-78 -14.5t-68 27t-29 74t34.5 76.5t100.5 29.5t114 -59t48 -157
q0 -197 -180 -361l-22 22q172 170 172 324z" />
    <glyph glyph-name="dagger" unicode="&#x2020;" 
d="M369 -271q0 8 8 41q109 425 114 990q-194 0 -333 -96q-19 -13 -23 -13q-20 0 -20 19v6l14 49q-111 20 -111 40q0 19 48 31t63 17l-14 51v4q0 9 7.5 16t15.5 7t43.5 -31.5t86.5 -53.5t189 -22h34q-3 249 -93 426q-9 16 -9 19q0 16 14 16t49 -16l29 121q1 1 1 3q8 31 28 31
t27 -35l26 -120q36 16 50 16t14 -16q0 -3 -9 -19q-90 -177 -94 -425q183 3 229 24t81.5 51.5t49 30.5t13.5 -12l-8 -66q13 -5 61 -17t47 -32q0 -20 -110 -39l10 -43q2 -6 2 -14q0 -17 -16 -17q-4 0 -23 13q-139 96 -335 96q4 -564 113 -989q9 -34 9 -42t-18 -9t-58 26
l-26 -147q-9 -46 -30 -47t-30 10.5t-14 35.5l-27 148q-38 -27 -57 -26q-18 1 -18 9z" />
    <glyph glyph-name="daggerdbl" unicode="&#x2021;" 
d="M168 727q-16 0 -16 16q0 9 2 15l11 49q-104 6 -104 43q0 13 19 21.5t86 21.5l-11 48l-1 11q0 15 17 15t44 -21.5t57 -39.5q76 -43 211 -44h17q-12 161 -86 320q-17 35 -17 44t16 9t49 -10l23 114q10 45 27 45q10 0 15 -7.5t12 -37.5l23 -114q34 10 50 10t15 -9
q0 -9 -17 -44q-75 -157 -83 -320q159 0 243 53q16 10 42 31t42 21t16 -15l-1 -11l-11 -48q67 -13 86 -21.5t19 -21.5q0 -37 -104 -43l11 -49q2 -6 2 -15q0 -16 -16 -16t-49.5 28.5t-82.5 52.5t-198 29q0 -268 76 -372q-75 -102 -77 -373q163 14 233 47q22 11 52 37.5
t46 26.5t16 -17l-1 -13l-13 -50q105 -6 105 -43q0 -13 -19 -21.5t-86 -21.5l11 -48l1 -12q0 -14 -17 -14t-44 21.5t-57 39.5q-76 43 -211 44h-17q12 -161 86 -321q17 -35 17 -43t-15 -9q-15 0 -51 10l-24 -115q-11 -45 -23 -45q-12 1 -17 8.5t-12 36.5l-22 115
q-36 -10 -51 -10t-15 9t17 44q75 157 84 319q-182 2 -247 -51t-81 -53t-16 14l1 12l11 48q-67 13 -86 21.5t-19 21.5q0 37 105 43l-13 50l-1 13q0 17 16 17t49.5 -28.5t81.5 -51.5t198 -31q2 272 -75 373q74 105 78 372q-162 -12 -234 -46q-22 -11 -52 -37.5t-46 -26.5z" />
    <glyph glyph-name="bullet" unicode="&#x2022;" horiz-adv-x="1208" 
d="M307 762q0 123 87.5 209t209.5 86t208.5 -86.5t86.5 -208.5t-87.5 -209.5t-209.5 -87.5t-208.5 87t-86.5 210z" />
    <glyph glyph-name="ellipsis" unicode="&#x2026;" horiz-adv-x="2048" 
d="M250 76q0 38 26 65t64 27t65 -27t27 -65t-26 -64t-66 -26q-38 0 -64 26t-26 64zM932 76q0 38 26 65t64 27t65 -27t27 -65t-26 -64t-66 -26q-38 0 -64 26t-26 64zM1616 76q0 38 26 65t64 27t65 -27t27 -65t-26 -64t-66 -26q-38 0 -64 26t-26 64z" />
    <glyph glyph-name="perthousand" unicode="&#x2030;" horiz-adv-x="2134" 
d="M391 -25h-61l719 1385h63zM57 992q0 154 78 257t191 103t191.5 -103t78.5 -257t-79 -257.5t-191 -103.5t-190.5 103.5t-78.5 257.5zM188 992q0 -188 31.5 -260.5t106.5 -72.5t106 71.5t31 261.5t-30.5 260.5t-106.5 70.5t-107 -71.5t-31 -259.5zM846 346q0 154 77 256.5
t191 102.5t192 -102.5t78 -256.5t-79 -257t-191 -103t-190 103t-78 257zM979 347q0 -189 30.5 -261t105.5 -72t105.5 71.5t30.5 260.5t-30.5 259.5t-106.5 70.5t-105.5 -70t-29.5 -259zM1538 346q0 154 77 256.5t191 102.5t192.5 -102.5t78.5 -256.5t-79 -257t-192 -103
t-190.5 103t-77.5 257zM1671 347q0 -189 30.5 -261t105.5 -72t106 71.5t31 260.5t-31 259.5t-107 70.5t-105.5 -70t-29.5 -259z" />
    <glyph glyph-name="guilsinglleft" unicode="&#x2039;" horiz-adv-x="569" 
d="M436 98q-87 92 -325 312q233 214 325 311h29q-55 -107 -227 -311q173 -208 227 -312h-29z" />
    <glyph glyph-name="guilsinglright" unicode="&#x203a;" horiz-adv-x="569" 
d="M133 721q100 -104 326 -311q-231 -213 -326 -312h-29q53 105 226 312q-171 204 -226 311h29z" />
    <glyph glyph-name="franc" unicode="&#x20a3;" horiz-adv-x="1853" 
d="M39 0v29h158v1298h-158v29h1026l29 -346h-33q-15 179 -110 248t-337 69h-213v-622h54q203 1 262 51t59 196v9h29v-525l-29 1q-1 143 -59 191t-262 48h-54v-647h166v-29h-528zM1681 805q-60 0 -114 -81t-83 -216v-479h113v-29h-401v29h116v757h-116v29h98q132 0 190 25
v-213q87 213 226 213q58 0 94 -30t37 -76q-1 -46 -23 -72t-59 -27t-65 25t-27 61q0 35 38 80q-18 4 -24 4z" />
    <glyph glyph-name="trademark" unicode="&#x2122;" horiz-adv-x="1683" 
d="M545 1411h-21v-426q0 -49 45 -53l31 -2v-27h-248v27l31 2q45 2 45 53v426h-20q-64 0 -97 -36t-41 -115h-26l12 178h440l11 -178h-25q-8 79 -40.5 115t-96.5 36zM788 1438h183l141 -400l148 400h174v-25l-30 -2q-46 -4 -46 -53v-373q0 -49 46 -53l30 -2v-27h-236v27l31 2
q45 4 45 53v395l-178 -479h-15l-174 479v-395q0 -49 47 -53l31 -2v-27h-197v27l34 2q44 4 44 53v371q0 49 -47 53l-31 2v27z" />
    <glyph glyph-name="partialdiff" unicode="&#x2202;" horiz-adv-x="1044" 
d="M709 483q0 117 -45 180.5t-127 63.5q-113 0 -184.5 -127.5t-71.5 -333.5q0 -117 44 -178t128 -61q111 0 183.5 128t72.5 328zM780 915q0 149 -40 225.5t-102 76.5t-126 -63.5t-101 -63.5t-59 21.5t-22 51.5q0 59 68 105.5t163 46.5q171 0 273 -152.5t102 -412.5
q0 -335 -139 -555t-344 -220q-147 0 -241.5 106.5t-94.5 284.5t108.5 304.5t266.5 126.5q99 0 162.5 -47t99.5 -146q26 162 26 311z" />
    <glyph glyph-name="Delta" unicode="&#x2206;" horiz-adv-x="1208" 
d="M596 1497h29l555 -1497h-1151zM555 1212l-389 -1042h768z" />
    <glyph glyph-name="product" unicode="&#x220f;" horiz-adv-x="1595" 
d="M57 1473h1479v-70h-186v-1727h186v-69h-555v69h197v1727h-762v-1727h196v-69h-555v69h187v1727h-187v70z" />
    <glyph glyph-name="summation" unicode="&#x2211;" horiz-adv-x="1434" 
d="M12 1473h1135l98 -340h-74l-67 219q-15 51 -105 51h-741l864 -850v-37l-858 -756h893q60 0 77.5 13t29.5 51l71 229h74l-135 -446h-1260v28l959 838l-961 950v50z" />
    <glyph glyph-name="minus" unicode="&#x2212;" horiz-adv-x="1706" 
d="M254 670h1198v-119h-1198v119z" />
    <glyph glyph-name="fraction" unicode="&#x2215;" horiz-adv-x="342" 
d="M-281 -25h-61l963 1385h61z" />
    <glyph glyph-name="periodcentered" unicode="&#x2219;" horiz-adv-x="494" 
d="M156 668q0 38 26 65t64 27t65 -27t27 -65t-27 -64t-65 -26t-64 26t-26 64z" />
    <glyph glyph-name="radical" unicode="&#x221a;" horiz-adv-x="1288" 
d="M1288 1647v-82h-119l-594 -1606h-53l-323 893l-119 -43l-23 68l262 92l265 -729l522 1407h182z" />
    <glyph glyph-name="infinity" unicode="&#x221e;" horiz-adv-x="1706" 
d="M1161 997q134 0 226 -108.5t92 -276.5t-82 -273.5t-213 -105.5q-96 0 -169 60t-149 201q-71 -138 -148 -201.5t-173 -63.5q-134 0 -226 108.5t-92 276.5t82.5 273.5t214.5 105.5q97 0 172 -63t144 -203q131 270 321 270zM293 604q0 -110 61 -181t149 -71t155 69t145 245
q-102 190 -273 190q-105 0 -171 -71t-66 -181zM1415 622q0 109 -61 180.5t-149 71.5t-156.5 -72.5t-143.5 -242.5q101 -188 275 -188q102 0 168.5 71t66.5 180z" />
    <glyph glyph-name="integral" unicode="&#x222b;" horiz-adv-x="1020" 
d="M274 -224q0 -44 27 -44q103 0 116 664q3 141 5 216q12 503 102 719.5t281 216.5q76 0 122 -39t46 -95t-31 -86t-83 -30t-84 35t-32 92q0 8 -6 15.5t-14 7.5q-105 0 -119 -634q-10 -508 -34.5 -683.5t-69.5 -279.5t-118.5 -163t-157.5 -59t-130.5 38t-46.5 94t31.5 87
t81.5 31t82 -29.5t32 -73.5z" />
    <glyph glyph-name="approxequal" unicode="&#x2248;" horiz-adv-x="1706" 
d="M1143 659q-100 0 -289.5 69t-281.5 69t-180.5 -36t-213.5 -122v131q211 145 387 145q111 0 300 -68.5t277 -68.5t176 35t212 121v-131q-205 -144 -387 -144zM1141 307q-98 0 -288 69.5t-281 69.5t-178.5 -35.5t-215.5 -123.5v131q215 147 387 147q111 0 301 -69.5
t276 -69.5t174.5 35.5t213.5 122.5v-131q-208 -146 -389 -146z" />
    <glyph glyph-name="notequal" unicode="&#x2260;" horiz-adv-x="1706" 
d="M1452 860v-115h-424l-211 -270h635v-115h-709l-251 -319l-89 70l197 249h-346v115h420l211 270h-631v115h704l252 320l88 -70l-196 -250h350z" />
    <glyph glyph-name="lessequal" unicode="&#x2264;" horiz-adv-x="1706" 
d="M1444 1192v-125l-977 -324l977 -323v-125l-1182 399v101zM262 150h1182v-117h-1182v117z" />
    <glyph glyph-name="greaterequal" unicode="&#x2265;" horiz-adv-x="1706" 
d="M262 1192l1182 -397v-101l-1182 -399v125l979 323l-979 324v125zM262 150h1182v-117h-1182v117z" />
    <glyph glyph-name="lozenge" unicode="&#x25ca;" horiz-adv-x="1012" 
d="M506 1653l500 -1061l-500 -1069l-500 1069zM506 1409l-385 -817l385 -825l385 825z" />
    <glyph glyph-name="apple" unicode="&#xf000;" horiz-adv-x="1618" 
d="M1272 741q0 -113 60 -200t173 -138q-114 -247 -205 -342.5t-204 -95.5q-50 0 -131.5 33t-124.5 33t-129.5 -33t-138.5 -33t-116 44t-148 158t-139.5 269.5t-55.5 300.5q0 219 125 356.5t323 137.5q68 0 154.5 -34t122.5 -34t123 35t175 35q194 0 337 -164
q-201 -128 -201 -328zM834 1253q0 124 95 229.5t236 131.5q2 -20 2 -62q0 -131 -103.5 -234.5t-203.5 -103.5h-8l-16 2q-2 12 -2 37z" />
    <glyph glyph-name="fi" unicode="&#xf001;" horiz-adv-x="985" 
d="M647 815q129 0 189 25v-811h114v-29h-403v29h119v757h-330v-757h115v-29h-404v29h119v757h-119v29h118l-1 66q0 252 109.5 389t310.5 137q113 0 186.5 -49.5t73.5 -111.5q0 -120 -101 -120q-37 0 -62.5 25.5t-25.5 56.5t12.5 53.5t24.5 28.5t40 13q26 7 26 20
q0 24 -45 42.5t-109 18.5q-151 0 -210.5 -74t-59.5 -270v-225h313z" />
    <glyph glyph-name="fl" unicode="&#xf002;" horiz-adv-x="985" 
d="M765 1372q37 0 75 33v-1376h112v-29h-397v29h119v1110q-51 24 -51 84q0 36 27.5 69.5t27.5 34.5q0 23 -34.5 39t-86.5 16q-115 0 -169 -82t-54 -256v-229h158v-29h-156v-757h115v-29h-404v29h119v757h-119v29h118l-1 64q0 245 105 386.5t284 141.5q43 0 109 -17.5
t103 -17.5z" />
    </font>
</defs>
</svg>
