<?xml version="1.0" standalone="no"?>
<!DOCTYPE svg PUBLIC "-//W3C//DTD SVG 1.1//EN" "http://www.w3.org/Graphics/SVG/1.1/DTD/svg11.dtd" >
<svg xmlns="http://www.w3.org/2000/svg">
<metadata>
Created by FontPrep 20130207 at Mon Apr 27 13:26:17 2015
 By Martin
(c) 1989, 1995, 2002 Adobe Systems Incorporated. All rights reserved.
</metadata>
<defs>
<font id="68ae522795537c9085762656931f5f55" horiz-adv-x='1024' >
  <font-face 
    font-family="AvenirLTStd-Book"
    font-weight="350"
    font-stretch="normal"
    units-per-em="2048"
    panose-1="2 11 5 2 2 2 3 2 2 4"
    ascent="1548"
    descent="-500"
    x-height="958"
    cap-height="1450"
    bbox="-342 -590 2048 1884"
    underline-thickness="102"
    underline-position="-102"
    unicode-range="U+0020-FB02"
  />
<missing-glyph horiz-adv-x="1024" 
d="M102 1239v-1044l349 522zM164 102h696l-348 523zM573 717l349 -522v1044zM512 809l348 522h-696zM0 0v1434h1024v-1434h-1024z" />
    <glyph glyph-name="f_i" unicode="fi" horiz-adv-x="1099" 
d="M952 1327q0 -41 -30 -70t-68 -29q-39 0 -69 30q-30 28 -29 69q0 41 29 70q30 29 69 29t69 -29q29 -29 29 -70zM922 958v-958h-136v958h136zM594 958v-122h-227v-836h-136v836h-202v122h202v263q0 352 322 352q49 0 117 -14l-25 -123q-57 14 -104 14q-103 0 -139 -62
t-35 -184v-246h227z" />
    <glyph glyph-name="f_l" unicode="fl" horiz-adv-x="1099" 
d="M922 1548v-1548h-136v1548h136zM594 958v-122h-227v-836h-136v836h-202v122h202v263q0 352 322 352q49 0 117 -14l-25 -123q-57 14 -104 14q-103 0 -139 -62t-35 -184v-246h227z" />
    <glyph glyph-name=".notdef" horiz-adv-x="1024" 
d="M102 1239v-1044l349 522zM164 102h696l-348 523zM573 717l349 -522v1044zM512 809l348 522h-696zM0 0v1434h1024v-1434h-1024z" />
    <glyph glyph-name=".null" horiz-adv-x="0" 
 />
    <glyph glyph-name="nonmarkingreturn" horiz-adv-x="681" 
 />
    <glyph glyph-name="space" unicode=" " horiz-adv-x="569" 
 />
    <glyph glyph-name="exclam" unicode="!" horiz-adv-x="569" 
d="M395 98q1 -45 -31 -78q-32 -32 -79 -32t-79 32t-32 78q0 45 32 78t79 33t79 -33t31 -78zM358 1450v-1057h-147v1057h147z" />
    <glyph glyph-name="quotedbl" unicode="&#x22;" horiz-adv-x="1062" 
d="M618 969v481h123v-481h-123zM322 969v481h122v-481h-122z" />
    <glyph glyph-name="numbersign" unicode="#" 
d="M467 893l-45 -332h272l45 332h-272zM72 438v123h225l45 332h-221v123h239l60 434h125l-60 -434h273l59 434h125l-59 -434h184v-123h-203l-45 -332h195v-123h-211l-62 -438h-125l62 438h-272l-62 -438h-125l62 438h-209z" />
    <glyph glyph-name="dollar" unicode="$" 
d="M125 1079q0 170 118 279t277 121v143h98v-139q229 0 379 -174l-114 -99q-41 70 -114 105t-151 33v-547q90 -33 152 -63q177 -86 230 -206q34 -74 34 -167q0 -168 -118 -278t-298 -120v-139h-98v135q-137 9 -252 71t-180 154l123 88q65 -82 153 -130t156 -46v572
q-284 89 -361 248q-34 70 -34 159zM618 102q100 0 184 62t85 201q1 192 -269 278v-541zM272 1088q0 -102 64 -158q64 -58 184 -101v517q-108 -8 -178 -82t-70 -176z" />
    <glyph glyph-name="percent" unicode="%" horiz-adv-x="1705" 
d="M1366 1458l-922 -1521l-106 55l924 1521zM1505 334q0 100 -69 168q-70 68 -168 68t-168 -68t-70 -168t70 -168t168 -68t168 68q69 68 69 168zM1628 334q0 -152 -104 -255t-256 -103t-256 102q-104 104 -105 256q1 152 105 255t256 103t256 -103t104 -255zM676 1116
q0 100 -70 168t-168 68t-168 -68t-70 -168t70 -168t168 -68t168 68t70 168zM799 1116q-1 -152 -105 -255t-256 -103t-256 103t-104 255t104 255t256 103t256 -102q104 -104 105 -256z" />
    <glyph glyph-name="ampersand" unicode="&#x26;" horiz-adv-x="1441" 
d="M258 370q0 -116 88 -194t203 -78t193 54t161 159l-383 402q-146 -82 -204 -155q-58 -72 -58 -188zM823 1161q0 84 -58 137q-58 54 -146 54q-89 0 -151 -58t-62 -140q0 -81 51 -157t100 -118q6 3 48 27t54 32q11 8 47 31t49 39q52 64 60 93t8 60zM98 377q0 272 330 428
q-170 182 -170 340t102 250t258 92t254 -86q98 -87 98 -227t-87 -227q-88 -87 -232 -163l334 -344l199 344h166l-267 -448l326 -336h-209l-205 213q-96 -125 -199 -187t-243 -63q-188 0 -322 113q-133 113 -133 301z" />
    <glyph glyph-name="quotesingle" unicode="'" horiz-adv-x="532" 
d="M205 969v481h123v-481h-123z" />
    <glyph glyph-name="parenleft" unicode="(" horiz-adv-x="532" 
d="M408 1507l108 -69q-141 -228 -206 -418q-64 -190 -64 -430t61 -422t201 -414l-109 -82q-137 190 -213 430q-153 482 1 968q78 240 221 437z" />
    <glyph glyph-name="parenright" unicode=")" horiz-adv-x="532" 
d="M287 590q0 240 -62 422q-61 182 -200 413l108 82q137 -190 213 -430q76 -239 76 -483t-77 -484t-220 -438l-109 70q141 228 206 418t65 430z" />
    <glyph glyph-name="asterisk" unicode="*" horiz-adv-x="909" 
d="M516 1450v-293l287 92l43 -114l-289 -93l184 -247l-98 -74l-188 254l-189 -254l-98 74l184 247l-289 93l43 114l287 -92v293h123z" />
    <glyph glyph-name="plus" unicode="+" horiz-adv-x="1363" 
d="M743 1143v-461h461v-123h-461v-461h-122v461h-461v123h461v461h122z" />
    <glyph glyph-name="comma" unicode="," horiz-adv-x="569" 
d="M436 195l-166 -482h-137l137 482h166z" />
    <glyph glyph-name="hyphen" unicode="-" horiz-adv-x="681" 
d="M604 559v-135h-526v135h526z" />
    <glyph glyph-name="period" unicode="." horiz-adv-x="569" 
d="M395 98q1 -45 -31 -78q-32 -32 -79 -32t-79 32t-32 78q0 45 32 78t79 33t79 -33t31 -78z" />
    <glyph glyph-name="slash" unicode="/" horiz-adv-x="757" 
d="M748 1446l-619 -1483l-119 39l621 1485z" />
    <glyph glyph-name="zero" unicode="0" 
d="M569 1339q-344 0 -344 -614t344 -614t344 614t-344 614zM569 1475q119 -1 210 -49t144 -121q138 -196 138 -579q0 -382 -138 -581q-51 -73 -143 -121t-211 -48t-210 48t-143 122q-138 195 -138 577q0 383 138 582q52 74 143 122t210 48z" />
    <glyph glyph-name="one" unicode="1" 
d="M713 1450v-1450h-148v1266l-260 -230l-92 111l369 303h131z" />
    <glyph glyph-name="two" unicode="2" 
d="M1020 135v-135h-922v170l578 588q57 57 90 97q34 41 64 105t30 125q0 117 -80 186t-194 69t-194 -62q-79 -61 -101 -166l-156 16q31 160 149 253t294 93t304 -98q126 -100 126 -268t-96 -298q-50 -69 -87 -110t-110 -112l-457 -453h762z" />
    <glyph glyph-name="three" unicode="3" 
d="M418 692v135h76q139 0 228 66t89 192q0 127 -71 191t-197 63q-184 0 -277 -159l-129 65q127 229 402 230q178 1 299 -101t120 -276q0 -115 -70 -207t-175 -125l6 -4q125 -27 202 -129t76 -240q0 -195 -133 -307t-329 -111q-342 0 -457 293l155 47q37 -104 111 -154
t202 -50q128 1 216 81t88 220t-104 210q-104 71 -265 70h-63z" />
    <glyph glyph-name="four" unicode="4" 
d="M705 479v824h-5l-499 -824h504zM852 1450v-971h209v-135h-209v-344h-147v344h-627v168l586 938h188z" />
    <glyph glyph-name="five" unicode="5" 
d="M952 1450v-135h-594l-8 -436q86 35 195 34q203 0 331 -132q128 -133 128 -337t-138 -336t-350 -133q-139 0 -250 67t-168 191l146 64q42 -86 116 -136t168 -50q137 0 233 94q95 95 95 239t-100 239t-254 95t-303 -80l14 752h739z" />
    <glyph glyph-name="six" unicode="6" 
d="M246 424q0 -139 90 -226t233 -87t234 87q90 87 90 226t-90 226q-89 87 -233 87t-234 -87t-90 -226zM598 872q190 0 316 -127t126 -323t-133 -322q-133 -125 -338 -125t-338 125q-133 126 -133 318t125 395l391 637h174l-395 -623l4 -4q70 49 201 49z" />
    <glyph glyph-name="seven" unicode="7" 
d="M971 1450v-135l-584 -1315h-166l596 1315h-706v135h860z" />
    <glyph glyph-name="eight" unicode="8" 
d="M881 408q0 129 -86 213q-85 84 -225 84t-226 -84t-86 -213t86 -213t225 -84t226 84q86 84 86 213zM827 1083q0 111 -73 184q-74 73 -185 73t-185 -74q-74 -72 -73 -183q0 -111 74 -183q75 -72 185 -73q110 1 184 73t73 183zM164 1096q0 168 119 273t287 105t286 -104
q119 -106 119 -274q-1 -111 -61 -201t-156 -123v-4q122 -33 196 -136t74 -245q0 -182 -134 -297t-324 -115t-325 115q-134 115 -134 297q0 141 73 245q74 103 197 136v4q-96 33 -157 123q-60 90 -60 201z" />
    <glyph glyph-name="nine" unicode="9" 
d="M893 1026q0 139 -90 226q-89 87 -233 87t-234 -87t-90 -226t90 -226t233 -87t234 87q90 87 90 226zM541 578q-190 0 -317 127q-126 127 -126 323t133 322q133 125 338 125t338 -125q133 -126 133 -318t-125 -395l-391 -637h-174l395 623l-4 4q-70 -49 -200 -49z" />
    <glyph glyph-name="colon" unicode=":" horiz-adv-x="569" 
d="M395 98q1 -45 -31 -78q-32 -32 -79 -32t-79 32t-32 78q0 45 32 78t79 33t79 -33t31 -78zM395 858q1 -45 -31 -78q-32 -32 -79 -32t-79 32t-32 78q0 45 32 78t79 33t79 -33t31 -78z" />
    <glyph glyph-name="semicolon" unicode=";" horiz-adv-x="569" 
d="M414 858q0 -45 -32 -78q-32 -32 -79 -32t-79 32t-31 78q0 45 31 78q32 33 79 33t79 -33t32 -78zM436 195l-166 -482h-137l137 482h166z" />
    <glyph glyph-name="less" unicode="&#x3c;" horiz-adv-x="1363" 
d="M1204 1155v-123l-878 -411l878 -412v-123l-1044 487v95z" />
    <glyph glyph-name="equal" unicode="=" horiz-adv-x="1363" 
d="M160 528h1044v-122h-1044v122zM160 836h1044v-123h-1044v123z" />
    <glyph glyph-name="greater" unicode="&#x3e;" horiz-adv-x="1363" 
d="M160 1032v123l1044 -487v-95l-1044 -487v123l878 412z" />
    <glyph glyph-name="question" unicode="?" horiz-adv-x="987" 
d="M614 98q0 -45 -32 -78q-32 -32 -78 -32q-47 0 -79 32t-32 78q0 45 32 78t79 33q46 0 78 -33t32 -78zM565 498v-105h-147v170q4 113 119 219q49 45 97 90q116 109 116 222q0 114 -67 180t-171 66t-174 -62q-70 -61 -88 -162l-154 19q22 159 136 249t280 90t276 -94
q110 -96 109 -259q0 -163 -81 -248t-166 -161q-85 -77 -85 -214z" />
    <glyph glyph-name="at" unicode="@" horiz-adv-x="1638" 
d="M1427 850q0 223 -175 375t-398 151q-262 0 -453 -196q-190 -197 -190 -455t190 -455t453 -196q154 0 295 66t223 182h129q-98 -168 -272 -264t-375 -95q-315 0 -541 221q-225 220 -225 540t225 542t527 221q302 0 507 -178q204 -178 203 -451q0 -126 -47 -238
q-85 -201 -271 -297q-81 -42 -153 -42q-129 0 -143 120h-4q-117 -121 -252 -121t-215 86q-80 85 -80 222q0 223 136 400t343 177q176 0 234 -168h4l45 129h115l-172 -577q-31 -110 -6 -133q13 -12 34 -13q109 1 209 141t100 306zM1030 838q0 86 -50 145t-116 59
q-141 -6 -242 -147t-102 -295q0 -86 54 -141t139 -56q125 0 221 148t96 287z" />
    <glyph glyph-name="A" unicode="A" horiz-adv-x="1404" 
d="M702 1278l-315 -762h629zM332 381l-160 -381h-172l631 1450h143l631 -1450h-172l-160 381h-741z" />
    <glyph glyph-name="B" unicode="B" horiz-adv-x="1290" 
d="M344 692v-557h283q170 0 275 69t106 206q0 283 -363 282h-301zM344 1315v-500h297q121 1 208 63t87 191q0 69 -49 143q-29 45 -97 74t-163 29h-283zM197 0v1450h432q203 0 335 -87t132 -278q0 -119 -68 -205t-188 -112v-4q154 -12 240 -108t87 -255q0 -88 -43 -164
q-43 -77 -97 -123q-55 -46 -155 -80t-233 -34h-442z" />
    <glyph glyph-name="C" unicode="C" horiz-adv-x="1441" 
d="M854 -37q-326 0 -541 216t-215 546t215 546t541 216q144 0 278 -57t224 -173l-129 -96q-45 74 -154 132t-219 59q-270 0 -433 -184t-163 -443q0 -260 163 -443q163 -184 435 -184t414 217l121 -86q-75 -117 -219 -191t-318 -75z" />
    <glyph glyph-name="D" unicode="D" horiz-adv-x="1517" 
d="M324 1315v-1180h286q160 0 287 49q235 91 323 322q40 104 40 219q0 236 -158 408q-78 84 -205 133t-287 49h-286zM176 0v1450h481q289 0 517 -179q110 -87 178 -229t68 -317q0 -174 -68 -316q-124 -260 -422 -363q-133 -46 -273 -46h-481z" />
    <glyph glyph-name="E" unicode="E" horiz-adv-x="1214" 
d="M344 686v-551h776v-135h-923v1450h899v-135h-752v-494h703v-135h-703z" />
    <glyph glyph-name="F" unicode="F" 
d="M344 686v-686h-147v1450h874v-135h-727v-494h676v-135h-676z" />
    <glyph glyph-name="G" unicode="G" horiz-adv-x="1593" 
d="M847 1352q-263 0 -426 -184t-163 -443q0 -260 163 -443t433 -184q221 0 401 103v485h-346v135h494v-710q-247 -147 -561 -147t-529 215q-215 216 -215 546t215 546t543 216t522 -195l-110 -108q-158 168 -421 168z" />
    <glyph glyph-name="H" unicode="H" horiz-adv-x="1478" 
d="M197 0v1450h147v-629h791v629h147v-1450h-147v686h-791v-686h-147z" />
    <glyph glyph-name="I" unicode="I" horiz-adv-x="540" 
d="M344 1450v-1450h-147v1450h147z" />
    <glyph glyph-name="J" unicode="J" horiz-adv-x="987" 
d="M408 98q256 0 256 361v991h147v-1053q0 -166 -86 -288q-101 -146 -343 -146q-132 0 -230 78t-123 225l149 31q43 -199 230 -199z" />
    <glyph glyph-name="K" unicode="K" horiz-adv-x="1290" 
d="M344 1450v-629h21l682 629h210l-731 -657l772 -793h-217l-712 748h-25v-748h-147v1450h147z" />
    <glyph glyph-name="L" unicode="L" horiz-adv-x="1024" 
d="M344 1450v-1315h676v-135h-823v1450h147z" />
    <glyph glyph-name="M" unicode="M" horiz-adv-x="1822" 
d="M1626 1450v-1450h-147v1253h-4l-525 -1253h-78l-524 1253h-4v-1253h-147v1450h225l489 -1180l490 1180h225z" />
    <glyph glyph-name="N" unicode="N" horiz-adv-x="1593" 
d="M1249 221v1229h148v-1450h-185l-864 1241h-4v-1241h-147v1450h184l864 -1229h4z" />
    <glyph glyph-name="O" unicode="O" horiz-adv-x="1708" 
d="M1450 725q0 260 -163 443q-163 184 -433 184t-433 -184t-163 -443q0 -260 163 -443q163 -184 433 -184t433 184t163 443zM1610 725q0 -330 -215 -546t-541 -216t-541 216t-215 546t215 546t541 216t541 -216t215 -546z" />
    <glyph glyph-name="P" unicode="P" horiz-adv-x="1175" 
d="M344 1315v-506h238q186 0 270 70q84 71 84 185t-84 182t-270 69h-238zM197 0v1450h421q226 0 352 -98t126 -290t-126 -290t-352 -98h-274v-674h-147z" />
    <glyph glyph-name="Q" unicode="Q" horiz-adv-x="1708" 
d="M1661 135v-135h-830q-315 0 -524 211t-209 533t209 532q209 211 523 211t524 -211t209 -533q0 -424 -340 -604v-4h438zM258 743q0 -252 157 -430t415 -178t416 178q157 178 157 430q0 253 -157 431t-416 178q-260 0 -416 -178t-156 -431z" />
    <glyph glyph-name="R" unicode="R" horiz-adv-x="1214" 
d="M344 1315v-506h262q186 0 271 70q84 71 84 185t-84 182t-271 69h-262zM344 674v-674h-147v1450h446q225 0 351 -98t126 -289q0 -154 -98 -257t-272 -118l417 -688h-180l-397 674h-246z" />
    <glyph glyph-name="S" unicode="S" 
d="M293 1100q0 -116 77 -181q78 -65 186 -99t218 -74t186 -130t76 -233q0 -188 -146 -304t-331 -116q-299 0 -457 215l134 96q102 -176 329 -176q119 0 215 72t96 180t-54 170q-56 62 -138 91q-238 81 -358 134q-82 37 -138 121q-55 84 -55 209q0 199 138 305t331 107
q256 0 410 -176l-129 -101q-96 141 -281 142q-125 0 -217 -68t-92 -184z" />
    <glyph glyph-name="T" unicode="T" horiz-adv-x="1175" 
d="M662 1315v-1315h-148v1315h-485v135h1118v-135h-485z" />
    <glyph glyph-name="U" unicode="U" horiz-adv-x="1404" 
d="M1233 1450v-909q0 -172 -63 -308q-36 -80 -93 -137t-153 -95t-222 -38t-221 38q-309 122 -309 540v909h147v-893q0 -119 30 -208t72 -135t99 -74q86 -42 182 -42t168 35t114 81t72 135t29 208v893h148z" />
    <glyph glyph-name="V" unicode="V" horiz-adv-x="1251" 
d="M158 1450l460 -1229h5l475 1229h159l-565 -1450h-147l-551 1450h164z" />
    <glyph glyph-name="W" unicode="W" horiz-adv-x="1933" 
d="M164 1450l348 -1241h4l365 1241h176l364 -1241h4l344 1241h164l-428 -1450h-172l-364 1241h-4l-365 -1241h-172l-428 1450h164z" />
    <glyph glyph-name="X" unicode="X" horiz-adv-x="1290" 
d="M252 1450l395 -580l406 580h184l-492 -688l533 -762h-195l-442 657l-444 -657h-185l531 762l-490 688h199z" />
    <glyph glyph-name="Y" unicode="Y" horiz-adv-x="1175" 
d="M662 0h-148v625l-543 825h185l432 -684l432 684h184l-542 -825v-625z" />
    <glyph glyph-name="Z" unicode="Z" 
d="M1079 1450v-123l-846 -1192h859v-135h-1045v123l848 1192h-836v135h1020z" />
    <glyph glyph-name="bracketleft" unicode="[" horiz-adv-x="532" 
d="M465 1499v-110h-197v-1598h197v-110h-332v1818h332z" />
    <glyph glyph-name="backslash" unicode="\" horiz-adv-x="757" 
d="M629 -37l-619 1483l117 41l621 -1485z" />
    <glyph glyph-name="bracketright" unicode="]" horiz-adv-x="532" 
d="M68 -319v110h196v1598h-196v110h331v-1818h-331z" />
    <glyph glyph-name="asciicircum" unicode="^" horiz-adv-x="1363" 
d="M164 563l469 887h98l469 -887h-127l-391 740l-391 -740h-127z" />
    <glyph glyph-name="underscore" unicode="_" horiz-adv-x="1024" 
d="M0 -256v102h1024v-102h-1024z" />
    <glyph glyph-name="grave" unicode="`" horiz-adv-x="491" 
d="M250 1155l-270 295h186l205 -295h-121z" />
    <glyph glyph-name="a" unicode="a" horiz-adv-x="1062" 
d="M762 477h-70q-446 0 -446 -203q0 -88 66 -132t159 -44q141 0 216 87t75 223v69zM694 588h68v24q0 248 -246 248q-168 0 -293 -112l-82 96q135 139 406 139q152 0 251 -87t99 -253v-428q0 -113 16 -215h-131q-12 70 -12 156h-4q-111 -180 -338 -181q-137 0 -233 74
q-97 74 -97 217t107 216t234 90q127 16 255 16z" />
    <glyph glyph-name="b" unicode="b" horiz-adv-x="1251" 
d="M1022 479q0 164 -99 273q-99 108 -265 108t-274 -110t-108 -271t109 -271t273 -110t264 108t100 273zM147 0v1548h136v-749h4q61 90 165 137t207 47q223 0 367 -143q144 -142 143 -360q0 -218 -143 -361t-367 -144q-104 -1 -207 47t-165 138h-4v-160h-136z" />
    <glyph glyph-name="c" unicode="c" horiz-adv-x="987" 
d="M246 479q0 -167 98 -275t262 -106q76 0 140 36t100 91l110 -84q-139 -162 -360 -165q-221 -2 -359 140t-139 363q0 221 138 363t360 140q221 -3 360 -165l-110 -84q-35 55 -100 91t-140 36q-164 2 -262 -106t-98 -275z" />
    <glyph glyph-name="d" unicode="d" horiz-adv-x="1251" 
d="M229 479q-1 -165 99 -273t265 -108t273 110t109 272q0 162 -109 271q-110 109 -274 109t-264 -108t-99 -273zM1104 1548v-1548h-135v160h-4q-61 -90 -165 -137t-208 -48q-222 -1 -366 143t-144 361t143 361t367 143q104 0 208 -47t165 -137h4v749h135z" />
    <glyph glyph-name="e" unicode="e" 
d="M246 553h647q0 139 -84 223t-221 84q-138 0 -240 -94t-102 -213zM1040 442h-798q12 -145 111 -244t241 -100q100 0 182 48t125 118l105 -86q-160 -203 -412 -203q-213 -1 -354 143q-142 144 -142 360t140 360t347 144q207 -1 331 -137t124 -341v-62z" />
    <glyph glyph-name="f" unicode="f" horiz-adv-x="606" 
d="M594 958v-122h-227v-836h-136v836h-202v122h202v263q0 352 322 352q49 0 117 -14l-25 -123q-57 14 -104 14q-103 0 -139 -62t-35 -184v-246h227z" />
    <glyph glyph-name="g" unicode="g" horiz-adv-x="1251" 
d="M246 492q0 -152 103 -261t255 -109t260 104q108 103 101 266q1 156 -99 262t-257 106t-260 -108t-103 -260zM588 -369q196 -1 284 103t89 274v172h-5q-121 -180 -344 -180t-368 139q-146 139 -146 349t138 352t361 143q222 0 359 -184h5v159h135v-950q0 -248 -147 -384
q-54 -50 -149 -83t-218 -33q-281 0 -461 193l100 106q61 -82 157 -129t210 -47z" />
    <glyph glyph-name="h" unicode="h" 
d="M147 0v1548h136v-743h4q45 78 135 128t186 50q180 0 270 -97t91 -278v-608h-135v530q0 168 -58 249t-203 81q-51 0 -106 -26t-91 -62t-65 -108q-29 -74 -28 -172v-492h-136z" />
    <glyph glyph-name="i" unicode="i" horiz-adv-x="491" 
d="M344 1327q0 -41 -30 -70t-68 -29t-69 30q-30 28 -30 69t30 70t69 29q38 0 68 -30q30 -28 30 -69zM313 958v-958h-135v958h135z" />
    <glyph glyph-name="j" unicode="j" horiz-adv-x="491" 
d="M344 1327q0 -41 -30 -70t-68 -29t-69 30q-30 28 -30 69t30 70t69 29q38 0 68 -30q30 -28 30 -69zM178 958h135v-1157q0 -144 -56 -211q-26 -30 -81 -56q-54 -26 -122 -26t-117 21l18 117q41 -14 78 -15q88 -1 117 55t28 146v1126z" />
    <glyph glyph-name="k" unicode="k" horiz-adv-x="987" 
d="M283 1548v-1022l452 432h203l-477 -438l528 -520h-209l-497 504v-504h-136v1548h136z" />
    <glyph glyph-name="l" unicode="l" horiz-adv-x="491" 
d="M313 1548v-1548h-135v1548h135z" />
    <glyph glyph-name="m" unicode="m" horiz-adv-x="1744" 
d="M147 0v745q0 33 -10 213h146v-145h4q47 80 133 125t176 45q227 0 305 -199q41 90 129 144t187 55q180 0 270 -97t90 -278v-608h-135v559q0 153 -53 227t-191 74t-203 -100q-66 -100 -65 -250v-510h-135v559q1 153 -53 227t-189 74q-50 0 -101 -26q-50 -26 -84 -62
t-60 -108q-26 -74 -25 -172v-492h-136z" />
    <glyph glyph-name="n" unicode="n" 
d="M608 983q180 0 270 -97t91 -278v-608h-135v530q0 168 -58 249t-203 81q-51 0 -106 -26t-91 -62t-65 -108q-29 -74 -28 -172v-492h-136v748q0 36 -10 210h139q6 -51 7 -153h4q45 78 135 128t186 50z" />
    <glyph glyph-name="o" unicode="o" horiz-adv-x="1214" 
d="M969 479q1 164 -99 273q-100 108 -263 108t-262 -108t-99 -273t99 -273t262 -108t263 108t99 273zM1116 479q0 -217 -143 -360t-365 -143t-366 142q-143 144 -144 361q0 217 144 361t365 143q222 0 366 -143q143 -144 143 -361z" />
    <glyph glyph-name="p" unicode="p" horiz-adv-x="1251" 
d="M1022 479q0 164 -99 273q-99 108 -265 108t-274 -110t-108 -271t109 -271t273 -110t264 108t100 273zM147 -590v1548h136v-159h4q61 90 165 137t207 47q223 0 367 -143q144 -142 143 -360q0 -218 -143 -361t-367 -144q-104 -1 -207 47t-165 138h-4v-750h-136z" />
    <glyph glyph-name="q" unicode="q" horiz-adv-x="1251" 
d="M229 479q-1 -165 99 -273t265 -108t273 110t109 272q0 162 -109 271q-110 109 -274 109t-264 -108t-99 -273zM1104 958v-1548h-135v750h-4q-61 -90 -165 -137t-208 -48q-222 -1 -366 143t-144 361t143 361t367 143q104 0 208 -47t165 -137h4v159h135z" />
    <glyph glyph-name="r" unicode="r" horiz-adv-x="679" 
d="M162 0v659q0 20 -8 299h133v-178h4q33 86 111 145q79 58 196 58q57 0 100 -12l-26 -133q-27 10 -78 10q-141 0 -219 -97t-78 -210v-541h-135z" />
    <glyph glyph-name="s" unicode="s" horiz-adv-x="872" 
d="M449 860q-79 0 -139 -36t-60 -103t44 -100t144 -56l137 -33q102 -24 168 -94t66 -168q0 -147 -109 -221t-264 -74q-244 0 -368 187l116 80q92 -143 252 -144q92 0 159 41t67 113t-48 104t-135 56l-131 30q-246 61 -246 252q0 141 104 215t251 74q235 0 319 -172l-121 -80
q-68 129 -206 129z" />
    <glyph glyph-name="t" unicode="t" horiz-adv-x="679" 
d="M643 958v-122h-276v-566q1 -100 35 -136t105 -36t138 37l6 -125q-76 -35 -177 -35q-101 -1 -172 57t-71 199v605h-202v122h202v271h136v-271h276z" />
    <glyph glyph-name="u" unicode="u" 
d="M834 154h-5q-45 -78 -135 -128t-186 -51q-180 -1 -270 97t-91 278v608h136v-530q0 -168 57 -249t203 -81q51 0 106 26t91 62t65 109q29 74 29 172v491h135v-747q0 -37 10 -211h-139q-6 51 -6 154z" />
    <glyph glyph-name="v" unicode="v" horiz-adv-x="987" 
d="M958 958l-389 -958h-151l-389 958h161l306 -806h4l305 806h153z" />
    <glyph glyph-name="w" unicode="w" horiz-adv-x="1478" 
d="M29 958h159l222 -778h4l256 778h139l256 -778h4l221 778h160l-303 -958h-152l-254 786h-4l-254 -786h-151z" />
    <glyph glyph-name="x" unicode="x" horiz-adv-x="987" 
d="M0 0l395 512l-348 446h184l267 -358l254 358h168l-334 -446l401 -512h-184l-322 420l-309 -420h-172z" />
    <glyph glyph-name="y" unicode="y" horiz-adv-x="987" 
d="M176 -369q64 0 106 43t74 129l70 185l-393 970h170l301 -792l293 792h164l-480 -1208q-93 -242 -281 -242q-98 0 -145 15l15 131q42 -23 106 -23z" />
    <glyph glyph-name="z" unicode="z" horiz-adv-x="872" 
d="M805 958v-98l-561 -737h581v-123h-778v98l561 738h-532v122h729z" />
    <glyph glyph-name="braceleft" unicode="{" horiz-adv-x="532" 
d="M25 528v123q74 1 128 63t54 165v364q0 135 61 195t160 61h131v-123h-115q-71 0 -89 -57q-13 -42 -13 -113v-352q0 -129 -62 -191t-120 -71v-4q58 -8 120 -70t62 -192v-353q0 -128 45 -155q23 -14 57 -15h115v-122h-131q-98 0 -160 60q-61 60 -61 196v364q0 103 -54 165
t-128 62z" />
    <glyph glyph-name="bar" unicode="|" horiz-adv-x="454" 
d="M166 1536h123v-2048h-123v2048z" />
    <glyph glyph-name="braceright" unicode="}" horiz-adv-x="532" 
d="M508 651v-123q-74 0 -128 -62t-54 -165v-364q0 -135 -62 -195t-160 -61h-131v122h115q71 0 89 58q13 42 13 112v353q0 129 62 191t121 71v4q-57 8 -119 70t-64 192v352q0 129 -45 156q-23 14 -57 14h-115v123h131q98 0 160 -60t62 -196v-364q0 -102 54 -165t128 -63z" />
    <glyph glyph-name="asciitilde" unicode="~" horiz-adv-x="1363" 
d="M900 481q-66 0 -102 9q-40 10 -155 78q-115 69 -172 69q-102 0 -203 -150l-86 82q39 55 71 90t89 68t122 33q66 0 102 -9q40 -10 155 -78q115 -69 172 -69q103 0 203 150l86 -82q-39 -55 -71 -90t-89 -68t-122 -33z" />
    <glyph glyph-name="uni00A0" unicode="&#xa0;" horiz-adv-x="569" 
 />
    <glyph glyph-name="exclamdown" unicode="&#xa1;" horiz-adv-x="569" 
d="M174 885q0 45 32 78t79 33t79 -34q32 -32 32 -77t-32 -78t-79 -33t-79 33t-32 78zM211 -467v1057h147v-1057h-147z" />
    <glyph glyph-name="cent" unicode="&#xa2;" 
d="M688 -147h-98v129q-199 20 -315 158t-115 339q0 201 115 339q116 138 315 159v129h98v-125q201 -10 330 -164l-111 -84q-33 51 -90 86t-129 39v-758q72 4 129 39t90 86l111 -84q-129 -154 -330 -164v-124zM307 480q0 -146 76 -250t207 -126v750q-131 -23 -207 -126
q-76 -102 -76 -248z" />
    <glyph glyph-name="sterling" unicode="&#xa3;" 
d="M872 809v-123h-344v-563h519v-123h-875v123h209v563h-197v123h197v178q0 487 434 488q201 0 318 -123l-97 -105q-94 104 -227 105q-281 0 -281 -377v-166h344z" />
    <glyph glyph-name="currency" unicode="&#xa4;" 
d="M199 725q1 -159 109 -273t262 -114t263 114q107 114 107 274t-108 272q-108 114 -262 114q-155 0 -263 -114t-108 -273zM570 215q-166 0 -308 109l-108 -109l-91 90l109 109q-111 141 -109 311q-2 170 109 311l-109 109l91 90l108 -109q141 109 307 109t308 -109l108 109
l90 -90l-108 -109q111 -141 108 -311q2 -170 -108 -311l108 -109l-90 -90l-108 109q-141 -109 -307 -109z" />
    <glyph glyph-name="yen" unicode="&#xa5;" 
d="M162 457h334v157l-15 25h-319v111h254l-420 700h174l399 -696l400 696h174l-418 -700h252v-111h-320l-14 -25v-157h334v-111h-334v-346h-147v346h-334v111z" />
    <glyph glyph-name="brokenbar" unicode="&#xa6;" horiz-adv-x="454" 
d="M166 358h123v-716h-123v716zM166 1382h123v-716h-123v716z" />
    <glyph glyph-name="section" unicode="&#xa7;" 
d="M309 641q0 -64 46 -105q17 -14 27 -24q25 -23 80 -47q54 -24 60 -29l135 -65q59 25 105 74q45 50 45 119t-53 119t-142 91l-116 53l-35 -14q-152 -63 -152 -172zM586 1352q-66 0 -113 -22q-75 -35 -99 -113q-9 -27 -9 -50q0 -67 42 -109t123 -85l226 -115
q198 -102 198 -280t-178 -273q78 -53 110 -111t32 -145q0 -162 -112 -248t-264 -86q-152 -1 -260 59t-155 177l135 65q33 -90 106 -134q72 -44 166 -44t165 50t71 159t-143 180l-281 138q-184 88 -184 267t213 273q-117 77 -144 153q-14 42 -14 93q-1 152 103 238t245 86
q141 -1 235 -55t128 -138l-121 -61q-66 131 -221 131z" />
    <glyph glyph-name="dieresis" unicode="&#xa8;" horiz-adv-x="491" 
d="M338 1325q0 41 30 73t74 32t75 -32q30 -32 30 -73t-30 -73t-75 -32q-44 0 -74 32t-30 73zM-55 1325q0 41 29 73q30 32 75 32t75 -32t30 -73t-30 -73t-75 -32t-75 32q-29 32 -29 73z" />
    <glyph glyph-name="copyright" unicode="&#xa9;" horiz-adv-x="1638" 
d="M1464 726q0 276 -187 464q-187 186 -457 186t-458 -188t-188 -464t187 -462q187 -188 457 -188t459 188q187 188 187 464zM51 724q0 322 225 543q224 220 542 220t544 -219t225 -542q0 -323 -225 -543q-224 -220 -542 -220t-544 219q-225 220 -225 542zM850 258
q-205 0 -331 132t-126 337t122 334t329 129q152 0 260 -81t127 -230h-115q-16 88 -91 144t-179 56q-152 0 -241 -99q-89 -100 -89 -248t94 -256t240 -107q102 -1 176 59t90 150h117q-33 -148 -137 -234t-246 -86z" />
    <glyph glyph-name="ordfeminine" unicode="&#xaa;" horiz-adv-x="690" 
d="M467 1145h-27q-254 0 -254 -101q0 -37 36 -57t85 -20q160 0 160 178zM279 868q-90 0 -153 44q-62 44 -62 135q-1 196 358 196h45v17q0 117 -131 116q-104 0 -182 -61l-66 76q88 84 234 84q146 -1 207 -59q60 -58 61 -126v-280q0 -43 10 -129h-111l-6 73h-2
q-59 -86 -202 -86z" />
    <glyph glyph-name="guillemotleft" unicode="&#xab;" horiz-adv-x="987" 
d="M862 852l-235 -360l235 -361l-96 -68l-287 429l287 428zM489 852l-235 -360l235 -361l-96 -68l-287 429l287 428z" />
    <glyph glyph-name="logicalnot" unicode="&#xac;" horiz-adv-x="1363" 
d="M1204 836v-570h-123v447h-921v123h1044z" />
    <glyph glyph-name="uni00AD" unicode="&#xad;" horiz-adv-x="681" 
d="M604 559v-135h-526v135h526z" />
    <glyph glyph-name="registered" unicode="&#xae;" horiz-adv-x="1638" 
d="M1464 726q0 276 -187 464q-187 186 -457 186t-458 -188t-188 -464t187 -462q187 -188 457 -188t459 188q187 188 187 464zM51 724q0 322 225 543q224 220 542 220t544 -219t225 -542q0 -323 -225 -543q-224 -220 -542 -220t-544 219q-225 220 -225 542zM657 1051v-283
h152q107 0 154 16q82 28 83 119q0 92 -54 120t-144 28h-191zM858 1161q312 -1 312 -245q0 -122 -64 -179q-63 -57 -170 -69l254 -389h-133l-242 378h-158v-378h-122v882h323z" />
    <glyph glyph-name="macron" unicode="&#xaf;" horiz-adv-x="491" 
d="M522 1339v-110h-553v110h553z" />
    <glyph glyph-name="degree" unicode="&#xb0;" horiz-adv-x="819" 
d="M616 1169q0 87 -60 147t-146 60t-146 -60t-61 -146q0 -86 60 -147q61 -60 147 -60t146 60t60 146zM715 1169q0 -133 -87 -219t-218 -86t-219 86q-87 86 -87 219t87 219t219 87q132 -1 218 -87q87 -86 87 -219z" />
    <glyph glyph-name="plusminus" unicode="&#xb1;" horiz-adv-x="1363" 
d="M160 98v123h1044v-123h-1044zM160 711v123h461v319h122v-319h461v-123h-461v-310h-122v310h-461z" />
    <glyph glyph-name="twosuperior" unicode="&#xb2;" horiz-adv-x="739" 
d="M670 702v-110h-600v117l350 335q119 115 119 197q1 49 -49 86t-112 37t-110 -33q-49 -33 -65 -82l-115 19q20 98 99 152t195 54t198 -58q82 -60 82 -167q0 -61 -32 -121t-64 -95q-32 -34 -95 -91l-266 -240h465z" />
    <glyph glyph-name="threesuperior" unicode="&#xb3;" horiz-adv-x="739" 
d="M176 817q52 -127 190 -127q72 0 127 45q54 45 54 101t-49 104t-172 49h-60v111h49q88 0 147 36q58 36 58 96t-42 96t-103 36t-101 -20t-77 -74l-97 67q94 137 271 138q115 -1 193 -61t79 -165q0 -70 -47 -125t-121 -77v-5q92 -14 143 -72t52 -141q0 -117 -86 -183
t-215 -66q-223 0 -299 176z" />
    <glyph glyph-name="acute" unicode="&#xb4;" horiz-adv-x="491" 
d="M512 1450l-270 -295h-121l205 295h186z" />
    <glyph glyph-name="mu" unicode="&#xb5;" 
d="M147 -467v1425h136v-530q0 -180 57 -255q58 -75 194 -75t218 98t82 271v491h135v-747q0 -37 10 -211h-145v156h-5q-45 -74 -137 -127t-184 -54q-141 0 -225 60v-502h-136z" />
    <glyph glyph-name="paragraph" unicode="&#xb6;" horiz-adv-x="1228" 
d="M1051 1450v-1708h-136v1597h-253v-1597h-136v905q-186 0 -307 110t-121 271q0 198 125 310t342 112h486z" />
    <glyph glyph-name="periodcentered" unicode="&#xb7;" horiz-adv-x="569" 
d="M395 643q1 -45 -31 -78t-79 -33t-79 33t-32 78t32 78t79 33t79 -33t31 -78z" />
    <glyph glyph-name="cedilla" unicode="&#xb8;" horiz-adv-x="491" 
d="M320 -111q50 0 97 -42q46 -43 46 -121t-71 -124t-171 -46t-192 49l32 73q71 -36 137 -36q142 1 142 92q0 30 -23 56t-73 26t-99 -23l-36 35l127 172h83l-92 -123l4 -2q39 14 89 14z" />
    <glyph glyph-name="onesuperior" unicode="&#xb9;" horiz-adv-x="739" 
d="M461 1462v-870h-123v747l-168 -137l-59 78l239 182h111z" />
    <glyph glyph-name="ordmasculine" unicode="&#xba;" horiz-adv-x="788" 
d="M602 1170q0 86 -59 146t-149 60t-149 -60t-59 -146t58 -144q58 -59 149 -59q90 0 150 59q59 59 59 144zM725 1171q0 -131 -93 -217q-94 -86 -238 -86t-237 86t-93 217t92 217q94 86 238 87q144 0 238 -86q93 -87 93 -218z" />
    <glyph glyph-name="guillemotright" unicode="&#xbb;" horiz-adv-x="987" 
d="M125 131l235 361l-235 360l96 68l287 -428l-287 -429zM498 131l235 361l-235 360l96 68l287 -428l-287 -429z" />
    <glyph glyph-name="onequarter" unicode="&#xbc;" horiz-adv-x="1708" 
d="M481 1462v-870h-123v747l-168 -137l-59 78l240 182h110zM1331 303v445h-4l-278 -445h282zM420 -66l-107 66l924 1516l104 -64zM1454 870v-567h123v-110h-123v-193h-123v193h-393v126l367 551h149z" />
    <glyph glyph-name="onehalf" unicode="&#xbd;" horiz-adv-x="1708" 
d="M1628 111v-111h-600v117l350 336q119 115 119 196q0 49 -49 86t-111 37q-63 0 -111 -33t-65 -82l-114 19q20 98 99 152q78 54 194 54t198 -58q82 -60 82 -167q0 -61 -32 -121t-63 -95q-32 -34 -95 -91l-267 -239h465zM430 1462v-870h-123v747l-168 -137l-59 78l239 182
h111zM369 -66l-107 66l924 1516l104 -64z" />
    <glyph glyph-name="threequarters" unicode="&#xbe;" horiz-adv-x="1708" 
d="M195 817q51 -127 189 -127q72 0 127 45q54 45 54 101t-49 104t-172 49h-59v111h49q88 0 146 37t58 97t-41 95t-103 35t-101 -20t-78 -74l-96 67q94 137 270 138q115 -1 194 -61t79 -165q0 -70 -48 -125t-120 -77v-5q92 -14 143 -72t51 -141q0 -117 -86 -183t-215 -66
q-223 0 -297 176zM1372 303v445h-4l-278 -445h282zM502 -66l-107 66l924 1516l104 -64zM1495 870v-567h123v-110h-123v-193h-123v193h-393v126l367 551h149z" />
    <glyph glyph-name="questiondown" unicode="&#xbf;" horiz-adv-x="987" 
d="M373 885q0 45 31 78q32 33 79 33t79 -34q32 -32 32 -77t-32 -78t-79 -33t-79 33q-31 33 -31 78zM422 485v105h147v-170q-4 -114 -118 -219q-49 -45 -97 -90q-117 -109 -117 -222q1 -114 67 -180q66 -65 171 -65q104 0 174 61t88 162l154 -19q-23 -158 -137 -248t-279 -92
q-165 0 -275 96t-110 258q0 163 81 248t165 159q37 34 61 90q25 56 25 126z" />
    <glyph glyph-name="Agrave" unicode="&#xc0;" horiz-adv-x="1404" 
d="M707 1513l-271 295h187l204 -295h-120zM702 1278l-315 -762h629zM332 381l-160 -381h-172l631 1450h143l631 -1450h-172l-160 381h-741z" />
    <glyph glyph-name="Aacute" unicode="&#xc1;" horiz-adv-x="1404" 
d="M969 1808l-271 -295h-120l204 295h187zM702 1278l-315 -762h629zM332 381l-160 -381h-172l631 1450h143l631 -1450h-172l-160 381h-741z" />
    <glyph glyph-name="Acircumflex" unicode="&#xc2;" horiz-adv-x="1404" 
d="M784 1808l224 -295h-136l-170 222l-170 -222h-135l224 295h163zM702 1278l-315 -762h629zM332 381l-160 -381h-172l631 1450h143l631 -1450h-172l-160 381h-741z" />
    <glyph glyph-name="Atilde" unicode="&#xc3;" horiz-adv-x="1404" 
d="M559 1751q55 0 153 -47t134 -47q76 0 100 102h88q-37 -213 -188 -213q-47 0 -150 47q-90 47 -137 47q-75 0 -100 -102h-88q37 213 188 213zM702 1278l-315 -762h629zM332 381l-160 -381h-172l631 1450h143l631 -1450h-172l-160 381h-741z" />
    <glyph glyph-name="Adieresis" unicode="&#xc4;" horiz-adv-x="1404" 
d="M795 1683q0 41 29 73q30 32 75 32t75 -32t30 -73t-30 -73t-75 -31q-45 -1 -75 31t-29 73zM401 1683q0 41 30 73t75 32t75 -32q29 -32 29 -73t-30 -73t-74 -31q-45 -1 -75 31t-30 73zM702 1278l-315 -762h629zM332 381l-160 -381h-172l631 1450h143l631 -1450h-172
l-160 381h-741z" />
    <glyph glyph-name="Aring" unicode="&#xc5;" horiz-adv-x="1404" 
d="M825 1690q0 51 -35 86q-36 34 -88 34t-87 -34t-35 -86q0 -51 36 -86t86 -35q51 0 88 35q35 35 35 86zM899 1690q0 -82 -58 -138q-59 -56 -139 -57q-80 0 -138 56q-58 57 -58 139t58 138t138 56t138 -56t59 -138zM702 1278l-315 -762h629zM332 381l-160 -381h-172
l631 1450h143l631 -1450h-172l-160 381h-741z" />
    <glyph glyph-name="AE" unicode="&#xc6;" horiz-adv-x="1933" 
d="M1047 541v774h-23l-502 -774h525zM1194 1315v-494h565v-135h-565v-551h627v-135h-774v406h-611l-262 -406h-174l944 1450h852v-135h-602z" />
    <glyph glyph-name="Ccedilla" unicode="&#xc7;" horiz-adv-x="1441" 
d="M854 -37q-29 0 -43 4l-68 -90l5 -2q39 14 89 14t96 -42q46 -43 46 -121t-71 -124t-171 -46t-192 49l33 73q70 -36 136 -36q142 1 142 92q0 30 -22 56t-73 26q-50 0 -99 -23l-37 35l106 145q-281 41 -457 249t-176 520t215 529q215 216 541 216q144 0 278 -57t224 -173
l-129 -96q-45 74 -154 132t-219 59q-270 0 -433 -184t-163 -443q0 -260 163 -443q163 -184 435 -184t414 217l121 -86q-75 -117 -219 -191t-318 -75z" />
    <glyph glyph-name="Egrave" unicode="&#xc8;" horiz-adv-x="1214" 
d="M612 1513l-270 295h186l205 -295h-121zM344 686v-551h776v-135h-923v1450h899v-135h-752v-494h703v-135h-703z" />
    <glyph glyph-name="Eacute" unicode="&#xc9;" horiz-adv-x="1214" 
d="M874 1808l-270 -295h-121l205 295h186zM344 686v-551h776v-135h-923v1450h899v-135h-752v-494h703v-135h-703z" />
    <glyph glyph-name="Ecircumflex" unicode="&#xca;" horiz-adv-x="1214" 
d="M690 1808l223 -295h-135l-170 222l-170 -222h-135l223 295h164zM344 686v-551h776v-135h-923v1450h899v-135h-752v-494h703v-135h-703z" />
    <glyph glyph-name="Edieresis" unicode="&#xcb;" horiz-adv-x="1214" 
d="M700 1683q0 41 30 73t75 32t75 -32t30 -73t-30 -73t-75 -31q-45 -1 -75 31t-30 73zM307 1683q0 41 30 73t75 32q44 0 74 -32t30 -73t-30 -73t-74 -31q-44 -1 -75 31q-30 32 -30 73zM344 686v-551h776v-135h-923v1450h899v-135h-752v-494h703v-135h-703z" />
    <glyph glyph-name="Igrave" unicode="&#xcc;" horiz-adv-x="540" 
d="M274 1513l-270 295h186l205 -295h-121zM344 1450v-1450h-147v1450h147z" />
    <glyph glyph-name="Iacute" unicode="&#xcd;" horiz-adv-x="540" 
d="M537 1808l-271 -295h-121l205 295h187zM344 1450v-1450h-147v1450h147z" />
    <glyph glyph-name="Icircumflex" unicode="&#xce;" horiz-adv-x="540" 
d="M352 1808l223 -295h-135l-170 222l-170 -222h-135l223 295h164zM344 1450v-1450h-147v1450h147z" />
    <glyph glyph-name="Idieresis" unicode="&#xcf;" horiz-adv-x="540" 
d="M362 1683q0 41 30 73t75 32t75 -32t30 -73t-30 -73t-75 -31q-45 -1 -75 31t-30 73zM-31 1683q0 41 30 73t75 32q44 0 74 -32t30 -73t-30 -73t-74 -31q-44 -1 -75 31q-30 32 -30 73zM344 1450v-1450h-147v1450h147z" />
    <glyph glyph-name="Eth" unicode="&#xd0;" horiz-adv-x="1517" 
d="M324 711v-576h286q160 0 287 49q235 91 323 322q40 104 40 219q0 236 -158 408q-78 84 -205 133t-287 49h-286v-494h528v-110h-528zM176 0v711h-149v110h149v629h481q289 0 517 -179q110 -87 178 -229t68 -317q0 -174 -68 -316q-124 -260 -422 -363q-133 -46 -273 -46
h-481z" />
    <glyph glyph-name="Ntilde" unicode="&#xd1;" horiz-adv-x="1593" 
d="M653 1751q55 0 153 -47t134 -47q76 0 100 102h88q-37 -213 -188 -213q-47 0 -149 47q-90 47 -138 47q-75 0 -100 -102h-88q37 213 188 213zM1249 221v1229h148v-1450h-185l-864 1241h-4v-1241h-147v1450h184l864 -1229h4z" />
    <glyph glyph-name="Ograve" unicode="&#xd2;" horiz-adv-x="1708" 
d="M858 1513l-270 295h186l205 -295h-121zM1450 725q0 260 -163 443q-163 184 -433 184t-433 -184t-163 -443q0 -260 163 -443q163 -184 433 -184t433 184t163 443zM1610 725q0 -330 -215 -546t-541 -216t-541 216t-215 546t215 546t541 216t541 -216t215 -546z" />
    <glyph glyph-name="Oacute" unicode="&#xd3;" horiz-adv-x="1708" 
d="M1120 1808l-270 -295h-121l205 295h186zM1450 725q0 260 -163 443q-163 184 -433 184t-433 -184t-163 -443q0 -260 163 -443q163 -184 433 -184t433 184t163 443zM1610 725q0 -330 -215 -546t-541 -216t-541 216t-215 546t215 546t541 216t541 -216t215 -546z" />
    <glyph glyph-name="Ocircumflex" unicode="&#xd4;" horiz-adv-x="1708" 
d="M936 1808l223 -295h-135l-170 222l-170 -222h-135l223 295h164zM1450 725q0 260 -163 443q-163 184 -433 184t-433 -184t-163 -443q0 -260 163 -443q163 -184 433 -184t433 184t163 443zM1610 725q0 -330 -215 -546t-541 -216t-541 216t-215 546t215 546t541 216
t541 -216t215 -546z" />
    <glyph glyph-name="Otilde" unicode="&#xd5;" horiz-adv-x="1708" 
d="M711 1751q55 0 153 -47t133 -47q76 0 101 102h88q-37 -213 -189 -213q-47 0 -149 47q-90 47 -137 47q-76 0 -101 -102h-88q37 213 189 213zM1450 725q0 260 -163 443q-163 184 -433 184t-433 -184t-163 -443q0 -260 163 -443q163 -184 433 -184t433 184t163 443z
M1610 725q0 -330 -215 -546t-541 -216t-541 216t-215 546t215 546t541 216t541 -216t215 -546z" />
    <glyph glyph-name="Odieresis" unicode="&#xd6;" horiz-adv-x="1708" 
d="M946 1683q0 41 30 73t75 32t75 -32t29 -73q0 -41 -30 -73q-31 -32 -75 -31q-44 -1 -74 31t-30 73zM553 1683q0 41 30 73q31 32 75 32t74 -32t30 -73t-30 -73t-75 -31q-45 -1 -75 31t-29 73zM1450 725q0 260 -163 443q-163 184 -433 184t-433 -184t-163 -443
q0 -260 163 -443q163 -184 433 -184t433 184t163 443zM1610 725q0 -330 -215 -546t-541 -216t-541 216t-215 546t215 546t541 216t541 -216t215 -546z" />
    <glyph glyph-name="multiply" unicode="&#xd7;" horiz-adv-x="1363" 
d="M356 1034l326 -325l324 325l88 -86l-326 -327l326 -326l-88 -88l-324 325l-326 -325l-86 88l326 326l-326 327z" />
    <glyph glyph-name="Oslash" unicode="&#xd8;" horiz-adv-x="1708" 
d="M258 733q0 -252 139 -422l842 903q-158 137 -385 138q-270 0 -433 -184t-163 -435zM1450 715q0 250 -139 424l-842 -903q158 -137 385 -138q270 0 433 184t163 433zM1610 718q0 -322 -215 -539q-215 -216 -541 -216q-283 0 -483 166l-156 -166l-76 70l156 168
q-197 209 -197 531t215 539q215 216 541 216q279 0 483 -166l156 166l76 -70l-156 -168q197 -209 197 -531z" />
    <glyph glyph-name="Ugrave" unicode="&#xd9;" horiz-adv-x="1404" 
d="M707 1513l-271 295h187l204 -295h-120zM1233 1450v-909q0 -172 -63 -308q-36 -80 -93 -137t-153 -95t-222 -38t-221 38q-309 122 -309 540v909h147v-893q0 -119 30 -208t72 -135t99 -74q86 -42 182 -42t168 35t114 81t72 135t29 208v893h148z" />
    <glyph glyph-name="Uacute" unicode="&#xda;" horiz-adv-x="1404" 
d="M969 1808l-271 -295h-120l204 295h187zM1233 1450v-909q0 -172 -63 -308q-36 -80 -93 -137t-153 -95t-222 -38t-221 38q-309 122 -309 540v909h147v-893q0 -119 30 -208t72 -135t99 -74q86 -42 182 -42t168 35t114 81t72 135t29 208v893h148z" />
    <glyph glyph-name="Ucircumflex" unicode="&#xdb;" horiz-adv-x="1404" 
d="M784 1808l224 -295h-136l-170 222l-170 -222h-135l224 295h163zM1233 1450v-909q0 -172 -63 -308q-36 -80 -93 -137t-153 -95t-222 -38t-221 38q-309 122 -309 540v909h147v-893q0 -119 30 -208t72 -135t99 -74q86 -42 182 -42t168 35t114 81t72 135t29 208v893h148z" />
    <glyph glyph-name="Udieresis" unicode="&#xdc;" horiz-adv-x="1404" 
d="M795 1683q0 41 29 73q30 32 75 32t75 -32t30 -73t-30 -73t-75 -31q-45 -1 -75 31t-29 73zM401 1683q0 41 30 73t75 32t75 -32q29 -32 29 -73t-30 -73t-74 -31q-45 -1 -75 31t-30 73zM1233 1450v-909q0 -172 -63 -308q-36 -80 -93 -137t-153 -95t-222 -38t-221 38
q-309 122 -309 540v909h147v-893q0 -119 30 -208t72 -135t99 -74q86 -42 182 -42t168 35t114 81t72 135t29 208v893h148z" />
    <glyph glyph-name="Yacute" unicode="&#xdd;" horiz-adv-x="1175" 
d="M854 1808l-270 -295h-121l205 295h186zM662 0h-148v625l-543 825h185l432 -684l432 684h184l-542 -825v-625z" />
    <glyph glyph-name="Thorn" unicode="&#xde;" horiz-adv-x="1175" 
d="M344 995v-506h238q193 0 275 63q34 26 56 75q23 49 23 117q0 230 -257 248q-42 3 -97 3h-238zM197 0v1450h147v-320h328q188 0 306 -99t118 -289t-117 -288q-117 -99 -307 -100h-328v-354h-147z" />
    <glyph glyph-name="germandbls" unicode="&#xdf;" horiz-adv-x="1214" 
d="M307 1126v-1126h-135v1114q0 203 101 331t331 128q170 0 281 -97t110 -266q0 -240 -237 -325v-4q172 -15 261 -135t89 -289q0 -217 -134 -349t-351 -133q-68 0 -119 17v117q41 -10 98 -11q164 0 261 96t98 265q0 358 -412 358v123q135 0 217 60t82 186t-72 194
q-72 70 -180 70q-150 0 -220 -98t-69 -226z" />
    <glyph glyph-name="agrave" unicode="&#xe0;" horiz-adv-x="1062" 
d="M537 1155l-271 295h187l204 -295h-120zM762 477h-70q-446 0 -446 -203q0 -88 66 -132t159 -44q141 0 216 87t75 223v69zM694 588h68v24q0 248 -246 248q-168 0 -293 -112l-82 96q135 139 406 139q152 0 251 -87t99 -253v-428q0 -113 16 -215h-131q-12 70 -12 156h-4
q-111 -180 -338 -181q-137 0 -233 74q-97 74 -97 217t107 216t234 90q127 16 255 16z" />
    <glyph glyph-name="aacute" unicode="&#xe1;" horiz-adv-x="1062" 
d="M799 1450l-271 -295h-120l204 295h187zM762 477h-70q-446 0 -446 -203q0 -88 66 -132t159 -44q141 0 216 87t75 223v69zM694 588h68v24q0 248 -246 248q-168 0 -293 -112l-82 96q135 139 406 139q152 0 251 -87t99 -253v-428q0 -113 16 -215h-131q-12 70 -12 156h-4
q-111 -180 -338 -181q-137 0 -233 74q-97 74 -97 217t107 216t234 90q127 16 255 16z" />
    <glyph glyph-name="acircumflex" unicode="&#xe2;" horiz-adv-x="1062" 
d="M614 1450l224 -295h-136l-170 221l-170 -221h-135l224 295h163zM762 477h-70q-446 0 -446 -203q0 -88 66 -132t159 -44q141 0 216 87t75 223v69zM694 588h68v24q0 248 -246 248q-168 0 -293 -112l-82 96q135 139 406 139q152 0 251 -87t99 -253v-428q0 -113 16 -215h-131
q-12 70 -12 156h-4q-111 -180 -338 -181q-137 0 -233 74q-97 74 -97 217t107 216t234 90q127 16 255 16z" />
    <glyph glyph-name="atilde" unicode="&#xe3;" horiz-adv-x="1062" 
d="M389 1393q55 0 153 -47t134 -48q76 0 100 103h88q-37 -213 -188 -213q-47 0 -150 47q-90 47 -137 47q-75 0 -100 -102h-88q37 213 188 213zM762 477h-70q-446 0 -446 -203q0 -88 66 -132t159 -44q141 0 216 87t75 223v69zM694 588h68v24q0 248 -246 248q-168 0 -293 -112
l-82 96q135 139 406 139q152 0 251 -87t99 -253v-428q0 -113 16 -215h-131q-12 70 -12 156h-4q-111 -180 -338 -181q-137 0 -233 74q-97 74 -97 217t107 216t234 90q127 16 255 16z" />
    <glyph glyph-name="adieresis" unicode="&#xe4;" horiz-adv-x="1062" 
d="M625 1325q0 41 29 73q30 32 75 32t75 -32t30 -73t-30 -73t-75 -32t-75 32q-29 32 -29 73zM231 1325q0 41 30 73t75 32t75 -32q29 -32 29 -73t-30 -73t-74 -32q-45 0 -75 32t-30 73zM762 477h-70q-446 0 -446 -203q0 -88 66 -132t159 -44q141 0 216 87t75 223v69zM694 588
h68v24q0 248 -246 248q-168 0 -293 -112l-82 96q135 139 406 139q152 0 251 -87t99 -253v-428q0 -113 16 -215h-131q-12 70 -12 156h-4q-111 -180 -338 -181q-137 0 -233 74q-97 74 -97 217t107 216t234 90q127 16 255 16z" />
    <glyph glyph-name="aring" unicode="&#xe5;" horiz-adv-x="1062" 
d="M655 1331q0 51 -35 86q-36 35 -88 35t-87 -35t-35 -86t36 -86t86 -35q51 0 88 35q35 35 35 86zM729 1331q0 -82 -58 -138q-59 -56 -139 -56t-138 56t-58 138t58 138q58 57 138 57t138 -56t59 -139zM762 477h-70q-446 0 -446 -203q0 -88 66 -132t159 -44q141 0 216 87
t75 223v69zM694 588h68v24q0 248 -246 248q-168 0 -293 -112l-82 96q135 139 406 139q152 0 251 -87t99 -253v-428q0 -113 16 -215h-131q-12 70 -12 156h-4q-111 -180 -338 -181q-137 0 -233 74q-97 74 -97 217t107 216t234 90q127 16 255 16z" />
    <glyph glyph-name="ae" unicode="&#xe6;" horiz-adv-x="1744" 
d="M928 553h583q0 135 -80 221q-81 86 -209 86t-211 -88t-83 -219zM793 442h-281q-104 0 -185 -40t-81 -128t66 -132t159 -44q145 0 234 91q88 91 88 235v18zM1647 442h-719v-18q0 -135 77 -230q77 -96 197 -96t186 41q67 41 119 115l107 -84q-154 -195 -402 -195
q-115 1 -212 57t-146 167q-72 -119 -172 -171t-246 -52t-241 73q-96 74 -97 207q0 297 467 297h228v59q-2 72 -30 124t-69 77q-77 47 -147 47q-170 0 -291 -115l-84 99q150 139 381 139q109 0 196 -52t121 -132q46 84 142 134t200 50q205 -2 320 -135t115 -344v-62z" />
    <glyph glyph-name="ccedilla" unicode="&#xe7;" horiz-adv-x="987" 
d="M246 479q0 -167 98 -275t262 -106q76 0 140 36t100 91l110 -84q-139 -162 -350 -166q-12 0 -14 2l-76 -100l4 -2q40 14 90 14t96 -42q46 -43 46 -121t-71 -124t-171 -46t-193 49l33 73q72 -36 138 -36q142 1 141 92q0 30 -23 56t-73 26t-99 -23l-37 35l115 156
q-190 26 -302 162t-112 345t138 351t360 140q221 -3 360 -165l-110 -84q-35 55 -100 91t-140 36q-164 2 -262 -106t-98 -275z" />
    <glyph glyph-name="egrave" unicode="&#xe8;" 
d="M573 1155l-270 295h186l205 -295h-121zM246 553h647q0 139 -84 223t-221 84q-138 0 -240 -94t-102 -213zM1040 442h-798q12 -145 111 -244t241 -100q100 0 182 48t125 118l105 -86q-160 -203 -412 -203q-213 -1 -354 143q-142 144 -142 360t140 360t347 144
q207 -1 331 -137t124 -341v-62z" />
    <glyph glyph-name="eacute" unicode="&#xe9;" 
d="M836 1450l-271 -295h-121l205 295h187zM246 553h647q0 139 -84 223t-221 84q-138 0 -240 -94t-102 -213zM1040 442h-798q12 -145 111 -244t241 -100q100 0 182 48t125 118l105 -86q-160 -203 -412 -203q-213 -1 -354 143q-142 144 -142 360t140 360t347 144
q207 -1 331 -137t124 -341v-62z" />
    <glyph glyph-name="ecircumflex" unicode="&#xea;" 
d="M651 1450l223 -295h-135l-170 221l-170 -221h-135l223 295h164zM246 553h647q0 139 -84 223t-221 84q-138 0 -240 -94t-102 -213zM1040 442h-798q12 -145 111 -244t241 -100q100 0 182 48t125 118l105 -86q-160 -203 -412 -203q-213 -1 -354 143q-142 144 -142 360
t140 360t347 144q207 -1 331 -137t124 -341v-62z" />
    <glyph glyph-name="edieresis" unicode="&#xeb;" 
d="M662 1325q0 41 29 73q30 32 75 32t75 -32q29 -32 29 -73t-30 -73t-74 -32q-45 0 -75 32q-29 32 -29 73zM268 1325q0 41 30 73t75 32t75 -32t29 -73q0 -41 -30 -73q-31 -32 -75 -32t-74 32t-30 73zM246 553h647q0 139 -84 223t-221 84q-138 0 -240 -94t-102 -213z
M1040 442h-798q12 -145 111 -244t241 -100q100 0 182 48t125 118l105 -86q-160 -203 -412 -203q-213 -1 -354 143q-142 144 -142 360t140 360t347 144q207 -1 331 -137t124 -341v-62z" />
    <glyph glyph-name="igrave" unicode="&#xec;" horiz-adv-x="491" 
d="M250 1155l-270 295h186l205 -295h-121zM313 958v-958h-135v958h135z" />
    <glyph glyph-name="iacute" unicode="&#xed;" horiz-adv-x="491" 
d="M512 1450l-270 -295h-121l205 295h186zM313 958v-958h-135v958h135z" />
    <glyph glyph-name="icircumflex" unicode="&#xee;" horiz-adv-x="491" 
d="M328 1450l223 -295h-135l-170 221l-170 -221h-135l223 295h164zM313 958v-958h-135v958h135z" />
    <glyph glyph-name="idieresis" unicode="&#xef;" horiz-adv-x="491" 
d="M338 1325q0 41 30 73t74 32t75 -32q30 -32 30 -73t-30 -73t-75 -32q-44 0 -74 32t-30 73zM-55 1325q0 41 29 73q30 32 75 32t75 -32t30 -73t-30 -73t-75 -32t-75 32q-29 32 -29 73zM313 958v-958h-135v958h135z" />
    <glyph glyph-name="eth" unicode="&#xf0;" horiz-adv-x="1214" 
d="M606 983q164 0 307 -119l5 4q-129 244 -326 418l-225 -117l-74 74l221 115q-111 102 -195 162l123 75q141 -117 199 -170l209 109l82 -72l-211 -110q197 -197 297 -398t99 -419t-107 -378q-54 -83 -158 -132t-246 -50q-221 -1 -364 143t-144 361q0 217 144 361t364 143z
M246 479q0 -165 99 -273t262 -108t262 109t99 273t-98 272q-100 108 -263 108t-262 -108t-99 -273z" />
    <glyph glyph-name="ntilde" unicode="&#xf1;" 
d="M426 1393q55 0 153 -47t134 -48q76 0 100 103h88q-37 -213 -188 -213q-47 0 -150 47q-90 47 -137 47q-75 0 -100 -102h-88q37 213 188 213zM608 983q180 0 270 -97t91 -278v-608h-135v530q0 168 -58 249t-203 81q-51 0 -106 -26t-91 -62t-65 -108q-29 -74 -28 -172v-492
h-136v748q0 36 -10 210h139q6 -51 7 -153h4q45 78 135 128t186 50z" />
    <glyph glyph-name="ograve" unicode="&#xf2;" horiz-adv-x="1214" 
d="M612 1155l-270 295h186l205 -295h-121zM969 479q1 164 -99 273q-100 108 -263 108t-262 -108t-99 -273t99 -273t262 -108t263 108t99 273zM1116 479q0 -217 -143 -360t-365 -143t-366 142q-143 144 -144 361q0 217 144 361t365 143q222 0 366 -143q143 -144 143 -361z
" />
    <glyph glyph-name="oacute" unicode="&#xf3;" horiz-adv-x="1214" 
d="M874 1450l-270 -295h-121l205 295h186zM969 479q1 164 -99 273q-100 108 -263 108t-262 -108t-99 -273t99 -273t262 -108t263 108t99 273zM1116 479q0 -217 -143 -360t-365 -143t-366 142q-143 144 -144 361q0 217 144 361t365 143q222 0 366 -143q143 -144 143 -361z
" />
    <glyph glyph-name="ocircumflex" unicode="&#xf4;" horiz-adv-x="1214" 
d="M690 1450l223 -295h-135l-170 221l-170 -221h-135l223 295h164zM969 479q1 164 -99 273q-100 108 -263 108t-262 -108t-99 -273t99 -273t262 -108t263 108t99 273zM1116 479q0 -217 -143 -360t-365 -143t-366 142q-143 144 -144 361q0 217 144 361t365 143
q222 0 366 -143q143 -144 143 -361z" />
    <glyph glyph-name="otilde" unicode="&#xf5;" horiz-adv-x="1214" 
d="M465 1393q55 0 153 -47t134 -48q76 0 100 103h88q-37 -213 -188 -213q-47 0 -150 47q-90 47 -137 47q-75 0 -100 -102h-89q37 213 189 213zM969 479q1 164 -99 273q-100 108 -263 108t-262 -108t-99 -273t99 -273t262 -108t263 108t99 273zM1116 479q0 -217 -143 -360
t-365 -143t-366 142q-143 144 -144 361q0 217 144 361t365 143q222 0 366 -143q143 -144 143 -361z" />
    <glyph glyph-name="odieresis" unicode="&#xf6;" horiz-adv-x="1214" 
d="M700 1325q0 41 30 73t75 32t75 -32t30 -73t-30 -73t-75 -32t-75 32t-30 73zM307 1325q0 41 30 73t75 32q44 0 74 -32t30 -73t-30 -73t-74 -32t-75 32q-30 32 -30 73zM969 479q1 164 -99 273q-100 108 -263 108t-262 -108t-99 -273t99 -273t262 -108t263 108t99 273z
M1116 479q0 -217 -143 -360t-365 -143t-366 142q-143 144 -144 361q0 217 144 361t365 143q222 0 366 -143q143 -144 143 -361z" />
    <glyph glyph-name="divide" unicode="&#xf7;" horiz-adv-x="1363" 
d="M793 289q0 -45 -32 -78t-79 -33t-79 33t-32 78t32 78t79 33t79 -34q32 -32 32 -77zM793 952q0 -45 -32 -78q-32 -32 -79 -32t-79 32t-32 78q0 45 32 78t79 33t79 -33t32 -78zM1204 682v-123h-1044v123h1044z" />
    <glyph glyph-name="oslash" unicode="&#xf8;" horiz-adv-x="1214" 
d="M1116 470q0 -208 -143 -351t-349 -143t-339 106l-138 -139l-65 63l135 139q-119 137 -119 344t144 351t346 143q204 0 344 -106l135 139l66 -64l-136 -139q119 -135 119 -343zM595 860q-151 0 -250 -108t-99 -260t69 -246l523 534q-92 80 -243 80zM620 98q150 0 249 109
t99 257t-69 249l-522 -537q93 -78 243 -78z" />
    <glyph glyph-name="ugrave" unicode="&#xf9;" 
d="M573 1155l-270 295h186l205 -295h-121zM834 154h-5q-45 -78 -135 -128t-186 -51q-180 -1 -270 97t-91 278v608h136v-530q0 -168 57 -249t203 -81q51 0 106 26t91 62t65 109q29 74 29 172v491h135v-747q0 -37 10 -211h-139q-6 51 -6 154z" />
    <glyph glyph-name="uacute" unicode="&#xfa;" 
d="M836 1450l-271 -295h-121l205 295h187zM834 154h-5q-45 -78 -135 -128t-186 -51q-180 -1 -270 97t-91 278v608h136v-530q0 -168 57 -249t203 -81q51 0 106 26t91 62t65 109q29 74 29 172v491h135v-747q0 -37 10 -211h-139q-6 51 -6 154z" />
    <glyph glyph-name="ucircumflex" unicode="&#xfb;" 
d="M651 1450l223 -295h-135l-170 221l-170 -221h-135l223 295h164zM834 154h-5q-45 -78 -135 -128t-186 -51q-180 -1 -270 97t-91 278v608h136v-530q0 -168 57 -249t203 -81q51 0 106 26t91 62t65 109q29 74 29 172v491h135v-747q0 -37 10 -211h-139q-6 51 -6 154z" />
    <glyph glyph-name="udieresis" unicode="&#xfc;" 
d="M662 1325q0 41 29 73q30 32 75 32t75 -32q29 -32 29 -73t-30 -73t-74 -32q-45 0 -75 32q-29 32 -29 73zM268 1325q0 41 30 73t75 32t75 -32t29 -73q0 -41 -30 -73q-31 -32 -75 -32t-74 32t-30 73zM834 154h-5q-45 -78 -135 -128t-186 -51q-180 -1 -270 97t-91 278v608
h136v-530q0 -168 57 -249t203 -81q51 0 106 26t91 62t65 109q29 74 29 172v491h135v-747q0 -37 10 -211h-139q-6 51 -6 154z" />
    <glyph glyph-name="yacute" unicode="&#xfd;" horiz-adv-x="987" 
d="M760 1450l-271 -295h-120l204 295h187zM176 -369q64 0 106 43t74 129l70 185l-393 970h170l301 -792l293 792h164l-480 -1208q-93 -242 -281 -242q-98 0 -145 15l15 131q42 -23 106 -23z" />
    <glyph glyph-name="thorn" unicode="&#xfe;" horiz-adv-x="1251" 
d="M1022 479q0 164 -99 273q-99 108 -265 108t-274 -110t-108 -272q0 -164 106 -272t273 -108t267 108t100 273zM147 -467v2015h136v-768h4q147 203 371 203t368 -143q144 -142 143 -360q0 -218 -143 -361t-367 -144q-104 -1 -207 47t-165 138h-4v-627h-136z" />
    <glyph glyph-name="ydieresis" unicode="&#xff;" horiz-adv-x="987" 
d="M586 1325q0 41 29 73q30 32 75 32t75 -32t30 -73t-30 -73t-75 -32t-75 32q-29 32 -29 73zM193 1325q0 41 29 73q30 32 75 32t75 -32t30 -73t-30 -73t-75 -32t-75 32q-29 32 -29 73zM176 -369q64 0 106 43t74 129l70 185l-393 970h170l301 -792l293 792h164l-480 -1208
q-93 -242 -281 -242q-98 0 -145 15l15 131q42 -23 106 -23z" />
    <glyph glyph-name="dotlessi" unicode="&#x131;" horiz-adv-x="491" 
d="M313 958v-958h-135v958h135z" />
    <glyph glyph-name="Lslash" unicode="&#x141;" horiz-adv-x="1024" 
d="M344 1450v-709l442 381v-143l-442 -381v-463h676v-135h-823v471l-168 -143v143l168 143v836h147z" />
    <glyph glyph-name="lslash" unicode="&#x142;" horiz-adv-x="491" 
d="M313 1548v-610l166 172v-149l-166 -170v-791h-135v649l-166 -170v150l166 168v751h135z" />
    <glyph glyph-name="OE" unicode="&#x152;" horiz-adv-x="1933" 
d="M1065 135v1180h-117q-293 0 -476 -156t-183 -438q0 -144 69 -280q43 -85 109 -151q65 -66 183 -110q118 -45 270 -45h145zM1212 1315v-494h578v-135h-578v-551h627v-135h-915q-207 0 -368 69t-250 179q-177 220 -177 479q0 176 69 317q128 262 433 361q139 45 289 45h895
v-135h-603z" />
    <glyph glyph-name="oe" unicode="&#x153;" horiz-adv-x="1888" 
d="M1071 553h584q0 135 -81 221t-209 86t-211 -88t-83 -219zM924 479q0 162 -90 272q-90 109 -244 109t-249 -108q-95 -109 -95 -273q0 -165 95 -273t249 -108t244 110t90 271zM1790 442h-719v-18q0 -135 77 -230q77 -96 197 -96q121 0 187 41t119 115l106 -84
q-154 -195 -401 -195q-121 -1 -219 55t-154 163q-73 -109 -185 -163t-214 -55q-218 1 -352 143t-134 359t140 361t346 145q279 0 405 -215q72 109 158 162t209 53q206 -2 320 -135t114 -344v-62z" />
    <glyph glyph-name="Scaron" unicode="&#x160;" 
d="M874 1808l-223 -295h-164l-223 295h135l170 -221l170 221h135zM293 1100q0 -116 77 -181q78 -65 186 -99t218 -74t186 -130t76 -233q0 -188 -146 -304t-331 -116q-299 0 -457 215l134 96q102 -176 329 -176q119 0 215 72t96 180t-54 170q-56 62 -138 91q-238 81 -358 134
q-82 37 -138 121q-55 84 -55 209q0 199 138 305t331 107q256 0 410 -176l-129 -101q-96 141 -281 142q-125 0 -217 -68t-92 -184z" />
    <glyph glyph-name="scaron" unicode="&#x161;" horiz-adv-x="872" 
d="M741 1450l-223 -295h-164l-223 295h135l170 -221l170 221h135zM449 860q-79 0 -139 -36t-60 -103t44 -100t144 -56l137 -33q102 -24 168 -94t66 -168q0 -147 -109 -221t-264 -74q-244 0 -368 187l116 80q92 -143 252 -144q92 0 159 41t67 113t-48 104t-135 56l-131 30
q-246 61 -246 252q0 141 104 215t251 74q235 0 319 -172l-121 -80q-68 129 -206 129z" />
    <glyph glyph-name="Ydieresis" unicode="&#x178;" horiz-adv-x="1175" 
d="M680 1683q0 41 30 73t74 32t75 -32q30 -32 30 -73t-30 -73t-75 -31q-44 -1 -74 31t-30 73zM287 1683q0 41 29 73q30 32 75 32t75 -32t30 -73t-30 -73t-75 -31q-45 -1 -75 31t-29 73zM662 0h-148v625l-543 825h185l432 -684l432 684h184l-542 -825v-625z" />
    <glyph glyph-name="Zcaron" unicode="&#x17d;" 
d="M874 1808l-223 -295h-164l-223 295h135l170 -221l170 221h135zM1079 1450v-123l-846 -1192h859v-135h-1045v123l848 1192h-836v135h1020z" />
    <glyph glyph-name="zcaron" unicode="&#x17e;" horiz-adv-x="872" 
d="M741 1450l-223 -295h-164l-223 295h135l170 -221l170 221h135zM805 958v-98l-561 -737h581v-123h-778v98l561 738h-532v122h729z" />
    <glyph glyph-name="florin" unicode="&#x192;" 
d="M866 858v-110h-243l-138 -721q-27 -137 -97 -225q-71 -87 -220 -87q-102 0 -168 49l66 99q44 -25 118 -25t110 58t54 159l129 693h-221v110h244l55 295q59 322 311 322q106 0 195 -60l-70 -98q-59 35 -117 35q-145 0 -184 -238l-45 -256h221z" />
    <glyph glyph-name="circumflex" unicode="&#x2c6;" horiz-adv-x="491" 
d="M328 1450l223 -295h-135l-170 221l-170 -221h-135l223 295h164z" />
    <glyph glyph-name="caron" unicode="&#x2c7;" horiz-adv-x="491" 
d="M551 1450l-223 -295h-164l-223 295h135l170 -221l170 221h135z" />
    <glyph glyph-name="uni02C9" unicode="&#x2c9;" horiz-adv-x="491" 
d="M522 1339v-110h-553v110h553z" />
    <glyph glyph-name="breve" unicode="&#x2d8;" horiz-adv-x="491" 
d="M246 1290q80 0 140 41t71 119h90q-8 -125 -91 -198q-83 -72 -210 -72t-210 72t-91 198h90q12 -78 71 -119q60 -41 140 -41z" />
    <glyph glyph-name="dotaccent" unicode="&#x2d9;" horiz-adv-x="491" 
d="M141 1346q0 40 30 72t75 32t75 -32q29 -32 29 -72t-30 -73q-30 -32 -74 -32q-45 0 -75 32t-30 73z" />
    <glyph glyph-name="ring" unicode="&#x2da;" horiz-adv-x="491" 
d="M369 1331q0 51 -36 86t-87 35t-87 -35t-36 -86t36 -86t87 -35t87 35t36 86zM442 1331q0 -82 -58 -138t-138 -56t-138 56t-59 138q1 82 59 138q58 57 138 57t138 -56t58 -139z" />
    <glyph glyph-name="ogonek" unicode="&#x2db;" horiz-adv-x="491" 
d="M184 -230q0 -50 30 -76q30 -28 83 -28t94 45l39 -82q-78 -74 -184 -73q-74 0 -129 49t-56 125q0 135 183 282h98q-84 -84 -121 -138t-37 -104z" />
    <glyph glyph-name="tilde" unicode="&#x2dc;" horiz-adv-x="491" 
d="M102 1393q56 0 154 -47t133 -48q76 0 100 103h89q-37 -213 -189 -213q-47 0 -149 47q-90 47 -138 47q-75 0 -100 -102h-88q37 213 188 213z" />
    <glyph glyph-name="hungarumlaut" unicode="&#x2dd;" horiz-adv-x="491" 
d="M647 1450l-270 -295h-121l205 295h186zM238 1450l-273 -295h-121l207 295h187z" />
    <glyph glyph-name="uni03A9" unicode="&#x3a9;" horiz-adv-x="1478" 
d="M416 113v6q-123 111 -203 279t-80 374q0 305 175 500q175 194 438 194t431 -200q167 -201 166 -484q-1 -215 -83 -389t-201 -274v-6h313v-113h-483v84q135 90 226 265t91 409q0 143 -50 275t-159 225t-254 94q-213 0 -343 -172t-130 -410t94 -418q94 -182 224 -268v-84
h-484v113h312z" />
    <glyph glyph-name="uni03BC" unicode="&#x3bc;" 
d="M147 -467v1425h136v-530q0 -180 57 -255q58 -75 194 -75t218 98t82 271v491h135v-747q0 -37 10 -211h-145v156h-5q-45 -74 -137 -127t-184 -54q-141 0 -225 60v-502h-136z" />
    <glyph glyph-name="pi" unicode="&#x3c0;" horiz-adv-x="1159" 
d="M934 954v-651q0 -188 31 -303h-131q-35 61 -35 289v665h-387q-10 -229 -54 -524t-100 -430h-133q57 158 100 442t51 512q-164 0 -233 -26l-23 92q88 53 289 53h809l-14 -119h-170z" />
    <glyph glyph-name="uni2010" unicode="&#x2010;" horiz-adv-x="681" 
d="M604 559v-135h-526v135h526z" />
    <glyph glyph-name="endash" unicode="&#x2013;" horiz-adv-x="1024" 
d="M1024 559v-135h-1024v135h1024z" />
    <glyph glyph-name="emdash" unicode="&#x2014;" horiz-adv-x="2048" 
d="M2048 559v-135h-2048v135h2048z" />
    <glyph glyph-name="quoteleft" unicode="&#x2018;" horiz-adv-x="532" 
d="M115 969l166 481h137l-137 -481h-166z" />
    <glyph glyph-name="quoteright" unicode="&#x2019;" horiz-adv-x="532" 
d="M418 1450l-166 -481h-137l137 481h166z" />
    <glyph glyph-name="quotesinglbase" unicode="&#x201a;" horiz-adv-x="532" 
d="M418 195l-166 -482h-137l137 482h166z" />
    <glyph glyph-name="quotedblleft" unicode="&#x201c;" horiz-adv-x="1062" 
d="M565 969l166 481h137l-137 -481h-166zM195 969l165 481h138l-138 -481h-165z" />
    <glyph glyph-name="quotedblright" unicode="&#x201d;" horiz-adv-x="1062" 
d="M498 1450l-166 -481h-137l137 481h166zM868 1450l-166 -481h-137l137 481h166z" />
    <glyph glyph-name="quotedblbase" unicode="&#x201e;" horiz-adv-x="1062" 
d="M498 195l-166 -482h-137l137 482h166zM868 195l-166 -482h-137l137 482h166z" />
    <glyph glyph-name="dagger" unicode="&#x2020;" 
d="M637 1450v-418h418v-123h-418v-1167h-135v1167h-418v123h418v418h135z" />
    <glyph glyph-name="daggerdbl" unicode="&#x2021;" 
d="M637 1450v-393h399v-123h-399v-676h399v-123h-399v-393h-135v393h-400v123h400v676h-400v123h400v393h135z" />
    <glyph glyph-name="bullet" unicode="&#x2022;" horiz-adv-x="1024" 
d="M150 725q0 152 105 257t257 105t257 -105t105 -257t-105 -257q-105 -106 -257 -106t-257 106t-105 257z" />
    <glyph glyph-name="ellipsis" unicode="&#x2026;" horiz-adv-x="2048" 
d="M1817 98q0 -45 -32 -78q-32 -32 -79 -32t-79 32t-32 78q0 45 32 78t79 33t79 -33t32 -78zM1135 98q0 -45 -32 -78q-32 -32 -79 -32t-79 32t-32 78q0 45 32 78t79 33t79 -33t32 -78zM453 98q0 -45 -32 -78q-32 -32 -79 -32t-79 32t-32 78q0 45 32 78t79 33t79 -33t32 -78z
" />
    <glyph glyph-name="perthousand" unicode="&#x2030;" horiz-adv-x="2048" 
d="M1178 1458l-922 -1521l-106 55l923 1521zM1886 291q0 84 -59 144q-59 61 -143 61t-144 -60q-59 -60 -59 -145t59 -145t143 -60t144 60q59 61 59 145zM1997 291q0 -129 -92 -222q-91 -93 -221 -93t-222 92q-92 94 -92 223t92 222t221 93t221 -93t93 -222zM1169 291
q0 84 -59 144q-59 61 -143 61q-83 0 -143 -60t-60 -145t59 -145t143 -60t144 60q59 60 59 145zM1280 291q0 -129 -92 -222t-221 -93t-221 92q-92 94 -93 223q0 129 92 222q91 93 221 93t222 -93t92 -222zM567 1159q0 85 -59 145t-143 60q-83 0 -143 -60t-60 -144t59 -145
t143 -61t144 60q59 60 59 145zM678 1159q0 -129 -92 -222t-221 -93t-222 93q-92 93 -92 222t92 222q91 93 221 93t222 -92q92 -94 92 -223z" />
    <glyph glyph-name="guilsinglleft" unicode="&#x2039;" horiz-adv-x="645" 
d="M268 492l236 -361l-96 -68l-287 429l287 428l96 -68z" />
    <glyph glyph-name="guilsinglright" unicode="&#x203a;" horiz-adv-x="645" 
d="M377 492l-236 360l97 68l286 -428l-286 -429l-97 68z" />
    <glyph glyph-name="fraction" unicode="&#x2044;" horiz-adv-x="344" 
d="M-236 -66l-106 66l924 1516l104 -64z" />
    <glyph glyph-name="Euro" unicode="&#x20ac;" 
d="M743 1346q-307 0 -381 -373h580l-35 -115h-563q-6 -74 -6 -132t4 -136h492l-37 -113h-443q66 -379 348 -379q80 0 150 37t106 94l97 -69q-55 -90 -155 -137t-216 -48q-211 1 -330 135t-153 367h-154l41 113h100q-4 78 -4 138t6 130h-141l41 115h117q49 250 191 376
t347 126q83 -1 173 -25t143 -57l-43 -127q-109 80 -275 80z" />
    <glyph glyph-name="afii61289" unicode="&#x2113;" horiz-adv-x="985" 
d="M354 1114v-477q330 358 330 623q0 229 -154 229q-70 0 -123 -91t-53 -284zM561 -14q-164 0 -247 110t-89 279v28q-65 -56 -119 -98l-45 80q147 129 164 143v574q0 260 89 376t214 116q124 0 188 -93q64 -92 64 -237q0 -346 -426 -766v-66q2 -172 68 -255t161 -83t167 60
t118 143l68 -57q-135 -254 -375 -254z" />
    <glyph glyph-name="trademark" unicode="&#x2122;" horiz-adv-x="2048" 
d="M1901 1450v-844h-123v709h-4l-285 -709h-80l-285 709h-4v-709h-123v844h191l264 -647l264 647h185zM821 1450v-111h-272v-733h-123v733h-279v111h674z" />
    <glyph glyph-name="Omega" unicode="&#x2126;" horiz-adv-x="1478" 
d="M416 113v6q-123 111 -203 279t-80 374q0 305 175 500q175 194 438 194t431 -200q167 -201 166 -484q-1 -215 -83 -389t-201 -274v-6h313v-113h-483v84q135 90 226 265t91 409q0 143 -50 275t-159 225t-254 94q-213 0 -343 -172t-130 -410t94 -418q94 -182 224 -268v-84
h-484v113h312z" />
    <glyph glyph-name="estimated" unicode="&#x212e;" horiz-adv-x="1808" 
d="M1430 758v409q0 29 -21 50q-217 213 -508 213t-506 -220q-18 -23 -18 -51v-401q0 -14 10 -15h1034q9 1 9 15zM1735 705h-1348q-10 0 -10 -11v-407q0 -25 16 -47q215 -221 510 -222q158 0 297 67t240 181h121q-115 -133 -289 -211t-371 -78q-344 -1 -588 219t-243 529
q0 309 243 529q244 220 589 220t589 -218q244 -220 244 -531v-20z" />
    <glyph glyph-name="partialdiff" unicode="&#x2202;" horiz-adv-x="1112" 
d="M489 98h3q143 0 241 158t119 385q-27 84 -111 159q-83 74 -205 74t-217 -121q-94 -122 -94 -287q-1 -164 71 -266t193 -102zM504 1620q202 0 352 -202t150 -580t-138 -616q-138 -239 -391 -238q-125 0 -216 70q-173 134 -173 405q0 233 129 379t307 147q127 1 218 -67
t126 -136h2q2 27 2 95q0 279 -114 453t-270 175q-156 0 -279 -100l-49 100q141 115 344 115z" />
    <glyph glyph-name="uni2206" unicode="&#x2206;" horiz-adv-x="1323" 
d="M203 113h909l-309 821q-14 47 -70 190q-55 143 -69 197h-9q-12 -43 -61 -176t-64 -176zM66 0v98l522 1387h155l517 -1387v-98h-1194z" />
    <glyph glyph-name="product" unicode="&#x220f;" horiz-adv-x="1425" 
d="M1370 1319h-227v-1518h-133v1518h-596v-1518h-133v1518h-228v125h1317v-125z" />
    <glyph glyph-name="summation" unicode="&#x2211;" horiz-adv-x="1132" 
d="M1085 -199h-1038v93l561 724l-536 730v96h983v-119h-793v-6l502 -680l-541 -702v-7h862v-129z" />
    <glyph glyph-name="minus" unicode="&#x2212;" horiz-adv-x="1363" 
d="M1204 682v-123h-1044v123h1044z" />
    <glyph glyph-name="uni2215" unicode="&#x2215;" horiz-adv-x="344" 
d="M-236 -66l-106 66l924 1516l104 -64z" />
    <glyph glyph-name="uni2219" unicode="&#x2219;" horiz-adv-x="569" 
d="M395 643q1 -45 -31 -78t-79 -33t-79 33t-32 78t32 78t79 33t79 -33t31 -78z" />
    <glyph glyph-name="radical" unicode="&#x221a;" horiz-adv-x="1167" 
d="M1163 1714l-454 -2027h-123l-334 968l-152 -57l-30 86l270 104l268 -788q23 -84 35 -145h4q6 49 15 89q8 40 10 56l389 1714h102z" />
    <glyph glyph-name="infinity" unicode="&#x221e;" horiz-adv-x="1597" 
d="M1184 827h-2q-50 1 -104 -29t-83 -55t-82 -81t-59 -64q120 -129 188 -180t153 -51q85 1 142 69t57 168t-58 161q-60 62 -152 62zM422 367h4q93 0 180 79q57 50 97 94q41 44 47 50q-147 184 -240 219q-47 18 -100 18q-96 0 -153 -69q-56 -70 -56 -166t61 -161
q62 -64 160 -64zM1491 602v-2q0 -143 -92 -233q-93 -91 -203 -91t-194 58t-201 190q-70 -80 -115 -123t-122 -84t-154 -41q-125 0 -215 92q-91 92 -91 228q0 135 92 226t212 91q120 -1 209 -65t190 -182q123 135 180 176q98 72 219 72t203 -88q82 -87 82 -224z" />
    <glyph glyph-name="integral" unicode="&#x222b;" horiz-adv-x="720" 
d="M287 1249q0 322 106 434q76 78 187 78q61 1 108 -28l-24 -97q-31 23 -85 23q-168 0 -167 -422q0 -160 14 -520t14 -529q0 -514 -284 -516q-76 0 -131 33l26 100q55 -25 94 -24q170 0 168 409q0 168 -13 534t-13 525z" />
    <glyph glyph-name="approxequal" unicode="&#x2248;" horiz-adv-x="1159" 
d="M360 453q-66 0 -110 -40t-92 -116l-62 49q98 195 281 195q65 -1 108 -21q45 -20 79 -40t42 -23q8 -5 30 -17t29 -15t25 -12t42 -19q26 -10 80 -11q54 0 100 37t92 117l57 -50q-96 -193 -262 -192q-77 1 -128 27t-148 78t-163 53zM363 797q-67 0 -113 -40t-92 -114l-62 47
q98 195 281 195q69 1 108 -19t79 -43t46 -25t28 -16q22 -12 29 -15t24 -12q53 -28 125 -28q99 0 188 156l57 -52q-96 -193 -262 -192q-77 1 -128 27t-146 78t-162 53z" />
    <glyph glyph-name="notequal" unicode="&#x2260;" horiz-adv-x="1159" 
d="M1053 831v-92h-367l-141 -305h508v-90h-545l-113 -244l-73 35l98 209h-314v90h353l139 305h-492v92h529l110 240l74 -35l-94 -205h328z" />
    <glyph glyph-name="lessequal" unicode="&#x2264;" horiz-adv-x="1159" 
d="M1053 18h-947v95h947v-95zM1049 199l-930 465v96l928 465v-111l-828 -399v-4l830 -402v-110z" />
    <glyph glyph-name="greaterequal" unicode="&#x2265;" horiz-adv-x="1159" 
d="M1053 18h-947v95h947v-95zM119 1225l930 -465v-96l-930 -465v110l829 400v4l-829 401v111z" />
    <glyph glyph-name="lozenge" unicode="&#x25ca;" horiz-adv-x="1169" 
d="M926 717l-303 594q-25 59 -39 106h-4q-23 -68 -41 -106l-299 -586l305 -598q29 -61 35 -104h8q14 59 37 102zM1053 721l-416 -813h-111l-411 813l415 815h111z" />
    <glyph glyph-name="fi" unicode="&#xfb01;" horiz-adv-x="1099" 
d="M952 1327q0 -41 -30 -70t-68 -29q-39 0 -69 30q-30 28 -29 69q0 41 29 70q30 29 69 29t69 -29q29 -29 29 -70zM922 958v-958h-136v958h136zM594 958v-122h-227v-836h-136v836h-202v122h202v263q0 352 322 352q49 0 117 -14l-25 -123q-57 14 -104 14q-103 0 -139 -62
t-35 -184v-246h227z" />
    <glyph glyph-name="fl" unicode="&#xfb02;" horiz-adv-x="1099" 
d="M922 1548v-1548h-136v1548h136zM594 958v-122h-227v-836h-136v836h-202v122h202v263q0 352 322 352q49 0 117 -14l-25 -123q-57 14 -104 14q-103 0 -139 -62t-35 -184v-246h227z" />
    <glyph glyph-name="a.superior" horiz-adv-x="690" 
d="M467 1145h-27q-254 0 -254 -101q0 -37 36 -57t85 -20q160 0 160 178zM279 868q-90 0 -153 44q-62 44 -62 135q-1 196 358 196h45v17q0 117 -131 116q-104 0 -182 -61l-66 76q88 84 234 84q146 -1 207 -59q60 -58 61 -126v-280q0 -43 10 -129h-111l-6 73h-2
q-59 -86 -202 -86z" />
    <glyph glyph-name="o.superior" horiz-adv-x="788" 
d="M602 1170q0 86 -59 146t-149 60t-149 -60t-59 -146t58 -144q58 -59 149 -59q90 0 150 59q59 59 59 144zM725 1171q0 -131 -93 -217q-94 -86 -238 -86t-237 86t-93 217t92 217q94 86 238 87q144 0 238 -86q93 -87 93 -218z" />
    <glyph glyph-name="one.superior" horiz-adv-x="739" 
d="M461 1462v-870h-123v747l-168 -137l-59 78l239 182h111z" />
    <glyph glyph-name="two.superior" horiz-adv-x="739" 
d="M670 702v-110h-600v117l350 335q119 115 119 197q1 49 -49 86t-112 37t-110 -33q-49 -33 -65 -82l-115 19q20 98 99 152t195 54t198 -58q82 -60 82 -167q0 -61 -32 -121t-64 -95q-32 -34 -95 -91l-266 -240h465z" />
    <glyph glyph-name="three.superior" horiz-adv-x="739" 
d="M176 817q52 -127 190 -127q72 0 127 45q54 45 54 101t-49 104t-172 49h-60v111h49q88 0 147 36q58 36 58 96t-42 96t-103 36t-101 -20t-77 -74l-97 67q94 137 271 138q115 -1 193 -61t79 -165q0 -70 -47 -125t-121 -77v-5q92 -14 143 -72t52 -141q0 -117 -86 -183
t-215 -66q-223 0 -299 176z" />
    </font>
</defs>
</svg>
