<?xml version="1.0" standalone="no"?>
<!DOCTYPE svg PUBLIC "-//W3C//DTD SVG 1.1//EN" "http://www.w3.org/Graphics/SVG/1.1/DTD/svg11.dtd" >
<svg xmlns="http://www.w3.org/2000/svg">
<metadata>
Created by FontPrep 20130207 at Mon Apr 27 13:26:22 2015
 By Martin
(c) 1989, 1995, 2002 Adobe Systems Incorporated. All rights reserved.
</metadata>
<defs>
<font id="f6864133f6203c14080d854a2e6ba855" horiz-adv-x='1024' >
  <font-face 
    font-family="AvenirLTStd-LightOblique"
    font-weight="300"
    font-style="oblique"
    font-stretch="normal"
    units-per-em="2048"
    panose-1="2 11 4 2 2 2 3 2 2 4"
    ascent="1548"
    descent="-500"
    x-height="946"
    cap-height="1450"
    bbox="-344 -567 2128 1908"
    underline-thickness="102"
    underline-position="-102"
    slope="-8"
    unicode-range="U+0020-FB02"
  />
<missing-glyph horiz-adv-x="1224" 
d="M303 1239v-1044l348 522zM365 102h696l-348 523zM774 717l348 -522v1044zM713 809l348 522h-696zM201 0v1434h1024v-1434h-1024z" />
    <glyph glyph-name="f_i" unicode="fi" horiz-adv-x="1062" 
d="M724 1573q98 0 150 -25l-38 -106q-39 20 -109 20q-164 0 -201 -252l-37 -264h222l-17 -110h-221l-117 -836h-123l117 836h-196l16 110h197l43 309q25 166 120 242q96 76 194 76zM1016 1413q40 0 62 -27q22 -28 17 -66t-36 -65t-70 -27t-61 28q-22 26 -17 65q4 39 35 65
t70 27zM756 0l133 946h123l-133 -946h-123z" />
    <glyph glyph-name="f_l" unicode="fl" horiz-adv-x="1062" 
d="M756 0l217 1548h123l-217 -1548h-123zM724 1573q98 0 150 -25l-38 -106q-39 20 -109 20q-164 0 -201 -252l-37 -264h222l-17 -110h-221l-117 -836h-123l117 836h-196l16 110h197l43 309q25 166 120 242q96 76 194 76z" />
    <glyph glyph-name=".notdef" horiz-adv-x="1224" 
d="M303 1239v-1044l348 522zM365 102h696l-348 523zM774 717l348 -522v1044zM713 809l348 522h-696zM201 0v1434h1024v-1434h-1024z" />
    <glyph glyph-name=".null" horiz-adv-x="0" 
 />
    <glyph glyph-name="nonmarkingreturn" horiz-adv-x="681" 
 />
    <glyph glyph-name="space" unicode=" " horiz-adv-x="532" 
 />
    <glyph glyph-name="exclam" unicode="!" horiz-adv-x="757" 
d="M293 86q6 41 39 70q33 28 74 28q42 0 66 -28t18 -70q-6 -41 -40 -70q-32 -28 -73 -28t-66 28q-24 29 -18 70zM645 1450l-151 -1069h-123l151 1069h123z" />
    <glyph glyph-name="quotedbl" unicode="&#x22;" 
d="M750 983l67 467h123l-68 -467h-122zM467 983l68 467h122l-67 -467h-123z" />
    <glyph glyph-name="numbersign" unicode="#" 
d="M733 567l88 320h-282l-88 -320h282zM186 0l127 469h-221l14 98h236l90 320h-221l14 98h236l127 465h106l-129 -465h285l129 465h106l-129 -465h222l-15 -98h-235l-88 -320h221l-14 -98h-236l-127 -469h-106l127 469h-285l-127 -469h-107z" />
    <glyph glyph-name="dollar" unicode="$" 
d="M455 -162l18 137q-115 1 -219 57t-160 158l129 80q37 -82 108 -131t158 -53l84 594l-139 53q-68 27 -112 73t-58 93q-33 109 -16 178q23 162 154 273q132 111 282 125l21 137h98l-21 -137q250 0 355 -183l-125 -82q-37 72 -103 113t-141 41l-82 -578l137 -49
q105 -39 167 -128t40 -247t-158 -268q-135 -109 -301 -119l-18 -137h-98zM592 819l78 545q-106 -18 -188 -93t-97 -181q-14 -106 31 -163q45 -58 143 -96zM666 643l-78 -557q117 4 206 87t105 206q25 162 -149 231z" />
    <glyph glyph-name="percent" unicode="%" horiz-adv-x="1669" 
d="M322 -12l1148 1532l86 -58l-1150 -1532zM1251 86q100 0 181 70q80 70 94 172t-46 172t-160 70t-182 -70t-96 -172t48 -172t161 -70zM1335 680q145 0 233 -103t68 -249t-138 -248q-118 -104 -263 -104t-235 103q-88 104 -68 249q23 145 140 249q118 103 263 103zM623 1364
q-99 0 -181 -70t-96 -172t46 -172t160 -70t182 70q81 70 95 172t-46 172t-160 70zM539 770q-145 0 -235 103q-88 104 -68 249q20 144 138 248t263 104t234 -102q89 -104 69 -250t-138 -248q-118 -104 -263 -104z" />
    <glyph glyph-name="ampersand" unicode="&#x26;" horiz-adv-x="1441" 
d="M596 86q199 0 379 223l-342 418q-223 -121 -284 -225q-30 -51 -38 -113q-20 -135 63 -219t222 -84zM821 1364q-90 0 -162 -57t-85 -153t116 -275q213 100 271 190q29 45 39 115t-39 126q-50 54 -140 54zM557 -37q-188 0 -298 116t-85 306q24 162 144 263q65 54 112 84
t137 81q-47 70 -70 108q-23 39 -45 107t-14 129q23 152 142 241t261 89t227 -86t66 -228t-138 -234q-62 -47 -106 -73t-132 -71l299 -373l262 377h139l-328 -463l281 -346h-182l-185 233q-112 -127 -228 -193t-259 -67z" />
    <glyph glyph-name="quotesingle" unicode="'" horiz-adv-x="532" 
d="M342 983l68 467h122l-67 -467h-123z" />
    <glyph glyph-name="parenleft" unicode="(" horiz-adv-x="532" 
d="M614 1499l95 -65q-150 -162 -251 -392t-134 -452q-57 -426 147 -848l-104 -61q-113 195 -156 435q-85 475 133 956q108 239 270 427z" />
    <glyph glyph-name="parenright" unicode=")" horiz-adv-x="532" 
d="M84 -319l-94 65q152 162 252 391t131 453q59 424 -146 848l105 61q114 -197 156 -435t8 -478q-34 -238 -142 -478t-270 -427z" />
    <glyph glyph-name="asterisk" unicode="*" horiz-adv-x="909" 
d="M711 1450l-45 -311l309 98l16 -98l-307 -97l150 -249l-84 -60l-156 256l-219 -256l-74 60l223 249l-284 103l41 92l286 -98l45 311h99z" />
    <glyph glyph-name="plus" unicode="+" horiz-adv-x="1363" 
d="M240 571l14 99h473l66 473h98l-66 -473h473l-14 -99h-473l-66 -473h-98l66 473h-473z" />
    <glyph glyph-name="comma" unicode="," horiz-adv-x="532" 
d="M63 -283l201 467h144l-224 -467h-121z" />
    <glyph glyph-name="hyphen" unicode="-" horiz-adv-x="681" 
d="M150 430l14 111h506l-15 -111h-505z" />
    <glyph glyph-name="period" unicode="." horiz-adv-x="532" 
d="M180 86q6 41 39 70q33 28 74 28t65 -28t19 -70q-6 -41 -39 -70q-33 -28 -74 -28q-42 0 -66 28t-18 70z" />
    <glyph glyph-name="slash" unicode="/" horiz-adv-x="757" 
d="M12 -37l844 1561l100 -37l-839 -1561z" />
    <glyph glyph-name="zero" unicode="0" 
d="M544 86q88 0 161 46t117 113q107 161 157 480q40 326 -23 480q-27 67 -85 113t-146 46t-160 -46q-73 -46 -117 -113q-120 -181 -157 -480q-69 -457 106 -593q59 -46 147 -46zM141 391q-17 256 48 513q65 256 181 399q60 75 156 123t204 48q208 1 297 -124
q89 -126 99 -292q27 -400 -120 -732q-48 -104 -108 -178t-156 -124q-96 -48 -204 -48q-209 -1 -298 124q-88 125 -99 291z" />
    <glyph glyph-name="one" unicode="1" 
d="M535 0l180 1278h-2l-293 -215l-64 94l402 293h104l-205 -1450h-122z" />
    <glyph glyph-name="two" unicode="2" 
d="M747 1364q-119 0 -207 -66t-126 -172l-142 15q60 164 188 249t301 85q173 -1 281 -101t84 -270q-14 -104 -78 -208t-124 -162q-59 -58 -172 -159l-516 -464h761l-16 -111h-897l20 143l625 576q74 65 116 109t88 119t56 147q17 122 -53 196t-189 74z" />
    <glyph glyph-name="three" unicode="3" 
d="M554 86q138 0 234 89t116 233t-84 218q-103 75 -259 74h-53l18 123h62q133 0 237 69q103 69 121 196q18 128 -44 202t-166 74q-203 0 -316 -170l-109 66q147 215 422 215q177 -1 277 -97t75 -276q-16 -121 -97 -212t-208 -124l-2 -4q135 -25 206 -128t52 -243
q-28 -180 -160 -298t-348 -118q-339 0 -407 285l139 43q24 -109 90 -163t204 -54z" />
    <glyph glyph-name="four" unicode="4" 
d="M739 467l119 848h-4l-631 -848h516zM674 0l49 356h-627l21 146l714 948h170l-139 -983h221l-16 -111h-221l-49 -356h-123z" />
    <glyph glyph-name="five" unicode="5" 
d="M659 920q203 0 307 -140t75 -349q-29 -210 -189 -333t-338 -123q-303 0 -399 246l137 64q25 -84 103 -142q79 -57 185 -57t226 93t142 252t-68 269t-240 109q-150 0 -305 -98l117 739h716l-16 -111h-598l-72 -460q86 41 217 41z" />
    <glyph glyph-name="six" unicode="6" 
d="M641 766q-141 0 -255 -99t-134 -245t60 -241t232 -95q150 0 258 94t129 240t-64 246t-226 100zM686 872q192 0 300 -129t81 -321t-179 -320q-152 -127 -360 -127q-206 0 -322 127t-89 324q10 70 45 146t62 116q28 41 79 109l485 653h156l-485 -639h4q80 61 223 61z" />
    <glyph glyph-name="seven" unicode="7" 
d="M1112 1450l-16 -111l-766 -1339h-137l776 1339h-697l17 111h823z" />
    <glyph glyph-name="eight" unicode="8" 
d="M545 86q139 0 239 92t120 228t-59 226q-79 89 -212 89q-133 -1 -235 -89t-121 -225t55 -229t213 -92zM649 831q115 0 199 78t100 193q16 114 -47 188t-176 74t-199 -74t-102 -188q-16 -115 47 -193t178 -78zM528 -25q-194 0 -304 118t-83 310q17 135 107 239t227 134v2
q-98 28 -149 122t-37 198q25 168 152 272q128 104 299 104q172 0 270 -104q98 -106 73 -272q-14 -104 -92 -198t-184 -122v-2q131 -29 190 -132t41 -241q-27 -193 -171 -311t-339 -117z" />
    <glyph glyph-name="nine" unicode="9" 
d="M629 684q141 0 254 99t135 246t-62 241q-82 94 -232 94t-260 -95q-108 -95 -128 -241t65 -245q87 -99 228 -99zM584 578q-194 0 -302 129t-81 321t179 320q154 127 360 127t322 -127t89 -324q-10 -70 -46 -148q-35 -78 -59 -112q-24 -35 -79 -111l-486 -653h-155l485 639
h-4q-82 -61 -223 -61z" />
    <glyph glyph-name="colon" unicode=":" horiz-adv-x="532" 
d="M180 86q6 41 39 70q33 28 74 28t65 -28t19 -70q-6 -41 -39 -70q-33 -28 -74 -28q-42 0 -66 28t-18 70zM372 762q-40 0 -64 28t-19 70q6 41 39 70q34 28 74 28t65 -28t19 -70t-40 -70t-74 -28z" />
    <glyph glyph-name="semicolon" unicode=";" horiz-adv-x="532" 
d="M372 762q-40 0 -64 28t-19 70q6 41 39 70q34 28 74 28t65 -28t19 -70t-40 -70t-74 -28zM63 -283l201 467h144l-224 -467h-121z" />
    <glyph glyph-name="less" unicode="&#x3c;" horiz-adv-x="1363" 
d="M1358 1149l-15 -102l-976 -426l856 -426l-15 -103l-960 479l14 99z" />
    <glyph glyph-name="equal" unicode="=" horiz-adv-x="1363" 
d="M219 424l14 98h1045l-14 -98h-1045zM260 719l14 98h1045l-14 -98h-1045z" />
    <glyph glyph-name="greater" unicode="&#x3e;" horiz-adv-x="1363" 
d="M180 92l15 103l979 426l-859 426l15 102l960 -479l-14 -99z" />
    <glyph glyph-name="question" unicode="?" horiz-adv-x="948" 
d="M395 86q6 41 39 70q33 28 74 28q42 0 66 -28t18 -70q-6 -41 -39 -70q-33 -28 -74 -28t-65 28t-19 70zM711 1487q160 0 252 -94t67 -264t-156 -281q-55 -47 -110 -90q-132 -103 -152 -246l-18 -131h-123l25 172q17 131 147 244q53 45 107 90q127 108 144 230t-38 191
q-54 68 -162 68t-188 -64t-117 -173l-131 16q49 156 171 244t282 88z" />
    <glyph glyph-name="at" unicode="@" horiz-adv-x="1638" 
d="M1159 379q109 0 243 162t159 331q31 224 -123 370t-391 147q-275 0 -491 -198t-254 -468t127 -466t435 -196q152 0 306 76t253 195h119q-117 -168 -307 -268t-385 -101q-330 0 -516 221q-186 222 -141 542t295 541q252 220 560 220t484 -176q176 -175 140 -431t-211 -434
t-355 -178q-55 0 -85 36t-22 102h-4q-55 -54 -133 -96t-151 -42q-133 0 -193 86q-59 86 -41 215q33 229 194 411t373 183q74 0 127 -41t66 -129h4l68 131h123l-283 -594q-31 -63 -35 -98q-10 -53 45 -53zM745 379q135 0 264 159q128 159 148 306q29 209 -137 209
q-145 0 -270 -159t-150 -321q-10 -86 29 -140t116 -54z" />
    <glyph glyph-name="A" unicode="A" horiz-adv-x="1402" 
d="M1106 508l-217 795l-449 -795h666zM10 0l838 1450h139l406 -1450h-152l-104 385h-768l-217 -385h-142z" />
    <glyph glyph-name="B" unicode="B" horiz-adv-x="1290" 
d="M659 123q295 0 383 190q20 43 27 88q20 150 -72 225t-235 74h-330l-82 -577h309zM731 823q186 0 270 76t97 168q37 260 -279 260h-299l-69 -504h280zM821 1450q192 0 304 -68q142 -83 108 -315q-16 -115 -94 -196t-207 -105l-2 -4q143 -10 219 -108q75 -98 57 -232
q-18 -135 -76 -219q-96 -138 -306 -186q-79 -17 -162 -17h-463l204 1450h418z" />
    <glyph glyph-name="C" unicode="C" horiz-adv-x="1441" 
d="M857 -37q-339 0 -518 214t-132 548t287 548t566 214t470 -227l-123 -93q-51 97 -149 147t-211 50q-279 0 -474 -181t-233 -457t105 -458q142 -182 421 -182q119 0 246 57t213 168l100 -84q-229 -264 -568 -264z" />
    <glyph glyph-name="D" unicode="D" horiz-adv-x="1517" 
d="M610 123q305 -1 516 151t254 451q41 299 -127 451t-473 151h-278l-170 -1204h278zM834 1450q154 0 274 -36t194 -89q72 -53 120 -128q125 -197 94 -472q-45 -279 -228 -472q-70 -75 -156 -128t-218 -89t-285 -36h-449l205 1450h449z" />
    <glyph glyph-name="E" unicode="E" horiz-adv-x="1214" 
d="M199 0l204 1450h887l-18 -123h-752l-71 -516h704l-18 -123h-705l-80 -565h785l-17 -123h-919z" />
    <glyph glyph-name="F" unicode="F" horiz-adv-x="1138" 
d="M199 0l204 1450h869l-19 -123h-733l-71 -516h681l-18 -123h-682l-96 -688h-135z" />
    <glyph glyph-name="G" unicode="G" horiz-adv-x="1593" 
d="M840 -37q-322 0 -501 214t-132 548t287 548t568 214t494 -201l-112 -102q-53 80 -166 130t-231 50q-279 0 -474 -181t-233 -457t105 -458q141 -182 411 -182t428 86l68 487h-348l18 123h483l-98 -688q-245 -131 -567 -131z" />
    <glyph glyph-name="H" unicode="H" horiz-adv-x="1478" 
d="M199 0l204 1450h136l-90 -639h811l90 639h135l-205 -1450h-135l96 688h-811l-96 -688h-135z" />
    <glyph glyph-name="I" unicode="I" horiz-adv-x="532" 
d="M199 0l204 1450h136l-205 -1450h-135z" />
    <glyph glyph-name="J" unicode="J" horiz-adv-x="987" 
d="M385 -37q-154 0 -238 79t-96 218l139 25q18 -199 213 -199q262 0 306 307l149 1057h135l-145 -1024q-10 -66 -22 -117t-44 -120q-33 -69 -79 -115t-129 -78q-83 -33 -189 -33z" />
    <glyph glyph-name="K" unicode="K" horiz-adv-x="1251" 
d="M199 0l204 1450h136l-90 -639h12l792 639h187l-828 -664l664 -786h-195l-630 750h-13l-104 -750h-135z" />
    <glyph glyph-name="L" unicode="L" horiz-adv-x="1024" 
d="M199 0l204 1450h136l-189 -1327h676l-16 -123h-811z" />
    <glyph glyph-name="M" unicode="M" horiz-adv-x="1820" 
d="M184 0l205 1450h203l356 -1217l701 1217h192l-205 -1450h-135l180 1278h-4l-733 -1278h-59l-381 1278h-4l-181 -1278h-135z" />
    <glyph glyph-name="N" unicode="N" horiz-adv-x="1593" 
d="M199 0l204 1450h175l702 -1270h4l180 1270h135l-204 -1450h-174l-705 1270h-4l-178 -1270h-135z" />
    <glyph glyph-name="O" unicode="O" horiz-adv-x="1708" 
d="M866 86q278 0 472 181t232 457t-104 458t-420 182t-473 -181q-194 -182 -232 -458q-38 -275 104 -457t421 -182zM1064 1487q330 0 509 -214q180 -214 133 -548t-288 -548q-240 -214 -570 -214t-509 214t-132 548t287 548t570 214z" />
    <glyph glyph-name="P" unicode="P" horiz-adv-x="1175" 
d="M756 811q129 0 226 61q98 62 116 194t-65 197t-214 64h-299l-71 -516h307zM821 1450q143 0 224 -38t121 -79q91 -93 65 -272q-25 -181 -164 -277t-324 -96h-313l-96 -688h-135l204 1450h418z" />
    <glyph glyph-name="Q" unicode="Q" horiz-adv-x="1708" 
d="M878 123q267 0 449 182t218 445q36 262 -100 438q-137 176 -413 176t-464 -175q-187 -176 -224 -441t115 -445t419 -180zM866 0q-152 0 -282 54t-222 150t-134 235q-42 140 -19 304q45 322 277 533t562 211t504 -211q172 -211 127 -533q-27 -199 -151 -377t-297 -239
l-2 -4h452l-16 -123h-799z" />
    <glyph glyph-name="R" unicode="R" horiz-adv-x="1214" 
d="M784 1450q160 0 248 -30q41 -13 90 -42q156 -93 123 -309q-45 -326 -422 -373l324 -696h-154l-311 688h-252l-96 -688h-135l204 1450h381zM735 811q266 0 349 175q64 136 -13 248q-29 42 -97 68t-167 25h-287l-71 -516h286z" />
    <glyph glyph-name="S" unicode="S" horiz-adv-x="1138" 
d="M582 86q139 0 242 78t122 207q23 156 -117 224q-61 31 -137 55t-152 54t-134 72q-59 43 -91 122q-31 79 -14 192q25 184 175 290q151 106 345 107q254 0 371 -182l-129 -84q-84 143 -262 143q-139 0 -243 -72t-122 -202q-23 -167 115 -239q61 -31 138 -55
q203 -62 288 -120q59 -41 90 -118t14 -187q-27 -188 -174 -298t-334 -110q-313 0 -438 219l139 86q84 -182 308 -182z" />
    <glyph glyph-name="T" unicode="T" horiz-adv-x="1175" 
d="M520 0l187 1327h-496l18 123h1127l-19 -123h-495l-187 -1327h-135z" />
    <glyph glyph-name="U" unicode="U" horiz-adv-x="1400" 
d="M694 -37q-143 0 -242 49t-145 131q-97 177 -57 412l127 895h135l-123 -860q-10 -70 -10 -132t15 -133t50 -121t104 -84t165 -34t174 34q140 61 211 205q53 108 78 265l122 860h136l-127 -895q-37 -258 -187 -425t-426 -167z" />
    <glyph glyph-name="V" unicode="V" horiz-adv-x="1214" 
d="M535 0l-336 1450h145l287 -1272l651 1272h143l-755 -1450h-135z" />
    <glyph glyph-name="W" unicode="W" horiz-adv-x="1933" 
d="M432 0l-217 1450h139l178 -1284h5l548 1284h172l185 -1284h4l543 1284h139l-627 -1450h-166l-184 1290h-4l-549 -1290h-166z" />
    <glyph glyph-name="X" unicode="X" horiz-adv-x="1251" 
d="M2 0l651 762l-397 688h160l334 -590l495 590h162l-590 -688l432 -762h-168l-366 655l-551 -655h-162z" />
    <glyph glyph-name="Y" unicode="Y" horiz-adv-x="1175" 
d="M520 0l88 625l-415 825h161l340 -688l547 688h152l-650 -825l-88 -625h-135z" />
    <glyph glyph-name="Z" unicode="Z" horiz-adv-x="1138" 
d="M47 0l14 106l1020 1221h-835l18 123h1010l-17 -111l-1026 -1216h877l-16 -123h-1045z" />
    <glyph glyph-name="bracketleft" unicode="[" horiz-adv-x="532" 
d="M670 1499l-15 -98h-184l-227 -1622h184l-14 -98h-308l256 1818h308z" />
    <glyph glyph-name="backslash" unicode="\" horiz-adv-x="757" 
d="M332 1524l401 -1561l-112 -37l-402 1561z" />
    <glyph glyph-name="bracketright" unicode="]" horiz-adv-x="532" 
d="M29 -319l14 98h184l228 1622h-185l15 98h307l-256 -1818h-307z" />
    <glyph glyph-name="asciicircum" unicode="^" horiz-adv-x="1363" 
d="M242 524l598 926h94l336 -926h-115l-285 815l-512 -815h-116z" />
    <glyph glyph-name="underscore" unicode="_" horiz-adv-x="1024" 
d="M-37 -256l14 102h1024l-14 -102h-1024z" />
    <glyph glyph-name="grave" unicode="`" horiz-adv-x="491" 
d="M356 1450l170 -295h-102l-231 295h163z" />
    <glyph glyph-name="a" unicode="a" horiz-adv-x="1062" 
d="M721 475q-176 0 -300 -50t-140 -163q-12 -82 47 -129t143 -47q180 0 267 93t108 233l10 63h-135zM725 573h143l9 58q18 117 -48 173t-186 56q-164 0 -303 -106l-61 84q74 61 179 97t201 36q177 0 265 -84t63 -258l-33 -232q-37 -276 -36 -397h-115q-2 68 10 154h-4
q-129 -178 -358 -179q-137 0 -226 71q-88 71 -67 210q43 317 567 317z" />
    <glyph glyph-name="b" unicode="b" horiz-adv-x="1251" 
d="M657 86q168 0 286 112q117 112 141 276t-63 275t-255 111t-299 -112t-154 -275t77 -275t267 -112zM780 971q217 -1 337 -141t90 -357q-31 -217 -191 -357t-377 -141q-115 -1 -213 49t-139 142h-4l-23 -166h-123l217 1548h123l-106 -768h4q67 92 179 142t226 49z" />
    <glyph glyph-name="c" unicode="c" horiz-adv-x="985" 
d="M601 -25q-214 1 -334 141t-91 357q31 217 192 357q162 140 374 140t331 -163l-108 -74q-96 127 -236 127q-170 0 -288 -112q-117 -112 -141 -275t64 -275t246 -112t283 131l84 -78q-162 -164 -376 -164z" />
    <glyph glyph-name="d" unicode="d" horiz-adv-x="1251" 
d="M727 860q-168 0 -286 -112q-117 -112 -141 -275t64 -275t255 -112t297 114t153 273t-75 273t-267 114zM991 0l23 166h-4q-68 -92 -180 -141t-226 -50q-217 1 -337 141t-91 357q31 217 192 357t377 141q115 0 213 -49t140 -142h4l106 768h123l-217 -1548h-123z" />
    <glyph glyph-name="e" unicode="e" horiz-adv-x="1138" 
d="M698 860q-92 0 -171 -40t-121 -96q-90 -119 -95 -171h672q16 127 -67 217t-218 90zM586 -25q-215 -1 -327 139t-82 357t183 358q154 141 361 141t306 -131q99 -132 75 -311l-12 -86h-795q-14 -101 41 -216q28 -60 98 -100t167 -40t193 46t150 122l80 -76
q-166 -203 -438 -203z" />
    <glyph glyph-name="f" unicode="f" horiz-adv-x="606" 
d="M724 1573q98 0 150 -25l-38 -106q-39 20 -109 20q-164 0 -201 -252l-37 -264h222l-17 -110h-221l-117 -836h-123l117 836h-196l16 110h197l43 309q25 166 120 242q96 76 194 76z" />
    <glyph glyph-name="g" unicode="g" horiz-adv-x="1251" 
d="M1063 485q23 156 -71 266q-94 109 -251 109t-281 -110t-146 -265t73 -265q94 -110 250 -110q155 0 279 110q124 109 147 265zM510 -492q-114 0 -234 54t-176 145l109 90q102 -178 348 -178q106 0 188 37t125 83t74 118q31 73 39 109t16 87l19 131h-4q-143 -184 -385 -184
q-209 0 -338 142t-101 343q29 201 198 343t378 143q242 0 332 -185h4l22 160h123l-125 -885q-24 -167 -90 -283t-156 -171t-170 -77q-82 -22 -196 -22z" />
    <glyph glyph-name="h" unicode="h" horiz-adv-x="1138" 
d="M735 860q-143 0 -249 -100t-134 -287l-65 -473h-123l217 1548h123l-107 -768h4q49 82 145 136t206 55q360 0 303 -408l-80 -563h-123l78 557q45 303 -195 303z" />
    <glyph glyph-name="i" unicode="i" horiz-adv-x="491" 
d="M444 1413q38 0 62 -27q24 -28 18 -66t-37 -65t-69 -27t-62 27q-22 27 -16 66q4 39 35 65t69 27zM184 0l133 946h123l-133 -946h-123z" />
    <glyph glyph-name="j" unicode="j" horiz-adv-x="491" 
d="M444 1413q38 0 62 -27q24 -28 18 -66t-37 -65t-69 -27t-62 27q-22 27 -16 66q4 39 35 65t69 27zM-33 -492q-49 0 -94 19l33 108q39 -16 76 -16q90 0 128 54t50 151l157 1122h123l-155 -1112q-25 -160 -95 -243t-223 -83z" />
    <glyph glyph-name="k" unicode="k" horiz-adv-x="985" 
d="M164 0l217 1548h123l-146 -1032l529 428h180l-549 -432l473 -512h-186l-449 500l-69 -500h-123z" />
    <glyph glyph-name="l" unicode="l" horiz-adv-x="491" 
d="M184 0l217 1548h123l-217 -1548h-123z" />
    <glyph glyph-name="m" unicode="m" horiz-adv-x="1744" 
d="M1358 971q360 0 303 -408l-80 -563h-123l78 557q45 303 -195 303q-106 0 -182 -56q-75 -56 -107 -125t-42 -147l-76 -532h-123l80 569q18 135 -21 213t-135 78q-143 0 -249 -100t-134 -287l-65 -473h-123l96 680q4 35 14 138t13 128h123q-16 -143 -15 -166h6
q49 82 145 136t200 54t174 -50q70 -51 88 -154q55 100 150 152t200 53z" />
    <glyph glyph-name="n" unicode="n" horiz-adv-x="1138" 
d="M735 860q-143 0 -249 -100t-134 -287l-65 -473h-123l96 680q4 35 14 138t13 128h123q-16 -143 -15 -166h6q49 82 145 136t206 55q360 0 303 -408l-80 -563h-123l78 557q45 303 -195 303z" />
    <glyph glyph-name="o" unicode="o" horiz-adv-x="1216" 
d="M621 86q169 0 287 112t142 276t-64 275t-257 111q-170 0 -288 -111q-117 -112 -141 -276q-24 -163 64 -275t257 -112zM176 473q31 217 192 357q162 140 378 140t336 -140t90 -357t-190 -357t-378 -140q-217 0 -337 140t-91 357z" />
    <glyph glyph-name="p" unicode="p" horiz-adv-x="1251" 
d="M657 86q168 0 286 112q117 112 141 276t-63 275t-255 111t-299 -112t-154 -275t77 -275t267 -112zM780 971q217 -1 337 -141t90 -357q-31 -217 -191 -357t-377 -141q-115 -1 -213 49t-139 142h-4l-88 -633h-123l198 1413h123l-22 -166h4q67 92 179 142t226 49z" />
    <glyph glyph-name="q" unicode="q" horiz-adv-x="1251" 
d="M727 860q-168 0 -286 -112q-117 -112 -141 -275t64 -275t255 -112t297 114t153 273t-75 273t-267 114zM926 -467l88 633h-4q-68 -92 -180 -141t-226 -50q-217 1 -337 141t-91 357q31 217 192 357t377 141q115 0 213 -49t140 -142h4l22 166h123l-198 -1413h-123z" />
    <glyph glyph-name="r" unicode="r" horiz-adv-x="681" 
d="M715 848q-152 0 -244 -92t-113 -240l-71 -516h-123l96 680q4 35 14 138t13 128h123q-16 -143 -15 -166q131 190 328 191q29 0 70 -10l-31 -121q-25 8 -47 8z" />
    <glyph glyph-name="s" unicode="s" horiz-adv-x="872" 
d="M452 86q86 0 158 48t83 123t-41 113t-133 54t-160 38t-129 79t-35 157q18 129 126 201t236 72q244 0 307 -178l-119 -66q-53 133 -204 133q-74 0 -144 -42t-79 -110t43 -105q51 -36 133 -51q82 -16 162 -36t127 -80q48 -60 34 -168q-18 -139 -129 -216t-254 -77
q-270 0 -352 193l119 74q27 -74 97 -115t154 -41z" />
    <glyph glyph-name="t" unicode="t" horiz-adv-x="681" 
d="M501 86q62 0 142 33l-4 -111q-98 -33 -166 -33q-125 0 -174 67t-35 177l86 617h-205l17 110h205l39 273h122l-39 -273h271l-17 -110h-270l-86 -617q-8 -63 22 -98t92 -35z" />
    <glyph glyph-name="u" unicode="u" horiz-adv-x="1138" 
d="M526 86q143 0 250 100q106 100 131 287l68 473h123l-97 -680q-6 -39 -15 -144t-11 -122h-123q16 143 14 166h-6q-49 -82 -144 -136t-206 -55q-360 0 -303 408l80 563h123l-78 -557q-45 -303 194 -303z" />
    <glyph glyph-name="v" unicode="v" horiz-adv-x="948" 
d="M418 0l-254 946h139l201 -813l422 813h125l-506 -946h-127z" />
    <glyph glyph-name="w" unicode="w" horiz-adv-x="1441" 
d="M328 0l-164 946h135l119 -792h4l375 792h116l170 -792h4l334 792h123l-411 -946h-127l-175 774h-4l-372 -774h-127z" />
    <glyph glyph-name="x" unicode="x" horiz-adv-x="985" 
d="M12 0l465 512l-276 434h157l211 -358l312 358h153l-395 -434l334 -512h-160l-270 428l-383 -428h-148z" />
    <glyph glyph-name="y" unicode="y" horiz-adv-x="948" 
d="M100 -492q-51 0 -116 19l26 115q76 -23 114 -23t74 27q36 28 56 56t45 75l117 219l-252 950h137l201 -796l418 796h131l-662 -1239q-104 -199 -289 -199z" />
    <glyph glyph-name="z" unicode="z" horiz-adv-x="872" 
d="M55 0l11 74l673 762h-538l16 110h709l-11 -74l-671 -761h590l-17 -111h-762z" />
    <glyph glyph-name="braceleft" unicode="{" horiz-adv-x="681" 
d="M711 1401q-113 0 -142 -201l-39 -289q-12 -96 -66 -192t-122 -127l-2 -4q61 -37 87 -130q26 -94 11 -190l-41 -291q-25 -199 86 -198h47l-14 -98h-102q-86 1 -124 67t-22 180l43 299q45 313 -100 314l14 98q145 0 187 315l43 297q16 115 72 182t143 66h102l-14 -98h-47z
" />
    <glyph glyph-name="bar" unicode="|" horiz-adv-x="704" 
d="M403 1704h109v-2271h-109v2271z" />
    <glyph glyph-name="braceright" unicode="}" horiz-adv-x="681" 
d="M137 -221q113 0 142 201l38 288q26 191 151 294q24 19 38 26l2 4q-61 36 -87 130q-26 93 -11 189l41 291q25 199 -86 199h-48l15 98h102q86 -1 124 -67t22 -181l-43 -299q-45 -313 100 -313l-14 -98q-143 0 -189 -316l-41 -297q-16 -116 -72 -182t-143 -65h-102l14 98h47
z" />
    <glyph glyph-name="asciitilde" unicode="~" horiz-adv-x="1363" 
d="M967 496q-63 0 -214 70t-202 69q-90 0 -201 -139l-59 65q119 184 280 184q63 1 214 -69t205 -70t100 36t98 103l61 -65q-117 -184 -282 -184z" />
    <glyph glyph-name="uni00A0" unicode="&#xa0;" horiz-adv-x="532" 
 />
    <glyph glyph-name="exclamdown" unicode="&#xa1;" horiz-adv-x="757" 
d="M520 1008q42 0 66 -29t19 -70t-38 -69t-73 -29q-40 0 -66 29q-26 30 -20 70t38 69q33 29 74 29zM254 -455l149 1069h123l-149 -1069h-123z" />
    <glyph glyph-name="cent" unicode="&#xa2;" 
d="M743 856l-108 -770q137 6 256 131l84 -78q-156 -158 -357 -164l-18 -141h-98l20 148q-184 26 -280 164t-68 330t162 326q135 136 323 163l21 147h98l-20 -145q197 -2 313 -160l-108 -74q-87 113 -220 123zM539 96l106 758q-139 -20 -234 -128t-113 -247t46 -248
q66 -108 195 -135z" />
    <glyph glyph-name="sterling" unicode="&#xa3;" 
d="M971 1475q166 0 276 -115l-94 -98q-88 102 -216 102t-215 -94t-104 -205l-34 -254h338l-17 -111h-338l-82 -589h502l-16 -111h-852l16 111h215l82 589h-194l16 111h195l32 240q25 164 149 294t341 130z" />
    <glyph glyph-name="currency" unicode="&#xa4;" 
d="M400 1004q-129 -115 -152 -278q-22 -163 76 -279q98 -115 256 -115t288 116t154 278q24 163 -74 278q-98 114 -258 114t-290 -114zM706 1229q177 0 302 -109l133 115l59 -76l-133 -112q102 -131 78 -322q-29 -190 -168 -322l100 -112l-80 -76l-100 115
q-156 -109 -333 -109t-302 109l-133 -115l-59 76l133 112q-105 135 -79 323t169 321l-100 112l79 76l101 -115q156 109 333 109z" />
    <glyph glyph-name="yen" unicode="&#xa5;" 
d="M465 0l51 369h-348l14 98h348l23 158l-14 32h-330l14 99h275l-293 694h139l293 -705l500 705h133l-490 -694h275l-15 -99h-329l-23 -32l-22 -158h348l-15 -98h-348l-51 -369h-135z" />
    <glyph glyph-name="brokenbar" unicode="&#xa6;" horiz-adv-x="704" 
d="M403 397h107v-792h-107v792zM403 1534h107v-795h-107v795z" />
    <glyph glyph-name="section" unicode="&#xa7;" 
d="M498 -172q100 0 182 53t93 137t-43 141q-54 56 -139 95t-168 84t-135 122t-38 181q25 172 254 264q-152 100 -132 255t147 241t259 86q274 0 322 -193l-129 -69q-41 139 -195 139q-100 0 -178 -52t-90 -147q-8 -61 29 -110t97 -80t132 -70t131 -78t94 -105t23 -153
q-25 -170 -219 -270q141 -92 117 -251t-148 -251t-270 -92q-146 -1 -243 61t-126 185l133 61q43 -184 240 -184zM500 465l194 -107q66 33 120 85t63 112q16 119 -123 201l-142 84q-207 -66 -227 -195q-11 -71 19 -107t96 -73z" />
    <glyph glyph-name="dieresis" unicode="&#xa8;" horiz-adv-x="491" 
d="M641 1434q41 0 66 -29t19 -70t-38 -69q-33 -28 -74 -29q-42 1 -66 29t-18 69q4 41 37 70t74 29zM252 1434q42 0 66 -29t19 -70t-38 -69t-74 -29q-41 1 -65 29t-19 69q4 41 37 70t74 29z" />
    <glyph glyph-name="copyright" unicode="&#xa9;" horiz-adv-x="1638" 
d="M829 74q270 0 488 190q217 190 255 460t-126 462q-164 190 -434 190t-488 -190q-217 -191 -255 -461q-38 -271 126 -461t434 -190zM1028 1487q315 0 508 -223q194 -222 148 -538t-301 -540t-570 -223q-315 0 -507 223q-191 224 -146 539t299 539t569 223zM1341 883h-110
q-7 90 -69 150t-169 63q-152 0 -255 -106t-126 -265q-22 -158 52 -264t225 -107q106 0 187 62t110 151h110q-40 -147 -156 -229t-266 -82q-205 0 -304 131t-68 338q29 207 164 338t340 131q150 0 242 -82t93 -229z" />
    <glyph glyph-name="ordfeminine" unicode="&#xaa;" horiz-adv-x="690" 
d="M596 1147q-268 0 -283 -109q-4 -36 37 -60t99 -24q98 0 156 57t69 136h-78zM555 1233h131q10 86 -23 121q-32 35 -130 35t-199 -72l-41 78q107 80 255 80q148 1 202 -51t36 -173l-22 -164q-20 -139 -21 -206h-100l6 94h-4q-80 -106 -227 -107q-96 0 -156 41
q-59 41 -47 125q29 199 340 199z" />
    <glyph glyph-name="guillemotleft" unicode="&#xab;" horiz-adv-x="985" 
d="M760 70l-223 415l340 416l77 -59l-288 -357l192 -360zM420 70l-223 415l340 416l77 -59l-288 -357l192 -360z" />
    <glyph glyph-name="logicalnot" unicode="&#xac;" horiz-adv-x="1363" 
d="M1145 274l61 445h-946l14 98h1045l-76 -543h-98z" />
    <glyph glyph-name="uni00AD" unicode="&#xad;" horiz-adv-x="681" 
d="M150 430l14 111h506l-15 -111h-505z" />
    <glyph glyph-name="registered" unicode="&#xae;" horiz-adv-x="1638" 
d="M829 74q270 0 488 190q217 190 255 460t-126 462q-164 190 -434 190t-488 -190q-217 -191 -255 -461q-38 -271 126 -461t434 -190zM1028 1487q315 0 508 -223q194 -222 148 -538t-301 -540t-570 -223q-315 0 -507 223q-191 224 -146 539t299 539t569 223zM903 772
q188 0 240 68q25 34 34 98t-43 98t-135 33h-196l-41 -297h141zM1044 1167q146 0 202 -61t40 -182q-29 -213 -256 -250l209 -385h-125l-209 385h-157l-54 -385h-110l123 878h337z" />
    <glyph glyph-name="macron" unicode="&#xaf;" horiz-adv-x="491" 
d="M705 1339l-15 -98h-540l14 98h541z" />
    <glyph glyph-name="degree" unicode="&#xb0;" horiz-adv-x="819" 
d="M547 983q83 0 149 57q66 58 76 140t-39 139t-131 57t-148 -57t-75 -139q-10 -82 38 -140t130 -57zM535 885q-123 0 -197 86t-58 210t115 209q98 85 221 85t197 -85q73 -85 57 -209t-114 -210t-221 -86z" />
    <glyph glyph-name="plusminus" unicode="&#xb1;" horiz-adv-x="1363" 
d="M182 98l13 99h1028l-13 -99h-1028zM254 670l14 98h467l51 375h99l-51 -375h479l-15 -98h-479l-53 -375h-98l53 375h-467z" />
    <glyph glyph-name="twosuperior" unicode="&#xb2;" horiz-adv-x="692" 
d="M553 1376q-135 0 -193 -121l-102 9q41 110 131 160q89 50 197 50t178 -60t55 -163q-8 -61 -48 -121t-77 -97q-37 -36 -108 -95l-295 -248h450l-12 -98h-598l12 88l400 344q55 47 81 72q74 72 84 140q9 68 -33 104t-122 36z" />
    <glyph glyph-name="threesuperior" unicode="&#xb3;" horiz-adv-x="692" 
d="M461 1098q75 0 141 38t76 115q8 53 -31 89t-110 36q-117 0 -195 -102l-72 51q115 150 281 150q115 -1 183 -61t54 -161q-8 -68 -64 -123t-132 -79v-4q86 -11 129 -73t30 -161t-107 -167t-222 -66q-217 0 -260 182l102 37q31 -121 172 -121q70 0 134 47t75 123
q10 76 -48 114t-161 37h-35l13 99h47z" />
    <glyph glyph-name="acute" unicode="&#xb4;" horiz-adv-x="491" 
d="M289 1155l256 295h164l-318 -295h-102z" />
    <glyph glyph-name="mu" unicode="&#xb5;" horiz-adv-x="1138" 
d="M526 86q143 0 250 100q106 100 131 287l68 473h123l-97 -680q-6 -39 -15 -144t-11 -122h-123q16 143 14 166h-6q-49 -82 -144 -136q-96 -54 -228 -54t-205 77l-74 -520h-121l199 1413h123l-78 -557q-45 -303 194 -303z" />
    <glyph glyph-name="paragraph" unicode="&#xb6;" horiz-adv-x="1228" 
d="M784 1450h465l-241 -1708h-123l227 1610h-252l-227 -1610h-123l129 920q-178 0 -285 113q-106 114 -84 274q27 193 162 297t352 104z" />
    <glyph glyph-name="periodcentered" unicode="&#xb7;" horiz-adv-x="532" 
d="M371 750q41 0 65 -29t20 -70q-5 -41 -38 -69t-74 -29q-42 1 -66 29t-18 69q4 41 37 70t74 29z" />
    <glyph glyph-name="cedilla" unicode="&#xb8;" horiz-adv-x="491" 
d="M321 -121q54 0 98 -39q44 -38 34 -116t-86 -122t-172 -44t-183 43l37 65q61 -35 130 -35t113 23q44 24 50 66t-26 64q-63 43 -169 5l-28 31l153 180h78l-114 -131l4 -4q27 14 81 14z" />
    <glyph glyph-name="onesuperior" unicode="&#xb9;" horiz-adv-x="692" 
d="M446 592l107 760l-195 -135l-41 69l250 176h111l-121 -870h-111z" />
    <glyph glyph-name="ordmasculine" unicode="&#xba;" horiz-adv-x="790" 
d="M527 954q97 0 172 64t88 155t-42 153t-154 62t-173 -64q-74 -65 -85 -153q-11 -89 43 -153t151 -64zM598 1475q144 0 226 -83q81 -82 62 -218q-20 -136 -124 -221t-248 -85t-221 84q-78 84 -60 219q21 135 121 219t244 85z" />
    <glyph glyph-name="guillemotright" unicode="&#xbb;" horiz-adv-x="985" 
d="M702 901l222 -416l-338 -415l-78 59l287 356l-191 361zM362 901l222 -416l-338 -415l-78 59l287 356l-191 361z" />
    <glyph glyph-name="onequarter" unicode="&#xbc;" horiz-adv-x="1593" 
d="M233 -12l1149 1532l86 -58l-1151 -1532zM383 592l106 760l-194 -135l-41 69l250 176h110l-120 -870h-111zM1321 307l57 414h-4l-332 -414h279zM1278 0l29 209h-389l14 92l459 567h120l-79 -561h131l-15 -98h-131l-28 -209h-111z" />
    <glyph glyph-name="onehalf" unicode="&#xbd;" horiz-adv-x="1593" 
d="M938 0l12 88l402 344q55 47 80 72q74 74 83 141t-32 103t-121 36q-135 0 -193 -120l-104 8q41 110 132 160t197 50t177 -60q70 -60 55 -163q-8 -61 -48 -122t-76 -95t-107 -96l-295 -248h450l-14 -98h-598zM215 -12l1149 1532l86 -58l-1151 -1532zM367 592l106 760
l-194 -135l-41 69l249 176h111l-121 -870h-110z" />
    <glyph glyph-name="threequarters" unicode="&#xbe;" horiz-adv-x="1593" 
d="M338 -12l1149 1532l86 -58l-1151 -1532zM524 1376q-117 0 -194 -102l-72 51q115 150 281 150q115 -1 183 -61t54 -161q-8 -68 -64 -123t-132 -79v-4q86 -11 129 -73t29 -161t-106 -167q-93 -68 -222 -66q-215 0 -263 182l105 37q31 -121 172 -121q70 0 134 47t75 123
q10 76 -48 114t-161 37h-35l12 99h48q197 14 217 153q8 53 -31 89t-111 36zM1350 307l57 414h-4l-332 -414h279zM1311 0l28 209h-389l15 92l458 567h121l-80 -561h131l-14 -98h-131l-29 -209h-110z" />
    <glyph glyph-name="questiondown" unicode="&#xbf;" horiz-adv-x="948" 
d="M608 1008q40 0 66 -29q24 -29 19 -70t-38 -69t-73 -29q-40 0 -66 29q-26 30 -20 70t39 69t73 29zM394 -381q108 0 188 65t116 173l131 -17q-49 -154 -171 -242t-282 -90q-160 0 -251 94q-92 94 -70 259q14 94 59 167q44 74 99 120t111 90q133 105 151 245l19 131h122
l-24 -172q-18 -138 -147 -243q-54 -45 -107 -90q-127 -108 -144 -230q-16 -123 38 -191t162 -69z" />
    <glyph glyph-name="Agrave" unicode="&#xc0;" horiz-adv-x="1402" 
d="M866 1835l172 -295h-102l-234 295h164zM1106 508l-217 795l-449 -795h666zM10 0l838 1450h139l406 -1450h-152l-104 385h-768l-217 -385h-142z" />
    <glyph glyph-name="Aacute" unicode="&#xc1;" horiz-adv-x="1402" 
d="M801 1540l254 295h164l-316 -295h-102zM1106 508l-217 795l-449 -795h666zM10 0l838 1450h139l406 -1450h-152l-104 385h-768l-217 -385h-142z" />
    <glyph glyph-name="Acircumflex" unicode="&#xc2;" horiz-adv-x="1402" 
d="M627 1540l262 295h143l180 -295h-133l-135 221l-196 -221h-121zM1106 508l-217 795l-449 -795h666zM10 0l838 1450h139l406 -1450h-152l-104 385h-768l-217 -385h-142z" />
    <glyph glyph-name="Atilde" unicode="&#xc3;" horiz-adv-x="1402" 
d="M806 1784q68 0 156 -49t125 -49q78 0 111 98h74q-20 -82 -72 -146t-129 -63q-45 0 -145 49t-129 49q-82 0 -119 -98h-74q20 82 76 139q58 70 126 70zM1106 508l-217 795l-449 -795h666zM10 0l838 1450h139l406 -1450h-152l-104 385h-768l-217 -385h-142z" />
    <glyph glyph-name="Adieresis" unicode="&#xc4;" horiz-adv-x="1402" 
d="M1153 1819q41 0 66 -29t19 -70q-6 -42 -40 -70q-33 -28 -74 -28q-42 0 -66 28t-18 70q6 41 39 70t74 29zM764 1819q42 0 66 -29t18 -70q-6 -42 -39 -70t-74 -28t-65 28t-19 70q6 41 39 70t74 29zM1106 508l-217 795l-449 -795h666zM10 0l838 1450h139l406 -1450h-152
l-104 385h-768l-217 -385h-142z" />
    <glyph glyph-name="Aring" unicode="&#xc5;" horiz-adv-x="1402" 
d="M960 1835q-48 0 -88 -36t-46 -87q-7 -51 22 -85t79 -34t88 35t46 86q6 51 -23 86q-30 35 -78 35zM917 1520q-79 0 -127 58t-37 137t75 136q65 57 144 57t126 -58q47 -60 36 -137q-10 -77 -74 -135t-143 -58zM1106 508l-217 795l-449 -795h666zM10 0l838 1450h139
l406 -1450h-152l-104 385h-768l-217 -385h-142z" />
    <glyph glyph-name="AE" unicode="&#xc6;" horiz-adv-x="1896" 
d="M1096 508l114 819h-24l-649 -819h559zM-10 0l1149 1450h825l-18 -123h-600l-72 -516h565l-18 -123h-566l-79 -565h616l-16 -123h-752l53 385h-639l-305 -385h-143z" />
    <glyph glyph-name="Ccedilla" unicode="&#xc7;" horiz-adv-x="1441" 
d="M848 -37q-37 0 -53 2l-84 -96l4 -4q27 14 81 14t98 -39q44 -38 34 -116t-86 -122t-172 -44t-183 43l37 65q61 -35 130 -35t113 23q44 24 50 66t-25 64q-64 44 -169 5l-29 31l131 153q-274 39 -418 246q-143 207 -100 506q47 334 287 548t566 214t470 -227l-123 -93
q-51 97 -149 147t-211 50q-279 0 -474 -181t-233 -457t105 -458q142 -182 421 -182q119 0 246 57t213 168l100 -84q-229 -264 -577 -264z" />
    <glyph glyph-name="Egrave" unicode="&#xc8;" horiz-adv-x="1214" 
d="M772 1835l172 -295h-102l-234 295h164zM199 0l204 1450h887l-18 -123h-752l-71 -516h704l-18 -123h-705l-80 -565h785l-17 -123h-919z" />
    <glyph glyph-name="Eacute" unicode="&#xc9;" horiz-adv-x="1214" 
d="M707 1540l254 295h163l-315 -295h-102zM199 0l204 1450h887l-18 -123h-752l-71 -516h704l-18 -123h-705l-80 -565h785l-17 -123h-919z" />
    <glyph glyph-name="Ecircumflex" unicode="&#xca;" horiz-adv-x="1214" 
d="M532 1540l263 295h143l180 -295h-133l-135 221l-197 -221h-121zM199 0l204 1450h887l-18 -123h-752l-71 -516h704l-18 -123h-705l-80 -565h785l-17 -123h-919z" />
    <glyph glyph-name="Edieresis" unicode="&#xcb;" horiz-adv-x="1214" 
d="M1059 1819q41 0 65 -29t19 -70q-6 -42 -39 -70t-74 -28q-42 0 -66 28t-18 70q6 41 39 70t74 29zM670 1819q42 0 66 -29t18 -70q-6 -42 -39 -70t-74 -28t-65 28t-19 70q6 41 39 70t74 29zM199 0l204 1450h887l-18 -123h-752l-71 -516h704l-18 -123h-705l-80 -565h785
l-17 -123h-919z" />
    <glyph glyph-name="Igrave" unicode="&#xcc;" horiz-adv-x="532" 
d="M430 1835l172 -295h-102l-234 295h164zM199 0l204 1450h136l-205 -1450h-135z" />
    <glyph glyph-name="Iacute" unicode="&#xcd;" horiz-adv-x="532" 
d="M365 1540l253 295h164l-315 -295h-102zM199 0l204 1450h136l-205 -1450h-135z" />
    <glyph glyph-name="Icircumflex" unicode="&#xce;" horiz-adv-x="532" 
d="M190 1540l263 295h143l180 -295h-133l-135 221l-197 -221h-121zM199 0l204 1450h136l-205 -1450h-135z" />
    <glyph glyph-name="Idieresis" unicode="&#xcf;" horiz-adv-x="532" 
d="M717 1819q41 0 65 -29t19 -70q-6 -42 -39 -70t-74 -28q-42 0 -66 28t-18 70q6 41 39 70t74 29zM328 1819q42 0 66 -29t18 -70q-6 -42 -39 -70t-74 -28t-65 28t-19 70q6 41 39 70t74 29zM199 0l204 1450h136l-205 -1450h-135z" />
    <glyph glyph-name="Eth" unicode="&#xd0;" horiz-adv-x="1517" 
d="M834 1450q154 0 274 -36t194 -89q72 -53 120 -128q125 -197 94 -472q-45 -279 -228 -472q-70 -75 -156 -128t-218 -89t-285 -36h-449l99 700h-160l16 111h160l90 639h449zM610 123q305 -1 516 151t254 451q41 299 -127 451t-473 151h-278l-72 -516h528l-16 -111h-528
l-82 -577h278z" />
    <glyph glyph-name="Ntilde" unicode="&#xd1;" horiz-adv-x="1593" 
d="M900 1784q68 0 156 -49t126 -49q78 0 110 98h74q-20 -82 -72 -146t-129 -63q-45 0 -145 49t-129 49q-82 0 -119 -98h-74q20 82 76 139q58 70 126 70zM199 0l204 1450h175l702 -1270h4l180 1270h135l-204 -1450h-174l-705 1270h-4l-178 -1270h-135z" />
    <glyph glyph-name="Ograve" unicode="&#xd2;" horiz-adv-x="1708" 
d="M1018 1835l172 -295h-103l-233 295h164zM866 86q278 0 472 181t232 457t-104 458t-420 182t-473 -181q-194 -182 -232 -458q-38 -275 104 -457t421 -182zM1064 1487q330 0 509 -214q180 -214 133 -548t-288 -548q-240 -214 -570 -214t-509 214t-132 548t287 548t570 214z
" />
    <glyph glyph-name="Oacute" unicode="&#xd3;" horiz-adv-x="1708" 
d="M952 1540l254 295h164l-315 -295h-103zM866 86q278 0 472 181t232 457t-104 458t-420 182t-473 -181q-194 -182 -232 -458q-38 -275 104 -457t421 -182zM1064 1487q330 0 509 -214q180 -214 133 -548t-288 -548q-240 -214 -570 -214t-509 214t-132 548t287 548t570 214z
" />
    <glyph glyph-name="Ocircumflex" unicode="&#xd4;" horiz-adv-x="1708" 
d="M778 1540l262 295h144l180 -295h-133l-135 221l-197 -221h-121zM866 86q278 0 472 181t232 457t-104 458t-420 182t-473 -181q-194 -182 -232 -458q-38 -275 104 -457t421 -182zM1064 1487q330 0 509 -214q180 -214 133 -548t-288 -548q-240 -214 -570 -214t-509 214
t-132 548t287 548t570 214z" />
    <glyph glyph-name="Otilde" unicode="&#xd5;" horiz-adv-x="1708" 
d="M958 1784q68 0 156 -49t125 -49q78 0 111 98h73q-20 -82 -72 -146t-128 -63q-45 0 -145 49t-130 49q-82 0 -119 -98h-73q20 82 75 139q59 70 127 70zM866 86q278 0 472 181t232 457t-104 458t-420 182t-473 -181q-194 -182 -232 -458q-38 -275 104 -457t421 -182z
M1064 1487q330 0 509 -214q180 -214 133 -548t-288 -548q-240 -214 -570 -214t-509 214t-132 548t287 548t570 214z" />
    <glyph glyph-name="Odieresis" unicode="&#xd6;" horiz-adv-x="1708" 
d="M1305 1819q41 0 65 -29t19 -70q-6 -42 -39 -70t-74 -28q-42 0 -66 28t-18 70q6 41 39 70t74 29zM916 1819q40 0 65 -29t19 -70q-6 -42 -40 -70q-32 -28 -73 -28t-65 28t-19 70q6 41 39 70q34 29 74 29zM866 86q278 0 472 181t232 457t-104 458t-420 182t-473 -181
q-194 -182 -232 -458q-38 -275 104 -457t421 -182zM1064 1487q330 0 509 -214q180 -214 133 -548t-288 -548q-240 -214 -570 -214t-509 214t-132 548t287 548t570 214z" />
    <glyph glyph-name="multiply" unicode="&#xd7;" horiz-adv-x="1363" 
d="M432 1096l348 -406l465 406l58 -70l-463 -405l348 -406l-80 -70l-346 408l-465 -408l-61 70l466 406l-350 405z" />
    <glyph glyph-name="Oslash" unicode="&#xd8;" horiz-adv-x="1708" 
d="M882 86q262 0 456 181t232 453t-91 445l-996 -938q137 -141 399 -141zM1047 1364q-279 0 -474 -181t-231 -449t84 -439l993 936q-143 133 -372 133zM1063 1487q281 0 459 -162l174 166l61 -64l-176 -165q170 -213 124 -542t-287 -543t-570 -214q-289 0 -465 170
l-176 -166l-64 64l181 168q-162 211 -116 535t286 539q240 214 569 214z" />
    <glyph glyph-name="Ugrave" unicode="&#xd9;" horiz-adv-x="1400" 
d="M864 1835l172 -295h-102l-234 295h164zM694 -37q-143 0 -242 49t-145 131q-97 177 -57 412l127 895h135l-123 -860q-10 -70 -10 -132t15 -133t50 -121t104 -84t165 -34t174 34q140 61 211 205q53 108 78 265l122 860h136l-127 -895q-37 -258 -187 -425t-426 -167z" />
    <glyph glyph-name="Uacute" unicode="&#xda;" horiz-adv-x="1400" 
d="M799 1540l254 295h164l-316 -295h-102zM694 -37q-143 0 -242 49t-145 131q-97 177 -57 412l127 895h135l-123 -860q-10 -70 -10 -132t15 -133t50 -121t104 -84t165 -34t174 34q140 61 211 205q53 108 78 265l122 860h136l-127 -895q-37 -258 -187 -425t-426 -167z" />
    <glyph glyph-name="Ucircumflex" unicode="&#xdb;" horiz-adv-x="1400" 
d="M625 1540l262 295h143l180 -295h-133l-135 221l-197 -221h-120zM694 -37q-143 0 -242 49t-145 131q-97 177 -57 412l127 895h135l-123 -860q-10 -70 -10 -132t15 -133t50 -121t104 -84t165 -34t174 34q140 61 211 205q53 108 78 265l122 860h136l-127 -895
q-37 -258 -187 -425t-426 -167z" />
    <glyph glyph-name="Udieresis" unicode="&#xdc;" horiz-adv-x="1400" 
d="M1151 1819q41 0 66 -29t19 -70q-6 -42 -40 -70q-33 -28 -74 -28q-42 0 -66 28t-18 70q6 41 39 70t74 29zM762 1819q42 0 66 -29t18 -70q-6 -42 -39 -70t-74 -28t-65 28t-19 70q6 41 39 70t74 29zM694 -37q-143 0 -242 49t-145 131q-97 177 -57 412l127 895h135l-123 -860
q-10 -70 -10 -132t15 -133t50 -121t104 -84t165 -34t174 34q140 61 211 205q53 108 78 265l122 860h136l-127 -895q-37 -258 -187 -425t-426 -167z" />
    <glyph glyph-name="Yacute" unicode="&#xdd;" horiz-adv-x="1175" 
d="M686 1540l254 295h164l-316 -295h-102zM520 0l88 625l-415 825h161l340 -688l547 688h152l-650 -825l-88 -625h-135z" />
    <glyph glyph-name="Thorn" unicode="&#xde;" horiz-adv-x="1175" 
d="M711 492q129 0 226 61t115 193t-64 198q-83 64 -214 64h-299l-72 -516h308zM776 1130q143 0 224 -38t121 -78q39 -40 59 -110q20 -69 8 -156q-27 -186 -166 -282t-324 -97h-313l-51 -369h-135l204 1450h134l-45 -320h284z" />
    <glyph glyph-name="germandbls" unicode="&#xdf;" horiz-adv-x="1214" 
d="M707 938q123 0 209 72t104 194t-46 191q-65 68 -183 67q-158 0 -243 -108t-110 -279l-151 -1075h-123l153 1094q31 215 163 347t337 132q166 0 259 -97t69 -270q-16 -118 -83 -202t-165 -113v-4q317 -61 264 -434q-31 -217 -189 -341t-382 -124q-55 0 -94 10l16 119
q43 -18 106 -19q166 0 282 96t140 268q24 171 -73 268q-98 97 -262 97h-43l14 111h31z" />
    <glyph glyph-name="agrave" unicode="&#xe0;" horiz-adv-x="1062" 
d="M643 1450l170 -295h-102l-232 295h164zM721 475q-176 0 -300 -50t-140 -163q-12 -82 47 -129t143 -47q180 0 267 93t108 233l10 63h-135zM725 573h143l9 58q18 117 -48 173t-186 56q-164 0 -303 -106l-61 84q74 61 179 97t201 36q177 0 265 -84t63 -258l-33 -232
q-37 -276 -36 -397h-115q-2 68 10 154h-4q-129 -178 -358 -179q-137 0 -226 71q-88 71 -67 210q43 317 567 317z" />
    <glyph glyph-name="aacute" unicode="&#xe1;" horiz-adv-x="1062" 
d="M575 1155l256 295h164l-317 -295h-103zM721 475q-176 0 -300 -50t-140 -163q-12 -82 47 -129t143 -47q180 0 267 93t108 233l10 63h-135zM725 573h143l9 58q18 117 -48 173t-186 56q-164 0 -303 -106l-61 84q74 61 179 97t201 36q177 0 265 -84t63 -258l-33 -232
q-37 -276 -36 -397h-115q-2 68 10 154h-4q-129 -178 -358 -179q-137 0 -226 71q-88 71 -67 210q43 317 567 317z" />
    <glyph glyph-name="acircumflex" unicode="&#xe2;" horiz-adv-x="1062" 
d="M401 1155l265 295h143l178 -295h-133l-135 221l-197 -221h-121zM721 475q-176 0 -300 -50t-140 -163q-12 -82 47 -129t143 -47q180 0 267 93t108 233l10 63h-135zM725 573h143l9 58q18 117 -48 173t-186 56q-164 0 -303 -106l-61 84q74 61 179 97t201 36q177 0 265 -84
t63 -258l-33 -232q-37 -276 -36 -397h-115q-2 68 10 154h-4q-129 -178 -358 -179q-137 0 -226 71q-88 71 -67 210q43 317 567 317z" />
    <glyph glyph-name="atilde" unicode="&#xe3;" horiz-adv-x="1062" 
d="M584 1399q66 0 155 -49q90 -49 123 -50q80 0 113 99h74q-23 -85 -74 -147t-113 -62t-162 49q-98 49 -129 49q-79 0 -116 -98h-74q21 80 79 144t124 65zM721 475q-176 0 -300 -50t-140 -163q-12 -82 47 -129t143 -47q180 0 267 93t108 233l10 63h-135zM725 573h143l9 58
q18 117 -48 173t-186 56q-164 0 -303 -106l-61 84q74 61 179 97t201 36q177 0 265 -84t63 -258l-33 -232q-37 -276 -36 -397h-115q-2 68 10 154h-4q-129 -178 -358 -179q-137 0 -226 71q-88 71 -67 210q43 317 567 317z" />
    <glyph glyph-name="adieresis" unicode="&#xe4;" horiz-adv-x="1062" 
d="M928 1434q42 0 66 -29t19 -70t-38 -69t-74 -29q-41 1 -65 29t-19 69q4 41 37 70t74 29zM539 1434q41 0 65 -29t20 -70q-5 -41 -38 -69t-74 -29q-42 1 -66 29t-18 69q4 41 37 70t74 29zM721 475q-176 0 -300 -50t-140 -163q-12 -82 47 -129t143 -47q180 0 267 93t108 233
l10 63h-135zM725 573h143l9 58q18 117 -48 173t-186 56q-164 0 -303 -106l-61 84q74 61 179 97t201 36q177 0 265 -84t63 -258l-33 -232q-37 -276 -36 -397h-115q-2 68 10 154h-4q-129 -178 -358 -179q-137 0 -226 71q-88 71 -67 210q43 317 567 317z" />
    <glyph glyph-name="aring" unicode="&#xe5;" horiz-adv-x="1062" 
d="M738 1450q-50 0 -89 -36t-47 -87t22 -85t80 -34t88 35t44 86q8 51 -20 86t-78 35zM694 1135q-80 0 -128 57t-38 136t76 137q66 59 145 59t125 -60t35 -136q-10 -77 -73 -135q-62 -58 -142 -58zM721 475q-176 0 -300 -50t-140 -163q-12 -82 47 -129t143 -47q180 0 267 93
t108 233l10 63h-135zM725 573h143l9 58q18 117 -48 173t-186 56q-164 0 -303 -106l-61 84q74 61 179 97t201 36q177 0 265 -84t63 -258l-33 -232q-37 -276 -36 -397h-115q-2 68 10 154h-4q-129 -178 -358 -179q-137 0 -226 71q-88 71 -67 210q43 317 567 317z" />
    <glyph glyph-name="ae" unicode="&#xe6;" horiz-adv-x="1744" 
d="M1358 860q-144 0 -240 -89q-98 -89 -114 -218h606q18 135 -45 221t-207 86zM625 442q-264 0 -335 -127q-15 -27 -20 -53q-12 -82 47 -129t144 -47q180 0 280 99t123 257h-239zM633 860q-164 0 -303 -106l-62 84q74 61 179 97t221 36q253 0 321 -197q63 92 167 144t208 53
q186 0 290 -114t72 -343l-10 -72h-729q-27 -152 46 -254t242 -102t284 152l88 -70q-95 -104 -191 -148t-227 -45q-276 0 -340 234q-143 -233 -449 -234q-137 0 -225 71t-68 210q12 102 109 193q52 47 152 75t237 29h236l2 18q41 289 -250 289z" />
    <glyph glyph-name="ccedilla" unicode="&#xe7;" horiz-adv-x="985" 
d="M604 -25q-18 0 -29 2l-92 -108l4 -4q27 14 81 14t99 -39q43 -38 33 -116t-86 -122t-172 -44t-182 43l37 65q61 -35 130 -35t113 23q44 24 50 66t-26 64q-64 44 -169 5l-28 31l139 166q-172 28 -264 162t-64 338t190 344t374 140t331 -163l-108 -74q-96 127 -236 127
q-170 0 -288 -112q-117 -112 -141 -275t64 -275t246 -112t283 131l84 -78q-162 -164 -373 -164z" />
    <glyph glyph-name="egrave" unicode="&#xe8;" horiz-adv-x="1138" 
d="M680 1450l170 -295h-102l-232 295h164zM698 860q-92 0 -171 -40t-121 -96q-90 -119 -95 -171h672q16 127 -67 217t-218 90zM586 -25q-215 -1 -327 139t-82 357t183 358q154 141 361 141t306 -131q99 -132 75 -311l-12 -86h-795q-14 -101 41 -216q28 -60 98 -100t167 -40
t193 46t150 122l80 -76q-166 -203 -438 -203z" />
    <glyph glyph-name="eacute" unicode="&#xe9;" horiz-adv-x="1138" 
d="M612 1155l256 295h164l-317 -295h-103zM698 860q-92 0 -171 -40t-121 -96q-90 -119 -95 -171h672q16 127 -67 217t-218 90zM586 -25q-215 -1 -327 139t-82 357t183 358q154 141 361 141t306 -131q99 -132 75 -311l-12 -86h-795q-14 -101 41 -216q28 -60 98 -100t167 -40
t193 46t150 122l80 -76q-166 -203 -438 -203z" />
    <glyph glyph-name="ecircumflex" unicode="&#xea;" horiz-adv-x="1138" 
d="M438 1155l264 295h144l178 -295h-133l-135 221l-197 -221h-121zM698 860q-92 0 -171 -40t-121 -96q-90 -119 -95 -171h672q16 127 -67 217t-218 90zM586 -25q-215 -1 -327 139t-82 357t183 358q154 141 361 141t306 -131q99 -132 75 -311l-12 -86h-795q-14 -101 41 -216
q28 -60 98 -100t167 -40t193 46t150 122l80 -76q-166 -203 -438 -203z" />
    <glyph glyph-name="edieresis" unicode="&#xeb;" horiz-adv-x="1138" 
d="M965 1434q41 0 65 -29t20 -70q-5 -41 -38 -69t-74 -29q-42 1 -66 29t-18 69q4 41 37 70t74 29zM576 1434q40 0 65 -29t20 -70t-38 -69t-74 -29q-41 1 -65 29t-19 69q4 41 37 70q34 29 74 29zM698 860q-92 0 -171 -40t-121 -96q-90 -119 -95 -171h672q16 127 -67 217
t-218 90zM586 -25q-215 -1 -327 139t-82 357t183 358q154 141 361 141t306 -131q99 -132 75 -311l-12 -86h-795q-14 -101 41 -216q28 -60 98 -100t167 -40t193 46t150 122l80 -76q-166 -203 -438 -203z" />
    <glyph glyph-name="igrave" unicode="&#xec;" horiz-adv-x="491" 
d="M356 1450l170 -295h-102l-231 295h163zM184 0l133 946h123l-133 -946h-123z" />
    <glyph glyph-name="iacute" unicode="&#xed;" horiz-adv-x="491" 
d="M289 1155l256 295h164l-318 -295h-102zM184 0l133 946h123l-133 -946h-123z" />
    <glyph glyph-name="icircumflex" unicode="&#xee;" horiz-adv-x="491" 
d="M115 1155l264 295h143l178 -295h-133l-135 221l-196 -221h-121zM184 0l133 946h123l-133 -946h-123z" />
    <glyph glyph-name="idieresis" unicode="&#xef;" horiz-adv-x="491" 
d="M641 1434q41 0 66 -29t19 -70t-38 -69q-33 -28 -74 -29q-42 1 -66 29t-18 69q4 41 37 70t74 29zM252 1434q42 0 66 -29t19 -70t-38 -69t-74 -29q-41 1 -65 29t-19 69q4 41 37 70t74 29zM184 0l133 946h123l-133 -946h-123z" />
    <glyph glyph-name="eth" unicode="&#xf0;" horiz-adv-x="1216" 
d="M621 86q169 0 287 112t142 276t-64 275t-257 111q-170 0 -288 -111q-117 -112 -141 -276q-24 -163 64 -275t257 -112zM479 1237l230 115q-94 98 -170 159l114 62q96 -80 172 -164l230 115l63 -62l-233 -116q358 -371 295 -822q-35 -252 -195 -400t-379 -148t-339 140
t-91 357q31 217 192 357t377 141q178 0 289 -113l4 4q-106 256 -270 424l-236 -117z" />
    <glyph glyph-name="ntilde" unicode="&#xf1;" horiz-adv-x="1138" 
d="M620 1399q66 0 156 -49t123 -50q80 0 113 99h73q-23 -86 -73 -148q-52 -61 -114 -61t-160 49t-130 49q-79 0 -116 -98h-74q20 80 78 144t124 65zM735 860q-143 0 -249 -100t-134 -287l-65 -473h-123l96 680q4 35 14 138t13 128h123q-16 -143 -15 -166h6q49 82 145 136
t206 55q360 0 303 -408l-80 -563h-123l78 557q45 303 -195 303z" />
    <glyph glyph-name="ograve" unicode="&#xf2;" horiz-adv-x="1216" 
d="M719 1450l170 -295h-103l-231 295h164zM621 86q169 0 287 112t142 276t-64 275t-257 111q-170 0 -288 -111q-117 -112 -141 -276q-24 -163 64 -275t257 -112zM176 473q31 217 192 357q162 140 378 140t336 -140t90 -357t-190 -357t-378 -140q-217 0 -337 140t-91 357z
" />
    <glyph glyph-name="oacute" unicode="&#xf3;" horiz-adv-x="1216" 
d="M651 1155l256 295h164l-317 -295h-103zM621 86q169 0 287 112t142 276t-64 275t-257 111q-170 0 -288 -111q-117 -112 -141 -276q-24 -163 64 -275t257 -112zM176 473q31 217 192 357q162 140 378 140t336 -140t90 -357t-190 -357t-378 -140q-217 0 -337 140t-91 357z
" />
    <glyph glyph-name="ocircumflex" unicode="&#xf4;" horiz-adv-x="1216" 
d="M477 1155l264 295h144l178 -295h-133l-135 221l-197 -221h-121zM621 86q169 0 287 112t142 276t-64 275t-257 111q-170 0 -288 -111q-117 -112 -141 -276q-24 -163 64 -275t257 -112zM176 473q31 217 192 357q162 140 378 140t336 -140t90 -357t-190 -357t-378 -140
q-217 0 -337 140t-91 357z" />
    <glyph glyph-name="otilde" unicode="&#xf5;" horiz-adv-x="1216" 
d="M659 1399q66 0 156 -49t123 -50q80 0 113 99h73q-23 -86 -73 -148q-51 -61 -113 -61t-162 49q-98 49 -129 49q-80 0 -117 -98h-73q20 80 78 144t124 65zM621 86q169 0 287 112t142 276t-64 275t-257 111q-170 0 -288 -111q-117 -112 -141 -276q-24 -163 64 -275t257 -112
zM176 473q31 217 192 357q162 140 378 140t336 -140t90 -357t-190 -357t-378 -140q-217 0 -337 140t-91 357z" />
    <glyph glyph-name="odieresis" unicode="&#xf6;" horiz-adv-x="1216" 
d="M1004 1434q42 0 66 -29t19 -70t-38 -69t-74 -29q-41 1 -65 29t-19 69q4 41 37 70t74 29zM614 1434q40 0 66 -29t20 -70t-38 -69t-74 -29q-42 1 -66 29t-18 69q4 41 37 70t73 29zM621 86q169 0 287 112t142 276t-64 275t-257 111q-170 0 -288 -111q-117 -112 -141 -276
q-24 -163 64 -275t257 -112zM176 473q31 217 192 357q162 140 378 140t336 -140t90 -357t-190 -357t-378 -140q-217 0 -337 140t-91 357z" />
    <glyph glyph-name="divide" unicode="&#xf7;" horiz-adv-x="1363" 
d="M621 305q6 43 41 73q36 30 78 31t69 -30t21 -74t-42 -74t-78 -31t-69 31q-26 31 -20 74zM799 831q-43 0 -70 31q-26 31 -20 74t41 74q36 30 78 30t69 -30t21 -74q-6 -43 -41 -74t-78 -31zM240 571l14 99h1044l-14 -99h-1044z" />
    <glyph glyph-name="oslash" unicode="&#xf8;" horiz-adv-x="1216" 
d="M632 86q158 0 276 112t140 268t-40 249l-615 -545q80 -84 239 -84zM714 860q-154 0 -273 -112q-118 -112 -139 -262q-21 -152 38 -250l614 542q-86 82 -240 82zM80 4l164 146q-92 129 -68 323q31 217 192 357t362 140t321 -108l161 144l58 -60l-166 -145q96 -131 67 -338
t-189 -347t-366 -140q-205 0 -319 110l-160 -141z" />
    <glyph glyph-name="ugrave" unicode="&#xf9;" horiz-adv-x="1138" 
d="M680 1450l170 -295h-102l-232 295h164zM526 86q143 0 250 100q106 100 131 287l68 473h123l-97 -680q-6 -39 -15 -144t-11 -122h-123q16 143 14 166h-6q-49 -82 -144 -136t-206 -55q-360 0 -303 408l80 563h123l-78 -557q-45 -303 194 -303z" />
    <glyph glyph-name="uacute" unicode="&#xfa;" horiz-adv-x="1138" 
d="M612 1155l256 295h164l-317 -295h-103zM526 86q143 0 250 100q106 100 131 287l68 473h123l-97 -680q-6 -39 -15 -144t-11 -122h-123q16 143 14 166h-6q-49 -82 -144 -136t-206 -55q-360 0 -303 408l80 563h123l-78 -557q-45 -303 194 -303z" />
    <glyph glyph-name="ucircumflex" unicode="&#xfb;" horiz-adv-x="1138" 
d="M438 1155l264 295h144l178 -295h-133l-135 221l-197 -221h-121zM526 86q143 0 250 100q106 100 131 287l68 473h123l-97 -680q-6 -39 -15 -144t-11 -122h-123q16 143 14 166h-6q-49 -82 -144 -136t-206 -55q-360 0 -303 408l80 563h123l-78 -557q-45 -303 194 -303z" />
    <glyph glyph-name="udieresis" unicode="&#xfc;" horiz-adv-x="1138" 
d="M965 1434q41 0 65 -29t20 -70q-5 -41 -38 -69t-74 -29q-42 1 -66 29t-18 69q4 41 37 70t74 29zM576 1434q40 0 65 -29t20 -70t-38 -69t-74 -29q-41 1 -65 29t-19 69q4 41 37 70q34 29 74 29zM526 86q143 0 250 100q106 100 131 287l68 473h123l-97 -680q-6 -39 -15 -144
t-11 -122h-123q16 143 14 166h-6q-49 -82 -144 -136t-206 -55q-360 0 -303 408l80 563h123l-78 -557q-45 -303 194 -303z" />
    <glyph glyph-name="yacute" unicode="&#xfd;" horiz-adv-x="948" 
d="M518 1155l256 295h164l-317 -295h-103zM100 -492q-51 0 -116 19l26 115q76 -23 114 -23t74 27q36 28 56 56t45 75l117 219l-252 950h137l201 -796l418 796h131l-662 -1239q-104 -199 -289 -199z" />
    <glyph glyph-name="thorn" unicode="&#xfe;" horiz-adv-x="1251" 
d="M657 86q168 0 286 112q117 112 141 276t-63 275t-255 111t-299 -112t-154 -275t77 -275t267 -112zM780 971q217 -1 337 -141t90 -357q-31 -217 -191 -357t-377 -141q-115 -1 -213 49t-139 142h-4l-88 -633h-123l282 2015h123l-106 -768h4q67 92 179 142t226 49z" />
    <glyph glyph-name="ydieresis" unicode="&#xff;" horiz-adv-x="948" 
d="M870 1434q40 0 66 -29t20 -70t-38 -69t-74 -29q-42 1 -66 29t-18 69q4 41 37 70t73 29zM482 1434q40 0 65 -29t19 -70t-38 -69q-34 -28 -74 -29q-40 1 -64 29t-19 69q4 41 37 70q34 29 74 29zM100 -492q-51 0 -116 19l26 115q76 -23 114 -23t74 27q36 28 56 56t45 75
l117 219l-252 950h137l201 -796l418 796h131l-662 -1239q-104 -199 -289 -199z" />
    <glyph glyph-name="dotlessi" unicode="&#x131;" horiz-adv-x="491" 
d="M184 0l133 946h123l-133 -946h-123z" />
    <glyph glyph-name="Lslash" unicode="&#x141;" horiz-adv-x="1024" 
d="M199 0l65 473l-166 -131l21 133l164 129l120 846h136l-105 -733l498 387l-19 -127l-497 -387l-66 -467h676l-16 -123h-811z" />
    <glyph glyph-name="lslash" unicode="&#x142;" horiz-adv-x="491" 
d="M184 0l95 664l-197 -175l18 138l197 174l104 747h123l-88 -624l197 176l-19 -137l-196 -175l-111 -788h-123z" />
    <glyph glyph-name="OE" unicode="&#x152;" horiz-adv-x="1933" 
d="M1081 1327q-230 0 -445 -141q-105 -70 -181 -190t-98 -276q-21 -156 25 -278t135 -188q177 -130 382 -131h172l170 1204h-160zM846 0q-301 0 -485 203q-183 203 -138 522q33 229 171 398t326 248t396 79h885l-19 -123h-606l-71 -516h571l-18 -123h-572l-80 -565h623
l-17 -123h-966z" />
    <glyph glyph-name="oe" unicode="&#x153;" horiz-adv-x="1857" 
d="M579 86q159 0 269 112t134 276t-57 275t-239 111t-271 -114t-135 -274q-22 -158 60 -272q80 -114 239 -114zM1388 86q168 0 283 152l88 -70q-94 -104 -190 -148t-228 -45q-276 0 -340 234h-4q-75 -113 -189 -173t-251 -61q-203 1 -317 141t-83 356q30 216 184 357
q155 141 357 142q285 0 373 -236q55 98 159 167t247 69q186 0 290 -114t72 -343l-10 -72h-729q-27 -152 46 -254q74 -102 242 -102zM1470 860q-144 0 -240 -89q-98 -89 -114 -218h606q18 135 -45 221t-207 86z" />
    <glyph glyph-name="Scaron" unicode="&#x160;" horiz-adv-x="1138" 
d="M1112 1835l-258 -295h-143l-183 295h127l138 -233l208 233h111zM582 86q139 0 242 78t122 207q23 156 -117 224q-61 31 -137 55t-152 54t-134 72q-59 43 -91 122q-31 79 -14 192q25 184 175 290q151 106 345 107q254 0 371 -182l-129 -84q-84 143 -262 143
q-139 0 -243 -72t-122 -202q-23 -167 115 -239q61 -31 138 -55q203 -62 288 -120q59 -41 90 -118t14 -187q-27 -188 -174 -298t-334 -110q-313 0 -438 219l139 86q84 -182 308 -182z" />
    <glyph glyph-name="scaron" unicode="&#x161;" horiz-adv-x="872" 
d="M926 1450l-260 -295h-144l-180 295h127l135 -233l211 233h111zM452 86q86 0 158 48t83 123t-41 113t-133 54t-160 38t-129 79t-35 157q18 129 126 201t236 72q244 0 307 -178l-119 -66q-53 133 -204 133q-74 0 -144 -42t-79 -110t43 -105q51 -36 133 -51q82 -16 162 -36
t127 -80q48 -60 34 -168q-18 -139 -129 -216t-254 -77q-270 0 -352 193l119 74q27 -74 97 -115t154 -41z" />
    <glyph glyph-name="Ydieresis" unicode="&#x178;" horiz-adv-x="1175" 
d="M1038 1819q40 0 66 -29q24 -29 18 -70q-6 -42 -39 -70t-73 -28t-66 28q-24 28 -18 70q6 41 39 70t73 29zM649 1819q41 0 66 -29t19 -70q-6 -42 -40 -70t-74 -28t-64 28t-19 70q6 41 38 70q33 29 74 29zM520 0l88 625l-415 825h161l340 -688l547 688h152l-650 -825
l-88 -625h-135z" />
    <glyph glyph-name="Zcaron" unicode="&#x17d;" horiz-adv-x="1138" 
d="M1112 1835l-258 -295h-143l-183 295h127l138 -233l208 233h111zM47 0l14 106l1020 1221h-835l18 123h1010l-17 -111l-1026 -1216h877l-16 -123h-1045z" />
    <glyph glyph-name="zcaron" unicode="&#x17e;" horiz-adv-x="872" 
d="M926 1450l-260 -295h-144l-180 295h127l135 -233l211 233h111zM55 0l11 74l673 762h-538l16 110h709l-11 -74l-671 -761h590l-17 -111h-762z" />
    <glyph glyph-name="florin" unicode="&#x192;" 
d="M88 -295q-100 0 -156 49l76 96q37 -34 109 -34t120 55t85 172l231 717h-221l14 98h240l104 316q94 301 334 301q102 0 176 -62l-78 -92q-57 43 -112 43q-137 0 -197 -184l-104 -322h221l-15 -98h-239l-260 -801q-86 -254 -328 -254z" />
    <glyph glyph-name="circumflex" unicode="&#x2c6;" horiz-adv-x="491" 
d="M115 1155l264 295h143l178 -295h-133l-135 221l-196 -221h-121z" />
    <glyph glyph-name="caron" unicode="&#x2c7;" horiz-adv-x="491" 
d="M735 1450l-260 -295h-143l-180 295h127l135 -233l211 233h110z" />
    <glyph glyph-name="uni02C9" unicode="&#x2c9;" horiz-adv-x="491" 
d="M705 1339l-15 -98h-540l14 98h541z" />
    <glyph glyph-name="breve" unicode="&#x2d8;" horiz-adv-x="491" 
d="M242 1450q0 -78 49 -119t137 -41t143 36t88 124h86q-33 -122 -123 -190t-212 -68t-194 68t-60 190h86z" />
    <glyph glyph-name="dotaccent" unicode="&#x2d9;" horiz-adv-x="491" 
d="M453 1434q41 0 65 -29t20 -70q-5 -41 -38 -69t-74 -29q-42 1 -66 29t-18 69q4 41 37 70t74 29z" />
    <glyph glyph-name="ring" unicode="&#x2da;" horiz-adv-x="491" 
d="M452 1450q-50 0 -90 -36t-47 -87q-8 -51 22 -85t80 -34t88 35t44 86q8 51 -20 86q-27 35 -77 35zM407 1135q-79 0 -127 57t-38 136t75 137q66 59 145 59t125 -60t36 -136q-9 -77 -73 -135t-143 -58z" />
    <glyph glyph-name="ogonek" unicode="&#x2db;" horiz-adv-x="491" 
d="M182 -344q70 0 121 47l27 -78q-82 -67 -174 -67t-139 45q-46 45 -35 123q18 133 219 274h92q-61 -43 -117 -111t-67 -137q-12 -96 73 -96z" />
    <glyph glyph-name="tilde" unicode="&#x2dc;" horiz-adv-x="491" 
d="M296 1399q66 0 156 -49t123 -50q80 0 113 99h74q-23 -85 -74 -147q-52 -62 -114 -62t-160 49t-129 49q-80 0 -117 -98h-74q20 80 78 144t124 65z" />
    <glyph glyph-name="hungarumlaut" unicode="&#x2dd;" horiz-adv-x="491" 
d="M438 1155l256 295h164l-317 -295h-103zM139 1155l256 295h164l-317 -295h-103z" />
    <glyph glyph-name="uni03A9" unicode="&#x3a9;" horiz-adv-x="1384" 
d="M410 102v7q-100 113 -152 285t-22 380q43 312 233 502t436 190t373 -198t86 -486q-31 -217 -135 -394t-232 -279v-7h297l-14 -102h-449l11 76q141 94 253 274t144 408q45 326 -124 510q-89 96 -226 96q-201 0 -349 -174t-182 -412t28 -426q64 -188 173 -276l-10 -76h-449
l15 102h295z" />
    <glyph glyph-name="uni03BC" unicode="&#x3bc;" horiz-adv-x="1138" 
d="M526 86q143 0 250 100q106 100 131 287l68 473h123l-97 -680q-6 -39 -15 -144t-11 -122h-123q16 143 14 166h-6q-49 -82 -144 -136q-96 -54 -228 -54t-205 77l-74 -520h-121l199 1413h123l-78 -557q-45 -303 194 -303z" />
    <glyph glyph-name="pi" unicode="&#x3c0;" horiz-adv-x="1085" 
d="M440 1073h752l-29 -106h-157l-95 -670q-27 -205 -12 -297h-117q-23 57 11 285l94 682h-369q-41 -231 -126 -531t-156 -436h-117q78 158 159 446t119 521q-147 0 -219 -27l-12 82q92 51 274 51z" />
    <glyph glyph-name="uni2010" unicode="&#x2010;" horiz-adv-x="681" 
d="M150 430l14 111h506l-15 -111h-505z" />
    <glyph glyph-name="endash" unicode="&#x2013;" horiz-adv-x="1024" 
d="M61 430l15 111h1024l-15 -111h-1024z" />
    <glyph glyph-name="emdash" unicode="&#x2014;" horiz-adv-x="2048" 
d="M61 430l15 111h2048l-15 -111h-2048z" />
    <glyph glyph-name="quoteleft" unicode="&#x2018;" horiz-adv-x="532" 
d="M610 1450l-198 -467h-148l223 467h123z" />
    <glyph glyph-name="quoteright" unicode="&#x2019;" horiz-adv-x="532" 
d="M264 983l197 467h149l-225 -467h-121z" />
    <glyph glyph-name="quotesinglbase" unicode="&#x201a;" horiz-adv-x="532" 
d="M88 -283l195 467h149l-223 -467h-121z" />
    <glyph glyph-name="quotedblleft" unicode="&#x201c;" 
d="M1055 1450l-197 -467h-149l225 467h121zM698 1450l-196 -467h-150l226 467h120z" />
    <glyph glyph-name="quotedblright" unicode="&#x201d;" 
d="M352 983l197 467h149l-225 -467h-121zM709 983l196 467h150l-226 -467h-120z" />
    <glyph glyph-name="quotedblbase" unicode="&#x201e;" 
d="M176 -283l195 467h149l-223 -467h-121zM532 -283l195 467h150l-224 -467h-121z" />
    <glyph glyph-name="dagger" unicode="&#x2020;" 
d="M434 -258l170 1202h-393l14 98h393l58 408h123l-58 -408h394l-15 -98h-393l-170 -1202h-123z" />
    <glyph glyph-name="daggerdbl" unicode="&#x2021;" 
d="M434 -258l58 408h-394l15 98h393l98 696h-393l14 98h393l58 408h123l-58 -408h394l-15 -98h-393l-98 -696h393l-14 -98h-394l-57 -408h-123z" />
    <glyph glyph-name="bullet" unicode="&#x2022;" horiz-adv-x="1024" 
d="M667 1087q151 0 241 -106t68 -257t-142 -256q-120 -106 -272 -106q-150 0 -240 106t-68 258q22 151 141 256q121 105 272 105z" />
    <glyph glyph-name="ellipsis" unicode="&#x2026;" horiz-adv-x="2048" 
d="M1620 86q6 41 39 70q33 28 74 28t65 -28t19 -70q-6 -41 -39 -70q-33 -28 -74 -28t-66 28q-24 29 -18 70zM938 86q6 41 39 70q33 28 74 28t65 -28t19 -70q-6 -41 -39 -70q-33 -28 -74 -28t-66 28q-24 29 -18 70zM256 86q6 41 39 70q33 28 74 28t65 -28t19 -70
q-6 -41 -39 -70q-33 -28 -74 -28t-66 28q-24 29 -18 70z" />
    <glyph glyph-name="perthousand" unicode="&#x2030;" horiz-adv-x="2009" 
d="M133 -12l1149 1532l86 -58l-1151 -1532zM560 1376q-89 0 -161 -62t-84 -153q-12 -90 42 -152q53 -63 143 -63t162 64t83 151q12 87 -42 151t-143 64zM486 848q-130 0 -208 92t-61 221q15 129 121 221t235 92t208 -92t62 -221t-123 -221q-104 -92 -234 -92zM1654 74
q90 0 161 63t83 153t-41 151q-53 63 -143 63t-162 -64t-84 -152q-12 -90 42 -152t144 -62zM1726 602q129 0 209 -92t62 -221q-17 -129 -123 -221t-236 -92t-208 92t-60 221t122 221t234 92zM951 74q89 0 161 63t84 153t-42 151q-54 63 -143 63t-161 -64t-84 -152
q-12 -90 42 -152t143 -62zM1024 602q129 0 209 -92q79 -92 61 -221t-124 -221t-234 -92q-130 0 -208 92t-60 221t122 221t234 92z" />
    <glyph glyph-name="guilsinglleft" unicode="&#x2039;" horiz-adv-x="645" 
d="M420 70l-223 415l340 416l77 -59l-288 -357l192 -360z" />
    <glyph glyph-name="guilsinglright" unicode="&#x203a;" horiz-adv-x="645" 
d="M362 901l222 -416l-338 -415l-78 59l287 356l-191 361z" />
    <glyph glyph-name="fraction" unicode="&#x2044;" horiz-adv-x="344" 
d="M-344 -12l1149 1532l86 -58l-1151 -1532z" />
    <glyph glyph-name="Euro" unicode="&#x20ac;" 
d="M899 1475q172 0 289 -64l-53 -115q-115 68 -228 68q-153 0 -269 -100t-179 -293h555l-39 -97h-545q-39 -174 -43 -280h479l-39 -96h-444q0 -418 283 -418q84 0 162 41t122 104l78 -63q-62 -80 -168 -133t-211 -54q-197 1 -298 135t-99 388h-148l41 96h113q7 107 43 280
h-145l45 97h129q86 264 241 384q156 120 328 120z" />
    <glyph glyph-name="afii61289" unicode="&#x2113;" horiz-adv-x="925" 
d="M709 1497q-69 0 -133 -92t-91 -285l-69 -487q371 367 407 635q33 229 -114 229zM557 82q92 0 168 57t129 137l55 -49q-158 -242 -383 -241q-158 0 -218 110t-40 289l4 29q-27 -18 -125 -99l-30 74q129 102 174 143l80 578q37 258 135 371t214 113t163 -90q47 -89 26 -232
q-49 -352 -510 -766l-10 -68q-25 -182 25 -269t143 -87z" />
    <glyph glyph-name="trademark" unicode="&#x2122;" horiz-adv-x="2027" 
d="M1065 606l119 844h176l170 -672l360 672h170l-118 -844h-111l102 740h-4l-393 -740h-66l-188 740h-4l-102 -740h-111zM530 606l105 746h-273l15 98h655l-14 -98h-273l-104 -746h-111z" />
    <glyph glyph-name="Omega" unicode="&#x2126;" horiz-adv-x="1384" 
d="M410 102v7q-100 113 -152 285t-22 380q43 312 233 502t436 190t373 -198t86 -486q-31 -217 -135 -394t-232 -279v-7h297l-14 -102h-449l11 76q141 94 253 274t144 408q45 326 -124 510q-89 96 -226 96q-201 0 -349 -174t-182 -412t28 -426q64 -188 173 -276l-10 -76h-449
l15 102h295z" />
    <glyph glyph-name="estimated" unicode="&#x212e;" horiz-adv-x="2015" 
d="M1636 758v409q0 29 -18 50q-217 213 -508 213t-506 -220q-20 -20 -20 -51v-401q0 -14 10 -15h1034q8 1 8 15zM1944 705h-1350q-10 0 -10 -11v-407q0 -25 18 -47q215 -221 510 -222q158 0 297 67t240 181h118q-113 -133 -285 -211t-372 -78q-344 -1 -588 219t-243 529
q0 309 243 529q244 220 589 220t589 -218q244 -220 244 -531v-20z" />
    <glyph glyph-name="partialdiff" unicode="&#x2202;" horiz-adv-x="1042" 
d="M471 88h2q139 0 255 162t173 401q-18 88 -87 160q-70 72 -186 72t-225 -125t-133 -295q-24 -171 30 -273q56 -102 171 -102zM699 1618q191 0 303 -198t59 -580t-215 -619q-162 -236 -400 -235q-174 0 -250 136t-44 351q31 215 174 363t309 147q119 0 197 -63t100 -132h2
q10 41 14 93q41 283 -43 459q-83 176 -233 175q-150 0 -277 -98l-33 90q147 111 337 111z" />
    <glyph glyph-name="uni2206" unicode="&#x2206;" horiz-adv-x="1239" 
d="M199 100h864l-178 846q-8 46 -39 186t-37 195h-8q-18 -45 -83 -176t-85 -176zM63 0l13 88l688 1397h135l291 -1395l-12 -90h-1115z" />
    <glyph glyph-name="product" unicode="&#x220f;" horiz-adv-x="1540" 
d="M1487 1331h-213v-1530h-119v1530h-569v-1530h-119v1530h-211v113h1231v-113z" />
    <glyph glyph-name="summation" unicode="&#x2211;" horiz-adv-x="1267" 
d="M1225 -201h-975v86l532 733l-508 740v86h920v-107h-752v-8l480 -692l-516 -711v-8h819v-119z" />
    <glyph glyph-name="minus" unicode="&#x2212;" horiz-adv-x="1363" 
d="M240 571l14 99h1044l-14 -99h-1044z" />
    <glyph glyph-name="uni2215" unicode="&#x2215;" horiz-adv-x="344" 
d="M-344 -12l1149 1532l86 -58l-1151 -1532z" />
    <glyph glyph-name="uni2219" unicode="&#x2219;" horiz-adv-x="532" 
d="M371 750q41 0 65 -29t20 -70q-5 -41 -38 -69t-74 -29q-42 1 -66 29t-18 69q4 41 37 70t74 29z" />
    <glyph glyph-name="radical" unicode="&#x221a;" horiz-adv-x="1310" 
d="M1305 1714l-428 -2029h-113l-318 977l-145 -56l-27 80l252 96l258 -784q4 -20 33 -150l2 -2q6 59 25 146l366 1722h95z" />
    <glyph glyph-name="infinity" unicode="&#x221e;" horiz-adv-x="1656" 
d="M1264 821h-2q-48 -1 -100 -29t-80 -52t-80 -80t-56 -60q116 -127 180 -176t148 -49q84 1 139 67t55 162t-57 156t-147 61zM530 375h2q58 0 113 29q54 29 89 68q36 38 72 75t42 45q-150 179 -234 212q-45 17 -96 17q-92 -1 -146 -67t-54 -160t58 -156q60 -62 154 -63z
M1556 602v-2q0 -135 -88 -221t-193 -86t-186 56t-194 181q-68 -76 -112 -118q-45 -42 -117 -80q-72 -39 -148 -39q-119 0 -205 88t-86 217t87 216q86 87 202 87t202 -62t183 -177q161 185 251 217q62 22 122 22q126 0 204 -83t78 -216z" />
    <glyph glyph-name="integral" unicode="&#x222b;" horiz-adv-x="892" 
d="M755 1665q-157 0 -157 -424l25 -1055q0 -287 -88 -417q-61 -94 -181 -95q-70 0 -121 33l25 90q59 -23 88 -22q162 0 162 413q0 168 -12 537t-13 528q0 319 101 430q70 76 174 76q61 1 102 -26l-24 -88q-29 20 -81 20z" />
    <glyph glyph-name="approxequal" unicode="&#x2248;" horiz-adv-x="1220" 
d="M466 461q-62 0 -106 -39t-90 -111l-57 43q94 188 266 189q62 -1 102 -19q39 -18 78 -40t41 -24q14 -10 52 -29t68 -30q30 -10 78 -10q92 0 175 150l55 -45q-90 -186 -247 -187q-55 1 -101 19t-148 76q-104 58 -166 57zM887 719q106 0 186 149l55 -45q-90 -186 -247 -186
q-55 0 -101 18t-146 76q-102 57 -166 57t-110 -38q-45 -39 -88 -111l-57 43q96 188 266 188q67 0 105 -19q96 -48 108 -57q12 -10 35 -22t43 -24t31 -14q12 -3 31 -9t55 -6z" />
    <glyph glyph-name="notequal" unicode="&#x2260;" horiz-adv-x="1247" 
d="M1145 819v-86h-348l-133 -293h481v-84h-516l-107 -231l-67 31l92 200h-299v84h334l133 293h-467v86h502l104 228l68 -31l-91 -197h314z" />
    <glyph glyph-name="lessequal" unicode="&#x2264;" horiz-adv-x="1267" 
d="M1165 37h-895v88h895v-88zM1161 209l-880 450v89l878 450v-104l-784 -385v-4l786 -392v-104z" />
    <glyph glyph-name="greaterequal" unicode="&#x2265;" horiz-adv-x="1267" 
d="M1165 37h-893v88h893v-88zM283 1198l878 -450v-89l-878 -450v104l784 387v7l-784 387v104z" />
    <glyph glyph-name="lozenge" unicode="&#x25ca;" horiz-adv-x="1312" 
d="M1090 719l-291 594q-18 43 -37 106h-6q-18 -66 -37 -106l-289 -588l293 -598q20 -43 35 -104h6q12 51 35 104zM1204 721l-395 -805h-100l-392 805l396 809h100z" />
    <glyph glyph-name="fi" unicode="&#xfb01;" horiz-adv-x="1062" 
d="M724 1573q98 0 150 -25l-38 -106q-39 20 -109 20q-164 0 -201 -252l-37 -264h222l-17 -110h-221l-117 -836h-123l117 836h-196l16 110h197l43 309q25 166 120 242q96 76 194 76zM1016 1413q40 0 62 -27q22 -28 17 -66t-36 -65t-70 -27t-61 28q-22 26 -17 65q4 39 35 65
t70 27zM756 0l133 946h123l-133 -946h-123z" />
    <glyph glyph-name="fl" unicode="&#xfb02;" horiz-adv-x="1062" 
d="M756 0l217 1548h123l-217 -1548h-123zM724 1573q98 0 150 -25l-38 -106q-39 20 -109 20q-164 0 -201 -252l-37 -264h222l-17 -110h-221l-117 -836h-123l117 836h-196l16 110h197l43 309q25 166 120 242q96 76 194 76z" />
    <glyph glyph-name="a.superior" horiz-adv-x="690" 
d="M596 1147q-268 0 -283 -109q-4 -36 37 -60t99 -24q98 0 156 57t69 136h-78zM555 1233h131q10 86 -23 121q-32 35 -130 35t-199 -72l-41 78q107 80 255 80q148 1 202 -51t36 -173l-22 -164q-20 -139 -21 -206h-100l6 94h-4q-80 -106 -227 -107q-96 0 -156 41
q-59 41 -47 125q29 199 340 199z" />
    <glyph glyph-name="o.superior" horiz-adv-x="790" 
d="M527 954q97 0 172 64t88 155t-42 153t-154 62t-173 -64q-74 -65 -85 -153q-11 -89 43 -153t151 -64zM598 1475q144 0 226 -83q81 -82 62 -218q-20 -136 -124 -221t-248 -85t-221 84q-78 84 -60 219q21 135 121 219t244 85z" />
    <glyph glyph-name="one.superior" horiz-adv-x="692" 
d="M446 592l107 760l-195 -135l-41 69l250 176h111l-121 -870h-111z" />
    <glyph glyph-name="two.superior" horiz-adv-x="692" 
d="M553 1376q-135 0 -193 -121l-102 9q41 110 131 160q89 50 197 50t178 -60t55 -163q-8 -61 -48 -121t-77 -97q-37 -36 -108 -95l-295 -248h450l-12 -98h-598l12 88l400 344q55 47 81 72q74 72 84 140q9 68 -33 104t-122 36z" />
    <glyph glyph-name="three.superior" horiz-adv-x="692" 
d="M461 1098q75 0 141 38t76 115q8 53 -31 89t-110 36q-117 0 -195 -102l-72 51q115 150 281 150q115 -1 183 -61t54 -161q-8 -68 -64 -123t-132 -79v-4q86 -11 129 -73t30 -161t-107 -167t-222 -66q-217 0 -260 182l102 37q31 -121 172 -121q70 0 134 47t75 123
q10 76 -48 114t-161 37h-35l13 99h47z" />
    </font>
</defs>
</svg>
